#VERSION:0.82;
#TITLE:Chain of pain;
#SUBTITLE:;
#ARTIST:猫叉Master+ vs kors k;
#TITLETRANSLIT:;
#SUBTITLETRANSLIT:;
#ARTISTTRANSLIT:Nekomata Master+ vs kors k;
#GENRE:Psychedelic Trance;
#ORIGIN:;
#CREDIT:;
#BANNER:Chain of pain-bn.png;
#BACKGROUND:Chain of pain-bg.png;
#PREVIEWVID:;
#JACKET:Chain of pain-jk.png;
#CDIMAGE:;
#DISCIMAGE:;
#LYRICSPATH:;
#CDTITLE:;
#MUSIC:Chain of pain.mp3;
#OFFSET:1.400000;
#SAMPLESTART:23.677999;
#SAMPLELENGTH:12.569000;
#SELECTABLE:YES;
#BPMS:0.000=153.000;
#STOPS:;
#DELAYS:;
#WARPS:;
#TIMESIGNATURES:0.000=4=4;
#TICKCOUNTS:0.000=4;
#COMBOS:0.000=1;
#SPEEDS:0.000=1.000=0.000=0;
#SCROLLS:0.000=1.000;
#FAKES:;
#LABELS:0.000=Song Start;
#LASTSECONDHINT:118.599998;
#BGCHANGES:;
#KEYSOUNDS:;
#ATTACKS:
;

//---------------dance-single - S-HEAVY----------------
#NOTEDATA:;
#CHARTNAME:DJ OMiY-HSP;
#STEPSTYPE:dance-single;
#DESCRIPTION:S-HEAVY;
#CHARTSTYLE:;
#DIFFICULTY:Hard;
#METER:9;
#RADARVALUES:0.565856,0.689326,0.097202,0.178204,0.376658,455.000000,12.000000,22.000000,0.000000,0.000000,0.000000,0.000000,0.000000,0.565856,0.689326,0.097202,0.178204,0.376658,455.000000,12.000000,22.000000,0.000000,0.000000,0.000000,0.000000,0.000000;
#CREDIT:DJ OMiY;
#NOTES:
0000
0000
0000
0000
,
0000
0000
0000
0000
,
0000
0000
0000
0000
,
0000
0000
0000
0000
,
0000
0000
0000
0000
,
0000
0000
0000
0000
,
0000
0000
0000
0000
,
0000
0000
0000
0000
,
0000
0000
0000
0000
,
0000
0001
0000
0100
0000
0010
0000
1000
,
0000
0100
0000
0010
0000
0100
0000
1000
,
0000
0001
0000
0100
0000
0010
0000
1000
,
0000
0100
0000
0001
0000
0100
0000
1000
,
0001
0100
0010
1000
0001
0010
0100
1000
,
0001
0100
0010
1000
0001
0010
0100
1000
,
0100
0010
0001
0010
0100
0010
0001
1000
,
0001
0000
0100
0000
0010
0100
0010
1000
0100
1000
0100
0000
0000
0100
0010
0000
,
0011
0000
0000
0001
0100
0000
0010
0000
0100
0000
0000
0010
1000
0000
0100
0000
,
1000
0000
0000
0001
0100
0000
0010
0000
1000
0000
0000
1000
0100
0000
0010
0000
,
0001
0000
0000
0100
0001
0000
0010
0000
0100
0000
0000
1000
0100
0000
1000
0000
,
0010
0000
0000
0100
0010
0000
0100
0000
0001
0000
0000
0001
0010
0000
0100
0000
,
1000
0000
0000
0010
0100
0000
0010
0000
1000
0000
0000
0100
0010
0000
0100
0000
,
0001
0000
0000
0100
1000
0000
0010
0000
0100
0000
0000
0100
0001
0000
1000
0000
,
0100
0000
0000
1000
0010
0000
1000
0000
0001
0000
0000
0010
0001
0000
1000
0000
,
0010
0000
0100
0010
0100
0000
0001
0000
0001
0000
1000
0000
1001
0000
0000
0000
,
0001
0000
0100
0000
0001
0000
1000
0100
1000
0000
0010
0000
0100
0000
0000
0000
,
0010
0000
0010
0000
1000
0000
0100
0000
0010
0000
0000
0000
0001
0000
0100
0001
,
0100
0010
1000
0001
2000
0000
3100
0100
,
0020
0000
0000
0000
0031
0000
0000
0000
1000
0000
0000
0100
1000
0000
0001
0000
,
0100
0000
0000
0000
0010
0000
1000
0001
1000
0000
0000
0000
0100
0000
0010
0000
,
0001
0000
0000
0000
1000
0000
0001
0000
0100
0000
0000
0000
0010
0000
1000
0001
,
1000
0000
0000
0000
0100
0000
1000
0001
1000
0000
0000
0000
0010
0000
0000
0000
,
0200
0000
0000
0000
0001
0000
0000
0000
0302
0000
0000
1003
0001
0000
0100
0000
,
0010
0000
0000
0000
0100
0000
0001
0010
0100
0000
0000
0000
1000
0000
0000
0000
,
0200
0000
1300
0100
0010
0000
0100
1000
,
0001
0000
0000
0000
0100
0000
0010
0000
0100
0000
0000
0000
0001
0000
0000
1000
,
0002
0000
0000
0000
0100
0000
0000
0000
1003
0000
0000
0001
0100
0000
0010
0000
,
1000
0100
0010
0001
1000
0100
0010
0001
,
0100
0010
0100
0001
1000
0100
0010
0100
,
1000
0001
1000
0000
0001
0010
0001
0000
1000
0010
1000
0000
0001
0100
0001
0000
,
2000
0000
0000
0000
0000
0000
0000
0000
0000
0000
0000
0000
3001
1000
0001
1000
,
0002
0000
0000
0000
0000
0000
0000
0203
,
0000
0000
0000
0000
0000
0000
0310
2000
,
0000
0000
0000
0000
0000
0000
3100
0020
,
0000
0000
0031
0000
1000
0000
0002
0000
0000
0000
0103
0001
1000
0000
0000
0000
,
0020
0000
0000
0000
0000
0000
0000
0230
,
0000
0000
0000
0000
0000
0000
1300
0200
,
0000
0000
0000
0000
0000
0000
0301
2000
,
0000
0000
3010
0000
1000
0000
0200
0000
0000
0000
1300
0100
0010
0000
0000
0000
,
1001
0000
0000
0000
0110
0000
0000
0101
,
0000
0000
1000
0000
1100
0000
0001
0011
,
0000
1000
0100
0010
0001
1000
0010
0200
,
0010
0000
0310
0000
1000
0000
0002
0000
0010
0000
0013
0100
1000
0000
0001
0000
,
0101
0100
0010
1000
0001
1000
0010
1000
,
0100
0001
0100
1000
0010
0100
0001
1000
,
0010
0001
0010
0100
0001
0010
0100
1000
,
0001
0000
0010
0000
0001
0000
1000
0000
0010
0100
0010
0100
0010
1000
0001
1000
,
0002
0000
1003
0100
0020
0000
0031
0000
,
1001
0000
0001
0000
0100
0010
0000
1000
0000
0000
0001
0000
1000
0010
0000
0100
,
0000
0000
0010
0000
0100
0001
0000
0010
0000
0000
0100
0000
1000
0001
0000
0010
,
0000
0000
0001
0000
0010
0100
0000
1000
0000
0000
0001
0000
1000
0001
0000
0100
,
0000
0001
0000
1000
0100
0000
0010
0001
0000
1000
0001
0100
0001
1000
0000
0010
,
1000
0000
0001
0000
0100
0001
0000
0010
0000
0000
0001
0000
1000
0000
0010
0100
,
0000
0000
0001
0000
0010
0100
0000
0010
0000
0001
0000
1000
0010
0100
0010
0000
,
1000
0000
0010
0000
0100
0001
0000
1000
0000
0000
0100
0000
0010
0001
0000
1000
,
0100
1000
0100
1000
0100
0000
0010
0000
0001
0000
1000
0000
0001
0100
0001
0100
,
0002
0000
0003
0000
1001
0000
0000
1000
0000
0000
0100
0000
1000
0000
0000
0001
,
0000
0000
0010
0000
0001
0000
0000
0100
0000
0000
0010
0000
1000
0000
0000
0100
,
0000
0000
0001
0000
0100
0000
0000
1000
0000
0000
0010
0000
0100
0000
0000
0010
,
0000
0000
1000
0000
0001
0000
0000
0100
0000
0000
0010
1000
0001
0000
0010
0000
,
0011
0010
0100
1000
0100
0010
0001
0100
,
0010
0100
0001
0010
1000
0010
0001
0100
,
0010
1000
0010
0000
0100
0001
0100
0000
0001
0010
0001
0000
1000
0100
1000
0000
,
0010
0000
0100
0000
0001
0010
0100
1000
0001
0100
0010
0000
0000
0100
0001
0000
,
1001
0000
0000
0000
;

//---------------dance-single - S-STANDARD----------------
#NOTEDATA:;
#CHARTNAME:DJ OMiY-SSP;
#STEPSTYPE:dance-single;
#DESCRIPTION:S-STANDARD;
#CHARTSTYLE:;
#DIFFICULTY:Medium;
#METER:6;
#RADARVALUES:0.388809,0.479531,0.072902,0.137703,0.028351,310.000000,9.000000,17.000000,0.000000,0.000000,0.000000,0.000000,0.000000,0.388809,0.479531,0.072902,0.137703,0.028351,310.000000,9.000000,17.000000,0.000000,0.000000,0.000000,0.000000,0.000000;
#CREDIT:DJ OMiY;
#NOTES:
0000
0000
0000
0000
,
0000
0000
0000
0000
,
0000
0000
0000
0000
,
0000
0000
0000
0000
,
0000
0000
0000
0000
,
0000
0000
0000
0000
,
0000
0000
0000
0000
,
0000
0000
0000
0000
,
0000
0000
0000
0000
,
1000
0000
0100
0000
1000
0001
0000
0100
,
0001
0000
0010
0000
,
0000
0100
1000
0001
0100
0000
0000
0000
,
0001
1000
0001
0010
0000
0000
0000
0000
,
0100
0000
1000
0000
0001
0010
0000
0001
,
1000
0000
0100
0100
,
1000
0100
0010
0001
1000
0000
0010
0000
,
0100
0010
0100
0010
2000
0000
3001
0000
,
0001
0000
0000
0000
0100
0000
0000
0000
0010
0000
0000
0000
1000
0000
0000
0001
,
0100
0000
0010
0000
1000
0000
0100
1000
,
0100
0000
0000
0000
0010
0000
0000
0000
0001
0000
0000
0000
1000
0000
0000
0001
,
0020
0000
0100
0000
0001
0000
0130
1000
,
0001
0000
0000
0000
0100
0000
0000
0000
0010
0000
0000
0000
1000
0000
0000
0100
,
1000
0100
0010
0001
,
0100
0010
1000
0001
,
0010
0100
0010
0000
0002
0000
1003
0000
,
0001
0000
0100
0010
0100
0000
0001
0000
,
0100
0000
0010
1000
0001
0000
0100
0001
,
1000
0000
0100
1000
0100
0000
0010
0000
,
0001
0000
0100
0000
0010
0000
1000
0001
,
1000
0000
0100
0010
0001
0000
0100
0000
,
0010
0000
1000
0000
0001
0000
0100
0001
,
0010
0000
0000
0000
0100
0000
1000
0000
0010
0000
0000
0000
0100
0000
0000
0001
,
1000
0000
1000
0000
1000
0000
0010
0100
,
0001
0000
0000
0000
1000
0000
0010
0000
1000
0000
0000
0000
0100
0000
0000
0100
,
0010
0000
0001
1000
0001
0000
0100
0010
,
0100
0000
0000
0000
0001
0000
0010
0000
0100
0000
0000
0000
1000
0000
0000
0010
,
1000
0000
0100
0000
0010
0000
0001
1000
,
0001
0000
0000
0000
0100
0000
0010
0000
0100
0000
0000
0000
0010
0000
0000
0100
,
0001
0010
0100
1000
,
0001
1000
0001
1000
0010
0100
0010
0100
,
0020
0000
0000
0000
0000
0000
0100
0130
,
0001
0000
0000
0000
0000
0000
0000
1001
,
0000
0000
0000
0000
0000
0000
1000
1100
,
0000
0000
0000
0000
0000
0000
0001
0200
,
0000
0310
0100
0020
0000
1030
0100
0000
,
0110
0000
0000
0000
0000
0000
0000
0011
,
0000
0000
0000
0000
0000
0000
1000
1001
,
0000
0000
0000
0000
0000
0000
0001
0020
,
0000
0130
1000
0200
0000
1300
0001
0000
,
0210
0000
0000
0000
0302
0000
1000
2000
,
0000
0000
0003
0000
3020
0000
0100
0200
,
0000
0000
0000
0000
0030
0000
0301
0100
,
0000
0010
0100
0010
0000
1000
0001
0000
,
1000
0000
0100
0000
0010
0000
0001
0010
,
0001
0000
0100
0000
0010
0000
1000
0100
,
1000
0001
0100
0001
,
1000
0100
0010
0001
1000
0100
0010
0001
,
1000
0000
0010
0100
0020
0000
1030
0000
,
0110
0000
0001
1000
0001
0000
0010
0000
,
1000
0000
0010
0000
0001
0000
1000
0100
,
0010
0100
0010
0001
,
1000
0000
0010
0000
0100
0000
0001
0010
,
1000
0000
0010
0000
0001
0000
1000
0010
,
0100
0000
0001
0000
0100
0001
1000
0000
,
0010
1000
0100
0010
,
0001
0000
1000
0000
0001
0000
0010
0001
,
0020
0001
0031
0000
0101
0000
1000
0000
,
0010
1000
0001
0000
1000
0010
0100
0010
,
1000
0000
0110
0000
0100
0001
1000
0000
,
0010
0000
0100
0000
0001
1000
0001
0010
,
0100
1000
0100
0000
0010
0001
0010
0000
,
0001
0100
0001
0000
1000
0010
1000
0000
,
0001
0100
0001
1000
0100
1000
0001
0000
,
0100
0010
0100
0020
1000
2000
0030
3001
,
0100
0000
0000
0000
;

//---------------dance-single - S-LIGHT----------------
#NOTEDATA:;
#CHARTNAME:DJ OMiY-LSP;
#STEPSTYPE:dance-single;
#DESCRIPTION:S-LIGHT;
#CHARTSTYLE:;
#DIFFICULTY:Easy;
#METER:3;
#RADARVALUES:0.227962,0.269736,0.032401,0.259206,0.000000,161.000000,4.000000,32.000000,0.000000,0.000000,0.000000,0.000000,0.000000,0.227962,0.269736,0.032401,0.259206,0.000000,161.000000,4.000000,32.000000,0.000000,0.000000,0.000000,0.000000,0.000000;
#CREDIT:DJ OMiY;
#NOTES:
0000
0000
0000
0000
,
0000
0000
0000
0000
,
0000
0000
0000
0000
,
0000
0000
0000
0000
,
0000
0000
0000
0000
,
0000
0000
0000
0000
,
0000
0000
0000
0000
,
0000
0000
0000
0000
,
0000
0000
0000
0000
,
0200
0000
0000
0010
,
0002
0000
0300
1000
,
0020
0000
0003
0100
,
0002
0000
0030
0100
,
2000
0000
0003
0010
,
0200
0000
3000
0001
,
0020
0000
0300
0130
,
0001
0010
0100
1000
,
1001
0000
0000
1000
,
0200
0000
0000
1300
,
0001
0000
0010
0000
,
0002
0000
0103
0001
,
1000
0000
0000
0001
,
0020
0000
0000
0031
,
1000
0000
0100
0000
,
2000
3000
0010
0100
,
0110
0000
0001
0000
,
1000
0000
0001
0010
,
0002
0000
0200
0303
,
0100
0000
0010
1000
,
0200
0000
2300
0000
,
3001
0000
0100
0010
,
0200
0000
0002
0303
,
0001
0001
0001
1000
,
0020
0000
0230
0000
,
0301
0000
1000
0100
,
2000
0000
0020
3030
,
0100
0000
0001
1000
,
0001
0010
0001
0000
,
1000
0010
1000
0000
,
0100
0010
0001
0010
,
0200
0000
0000
0000
,
2300
0000
0000
0000
0000
0000
0000
3000
,
0000
0000
0000
0002
,
0000
0000
0000
0000
0000
0000
0000
0003
,
0000
0000
0100
0010
,
0200
0000
0000
0000
0000
0000
0000
0300
,
0000
0000
0000
0020
,
0000
0000
0000
0000
0000
0000
0000
0030
,
0000
0000
1000
0100
,
0010
0000
0000
0000
,
0001
0000
1000
0000
,
0200
0000
0000
0000
,
0010
0000
0310
0001
,
1000
0000
0001
0100
,
0010
0000
1000
0001
,
1000
0100
1000
0000
,
0001
0010
0100
0010
,
0002
0000
0100
0003
,
1001
0001
0100
0000
,
0010
1000
0100
0000
,
1000
0001
0100
0000
,
0010
0000
0100
0001
,
1000
0100
0010
0000
,
0100
0010
0001
0000
,
1000
0001
0100
0000
,
0010
0100
0002
1000
,
0203
0301
1000
0001
,
1000
0100
1000
0000
,
0010
0100
0010
0000
,
1000
0100
0010
0001
,
0010
0001
0010
0000
,
0100
1000
0100
0000
,
1000
0001
0010
0100
,
2000
0001
0020
3030
,
1001
0000
0000
0000
;

//---------------dance-single - BEGINNER----------------
#NOTEDATA:;
#CHARTNAME:DJ OMiY-BEG;
#STEPSTYPE:dance-single;
#DESCRIPTION:BEGINNER;
#CHARTSTYLE:;
#DIFFICULTY:Beginner;
#METER:1;
#RADARVALUES:0.105302,0.179824,0.024301,0.202505,0.000000,63.000000,3.000000,25.000000,0.000000,0.000000,0.000000,0.000000,0.000000,0.105302,0.179824,0.024301,0.202505,0.000000,63.000000,3.000000,25.000000,0.000000,0.000000,0.000000,0.000000,0.000000;
#CREDIT:DJ OMiY;
#NOTES:
0000
0000
0000
0000
,
0000
0000
0000
0000
,
0000
0000
0000
0000
,
0000
0000
0000
0000
,
0000
0000
0000
0000
,
0000
0000
0000
0000
,
0000
0000
0000
0000
,
0000
0000
0000
0000
,
0000
0000
0000
0000
,
2000
0000
0000
0000
,
3000
0000
0000
0000
,
0020
0000
0000
0000
,
0030
0000
0000
0000
,
0200
0000
0000
0000
,
0300
0000
0000
0000
,
0002
0000
0000
0000
,
0003
0000
0010
0000
,
0100
0000
0000
0000
,
1000
0000
0000
0000
,
0001
0000
0000
0000
,
0100
0000
0000
0010
,
0010
0000
0000
0000
,
1000
0000
0000
0000
,
0100
0000
0000
0000
,
0010
0000
0001
0000
,
2000
0000
3000
0000
,
0001
0000
0000
0000
,
0200
0000
0300
0000
,
0010
0000
0000
0000
,
2000
0000
3000
0000
,
0001
0000
0000
0000
,
0020
0000
0030
0000
,
0002
0000
0003
0000
,
0200
0000
0300
0000
,
0020
0000
0030
0000
,
2000
0000
3000
0000
,
0002
0000
0003
0001
,
0001
0000
0000
0000
,
2000
0000
3000
0000
,
0200
0000
0300
0000
,
0010
0000
0000
0000
,
0220
0000
0000
0000
,
0000
0000
0000
0000
0000
0000
0000
0330
,
0000
0000
0000
0000
,
0000
0000
0000
0000
,
2002
0000
0000
0000
,
0000
0000
0000
0000
0000
0000
0000
3003
,
0000
0000
0000
0000
,
0000
0000
0000
0000
,
0200
0000
0000
0000
,
0000
0000
0000
0000
0000
0000
0000
0300
,
0000
0000
0000
0000
,
0001
0000
1000
0000
,
0002
0000
0000
0000
,
0000
0000
0000
0000
0000
0000
0000
0003
,
0000
0000
0000
0000
,
0100
0000
0010
0000
,
2002
0000
3003
0000
,
0010
0000
0000
0000
,
1000
0000
0000
0000
,
0001
0000
0000
0000
,
0010
0000
0100
0000
,
0100
0000
0000
0000
,
1000
0000
0000
0000
,
0001
0000
0000
0000
,
0100
0000
0001
0000
,
2000
3000
0000
0000
,
0001
0000
0000
0000
,
0010
0000
0000
0000
,
0001
0000
0000
0000
,
0100
0000
0010
0000
,
0100
0000
0010
0000
,
1000
0000
0001
0000
,
2000
0000
3000
0000
,
0001
0000
0000
0000
;

//---------------dance-double - D-HEAVY----------------
#NOTEDATA:;
#CHARTNAME:DJ OMiY-HDP;
#STEPSTYPE:dance-double;
#DESCRIPTION:D-HEAVY;
#CHARTSTYLE:;
#DIFFICULTY:Hard;
#METER:9;
#RADARVALUES:0.576270,0.659355,0.097202,0.137703,0.421210,469.000000,12.000000,17.000000,0.000000,0.000000,0.000000,0.000000,0.000000,0.576270,0.659355,0.097202,0.137703,0.421210,469.000000,12.000000,17.000000,0.000000,0.000000,0.000000,0.000000,0.000000;
#CREDIT:DJ OMiY;
#NOTES:
// measure 0
00000000
00000000
00000000
00000000
,  // measure 1
00000000
00000000
00000000
00000000
,  // measure 2
00000000
00000000
00000000
00000000
,  // measure 3
00000000
00000000
00000000
00000000
,  // measure 4
00000000
00000000
00000000
00000000
,  // measure 5
00000000
00000000
00000000
00000000
,  // measure 6
00000000
00000000
00000000
00000000
,  // measure 7
00000000
00000000
00000000
00000000
,  // measure 8
00000000
00000000
00000000
00000000
,  // measure 9
00000000
00010000
00000000
00001000
00000000
00000100
00000000
00000001
,  // measure 10
00000000
00000010
00000000
00000100
00000000
00001000
00000000
00010000
,  // measure 11
00000000
00100000
00000000
01000000
00000000
10000000
00000000
00100000
,  // measure 12
00000000
00010000
00000000
00001000
00000000
00000100
00000000
00000001
,  // measure 13
00000100
00000010
00000100
00000001
00001000
00000100
00010000
00001000
,  // measure 14
00010000
00100000
10000000
01000000
00010000
01000000
10000000
00100000
,  // measure 15
01000000
00001000
00010000
00000100
00010000
00001000
00000010
00000001
,  // measure 16
00001000
00000000
00000100
00000000
00010000
00001000
00010000
00001000
00100000
00001000
00100000
00000000
00000000
00010000
01000000
00000000
,  // measure 17
01010000
00000000
00000000
00010000
10000000
00000000
01000000
00000000
10000000
00000000
00000000
00010000
00100000
00000000
00001000
00000000
,  // measure 18
00010000
00000000
00000000
00000100
00000010
00000000
00000001
00000000
00001000
00000000
00000000
00000100
00010000
00000000
00001000
00000000
,  // measure 19
00100000
00000000
00000000
00010000
01000000
00000000
00100000
00000000
00010000
00000000
00000000
00100000
10000000
00000000
01000000
00000000
,  // measure 20
00100000
00000000
00000000
00001000
00010000
00000000
00001000
00000000
00000100
00000000
00000000
00000010
00000100
00000000
00000001
00000000
,  // measure 21
00000010
00000000
00000000
00000100
00001000
00000000
00000100
00000000
00010000
00000000
00000000
00001000
00100000
00000000
00010000
00000000
,  // measure 22
01000000
00000000
00000000
00100000
01000000
00000000
00010000
00000000
10000000
00000000
00000000
01000000
10000000
00000000
01000000
00000000
,  // measure 23
00100000
00000000
00000000
00010000
00100000
00000000
00001000
00000000
00010000
00000000
00000000
00000100
00000010
00000000
00000100
00000000
,  // measure 24
00001000
00000000
00000100
00010000
00000100
00000000
00010000
00000000
00001000
00000000
00100000
00000000
00101000
00000000
00000000
00000000
,  // measure 25
00011000
00000000
00000000
00000000
00010000
00000000
00001000
00100000
00001000
00000000
00010000
00000000
01000000
00000000
00000000
00000000
,  // measure 26
10000000
00000000
00100000
00000000
01000000
00000000
00010000
00100000
00010000
00000000
00100000
00000000
00001000
00000000
00010000
00000100
,  // measure 27
00010000
00001000
00000100
00000001
00000020
00000000
00000130
00000000
,  // measure 28
00001000
00000000
00000000
00000000
00000100
00000000
00000000
00000000
00001000
00000000
00000000
00000001
00000010
00000000
00000100
00000000
,  // measure 29
00001000
00000000
00000000
00000000
00000100
00000000
00010000
00001000
00010000
00000000
00001000
00000000
00100000
00000000
00000000
00000000
,  // measure 30
01000000
00000000
10000000
00000000
00010000
00000000
01000000
00100000
01000000
00000000
00000000
00000000
00010000
00000000
00100000
00001000
,  // measure 31
00100000
00000000
00000000
00000000
00001000
00000000
00010000
00000100
00010000
00000000
00000000
00000000
00001000
00000000
00000000
00000100
,  // measure 32
00000001
00000000
00000000
00000001
00000010
00000000
00000000
00000010
00000100
00000000
00000000
00000100
00010000
00000000
00001000
00000000
,  // measure 33
00011000
00000000
00000000
00000000
00001000
00000000
00100000
00010000
10000000
00000000
00100000
00000000
01000000
00000000
00000000
00100000
,  // measure 34
10000000
00000000
00000000
10000000
01000000
00000000
00000000
01000000
00010000
00000000
00000000
00000000
00001000
00000000
00010000
00001000
,  // measure 35
00010000
00000000
00000000
00000000
00000100
00000000
00000010
00000000
00000002
00000000
00000000
00000000
00001003
00000000
00000000
00000001
,  // measure 36
00000100
00000000
00000000
00000100
00001000
00000000
00000000
00001000
00010000
00000000
00000000
00010000
01000000
00000000
00100000
00000000
,  // measure 37
00010000
00000000
10000000
00000000
00010000
00000000
01000000
00100000
01000000
00000000
00001000
00000000
00100000
00000000
00001000
00000000
,  // measure 38
00010000
00000100
00000010
00000001
00000100
00001000
00000100
00000010
,  // measure 39
00001000
00000100
00001000
00000000
00000100
00010000
00000100
00000000
00010000
00001000
00010000
00000000
00001000
00100000
00001000
00000000
,  // measure 40
02000000
00000000
00000000
00000000
00000000
00000000
00000000
00000000
00000000
00000000
00000000
00000000
03010000
10000000
00010000
10000000
,  // measure 41
00020000
00000000
00000000
00000000
00000000
00000000
00000000
00230000
,  // measure 42
00000000
00000000
00000000
00000000
00000000
00000000
00301000
00020000
,  // measure 43
00000000
00000000
00000000
00000000
00000000
00000000
00030100
00000020
,  // measure 44
00000000
00000000
00000031
00000000
00001000
00000000
00000001
00000000
00000000
00000000
00000010
00000100
00001000
00000000
00000000
00000000
,  // measure 45
00002100
00000000
00000000
00000000
00000000
00000000
00000000
00023000
,  // measure 46
00000000
00000000
00000000
00000000
00000000
00000000
00130000
02000000
,  // measure 47
00000000
00000000
00000000
00000000
00000000
00000000
13000000
00020000
,  // measure 48
00000000
00000000
01030000
00000000
00001000
00000000
00200000
00000000
00000000
00000000
00310000
10000000
00010000
00000000
00000000
00000000
,  // measure 49
11000000
00000000
10000000
00000000
01100000
00000000
00100000
00110000
,  // measure 50
00000000
00000000
00010000
00000000
00011000
00000000
00001000
00001100
,  // measure 51
00000000
00000100
00000010
00000001
00000010
00000100
00001000
00000020
,  // measure 52
00001000
00000000
00001030
00000000
00000100
00000000
00020000
00000000
00001000
00000000
00031000
00100000
00010000
00000000
10000000
00000000
,  // measure 53
01000000
10000000
00010000
00100000
00001000
00010000
00000010
00000100
,  // measure 54
00000001
00000010
00001000
00000001
00000100
00001000
00000100
00010000
,  // measure 55
00001000
00100000
01000000
10000000
00010000
01000000
10000000
01000000
,  // measure 56
00010000
00000000
00100000
00000000
00001000
00000000
00010000
00000000
00000100
00001000
00000100
00001000
00000100
00010000
00000100
00010000
,  // measure 57
00002000
00000000
00013000
00000100
00000020
00000000
00000031
00000000
,  // measure 58
00001001
00000000
00000001
00000000
00001000
00000100
00000000
00010000
00000000
00000000
00001000
00000000
00100000
00010000
00000000
01000000
,  // measure 59
00000000
00000000
00100000
00000000
10000000
00010000
00000000
00100000
00000000
00000000
00001000
00000000
00010000
00000100
00000000
00000010
,  // measure 60
00000000
00000000
00000001
00000000
00000100
00001000
00000000
00000100
00000000
00000000
00000010
00000000
00010000
00001000
00000000
00100000
,  // measure 61
00000000
00010000
00000000
10000000
01000000
00000000
00100000
00010000
00000000
01000000
00100000
00000000
10000000
00100000
00000000
01000000
,  // measure 62
00001000
00000000
00100000
00000000
00001000
00010000
00000000
00000100
00000000
00000100
00000010
00000001
00000000
00001000
00000010
00000100
,  // measure 63
00000010
00000000
00001000
00000000
00000001
00000010
00000000
00000001
00000000
00001000
00000100
00010000
00001000
00010000
00001000
00000000
,  // measure 64
00100000
00000000
00010000
00000000
01000000
00010000
00000000
00100000
00000000
00010000
10000000
00000000
00100000
01000000
00000000
00010000
,  // measure 65
00100000
00010000
00100000
00010000
00100000
00000000
01000000
00000000
10000000
00000000
00010000
00000000
00100000
00001000
00100000
00001000
,  // measure 66
00020000
00000000
00030000
00000000
00010100
00000000
00000000
00010000
00000000
00000000
00000100
00000000
00000010
00000000
00000000
00000001
,  // measure 67
00000000
00000000
00000100
00000000
00001000
00000000
00000000
00010000
00000000
00000000
01000000
00000000
10000000
00000000
00000000
00100000
,  // measure 68
00000000
00000000
01000000
00000000
00010000
00000000
00000000
00100000
00000000
00000000
00001000
00000000
00010000
00000000
00000000
00000100
,  // measure 69
00000000
00000000
00000010
00000000
00000100
00000000
00000000
00001000
00000000
00000000
00000001
00000100
00000010
00000000
00001000
00000000
,  // measure 70
00000100
00010000
00001000
00100000
01000000
00100000
00010000
10000000
,  // measure 71
00100000
01000000
10000000
01000000
00010000
00100000
00001000
00000100
,  // measure 72
00000001
00000010
00000100
00001000
00010000
00100000
01000000
10000000
,  // measure 73
00010000
00000000
00100000
00000000
00001000
00010000
00001000
00010000
00001000
00100000
00010000
00000000
00000000
10000000
00010000
00000000
,  // measure 74
00100000
00000000
00000000
00000000
;

//---------------dance-double - D-STANDARD----------------
#NOTEDATA:;
#CHARTNAME:DJ OMiY-SDP;
#STEPSTYPE:dance-double;
#DESCRIPTION:D-STANDARD;
#CHARTSTYLE:;
#DIFFICULTY:Medium;
#METER:6;
#RADARVALUES:0.377237,0.449560,0.137703,0.170104,0.000000,288.000000,17.000000,21.000000,0.000000,0.000000,0.000000,0.000000,0.000000,0.377237,0.449560,0.137703,0.170104,0.000000,288.000000,17.000000,21.000000,0.000000,0.000000,0.000000,0.000000,0.000000;
#CREDIT:DJ OMiY;
#NOTES:
// measure 0
00000000
00000000
00000000
00000000
,  // measure 1
00000000
00000000
00000000
00000000
,  // measure 2
00000000
00000000
00000000
00000000
,  // measure 3
00000000
00000000
00000000
00000000
,  // measure 4
00000000
00000000
00000000
00000000
,  // measure 5
00000000
00000000
00000000
00000000
,  // measure 6
00000000
00000000
00000000
00000000
,  // measure 7
00000000
00000000
00000000
00000000
,  // measure 8
00000000
00000000
00000000
00000000
,  // measure 9
00001000
00000000
00100000
00000000
00010000
10000000
00000000
10000000
,  // measure 10
01000000
00000000
00000000
00000000
,  // measure 11
00100000
00001000
00010000
00000100
00000000
00000000
00000000
00000000
,  // measure 12
00001000
00000001
00000010
00000100
00000000
00000000
00000000
00000000
,  // measure 13
00001000
00000000
00000001
00000000
00001000
00000100
00000000
00000100
,  // measure 14
00010000
00001000
00100000
00010000
,  // measure 15
10000000
01000000
00100000
00010000
00100000
00000000
00001000
00000000
,  // measure 16
00010000
00010000
00000100
00000100
00002000
00000000
00003010
00000000
,  // measure 17
00001001
00000000
00000010
00000000
00001000
00000000
00000001
00000010
,  // measure 18
00000200
00000000
00010000
00000000
00001000
00000000
00010300
00000100
,  // measure 19
00010000
00000000
01000000
00000000
10000000
00000000
00010000
01000000
,  // measure 20
00100000
00000000
01000000
00000000
00010000
00000000
10000000
01000000
,  // measure 21
00100000
00000000
00010000
00000000
00100000
00000000
00001000
00100000
,  // measure 22
00020000
00000000
10000000
00000000
00100000
00000000
01030000
00001000
,  // measure 23
00010000
00000100
00000010
00000001
,  // measure 24
00000010
00000100
00001000
00000100
00020000
00000000
00000000
00001000
,  // measure 25
00031000
00000000
00100000
00010000
10000000
00000000
00100000
00000000
,  // measure 26
02000000
00000000
03010000
10000000
01000000
00000000
10000000
00000000
,  // measure 27
00010000
00000000
00100000
00001000
00010000
00000000
00001000
00000000
,  // measure 28
00000200
00000320
00002030
00003001
,  // measure 29
00000101
00000000
00001000
00000100
00000010
00000000
00000100
00000000
,  // measure 30
00020000
00000000
00031000
00100000
00010000
00000000
10000000
00000000
,  // measure 31
01000000
00000000
10000000
01000000
00100000
00000000
00010000
00000000
,  // measure 32
02000000
00000000
03020000
00000000
00230000
00000000
01300000
00100000
,  // measure 33
00010000
00000000
00100000
00001000
00100000
00000000
00001000
00000000
,  // measure 34
00020000
00000000
00030010
00000100
00000010
00000000
00001000
00000000
,  // measure 35
00000100
00000000
00000001
00000100
00001000
00000000
00000010
00000000
,  // measure 36
00000200
00000000
00000302
00000000
00002003
00000000
00003100
00010000
,  // measure 37
00001000
00100000
00001000
00010000
,  // measure 38
01000000
10000000
00100000
01000000
,  // measure 39
00010000
00100000
00001000
00010000
00000100
00001000
00000010
00000200
,  // measure 40
00000000
00000000
00000000
00000000
00000000
00000000
00000010
00000310
,  // measure 41
00001000
00000000
00000000
00000000
00000000
00000000
00000000
00000100
,  // measure 42
00000000
00000000
00000000
00000000
00000000
00000000
00010000
00001000
,  // measure 43
00000000
00000000
00000000
00000000
00000000
00000000
00100000
00010000
,  // measure 44
00000000
10000000
00010000
10000000
00000000
00010000
01000000
00000000
,  // measure 45
00100000
00000000
00000000
00000000
00000000
00000000
00000000
10000000
,  // measure 46
00000000
00000000
00000000
00000000
00000000
00000000
01000000
00010000
,  // measure 47
00000000
00000000
00000000
00000000
00000000
00000000
00001000
00010000
,  // measure 48
00000000
00010000
00000100
00000010
00000000
00000001
00000100
00000000
,  // measure 49
00000110
00000000
00000000
00000000
00001100
00000000
00000000
00010100
,  // measure 50
00000000
00000000
00000000
00000000
00011000
00000000
00000000
00101000
,  // measure 51
00000000
00000000
00010000
00000000
10000000
00000000
01000000
00100000
,  // measure 52
00000000
00100000
01000000
10000000
00000000
00010000
01000000
00000000
,  // measure 53
01010000
00000000
00010000
00000000
00110000
00000000
00000000
00101000
,  // measure 54
00000000
00000000
00001000
00000000
00001100
00000000
00000000
00000101
,  // measure 55
00000000
00000000
00000001
00000000
00000010
00000000
00000100
00001000
,  // measure 56
00000001
00000100
00000001
00001000
00000010
00000100
00000010
00010000
,  // measure 57
00002000
00000000
00013000
00001000
00200000
00000000
00310000
00000000
,  // measure 58
10010000
10000000
00100000
01000000
,  // measure 59
00010000
00000000
00100000
00000000
01000000
00000000
10000000
00010000
,  // measure 60
01000000
00010000
00100000
00001000
,  // measure 61
00010000
00000000
00000100
00000000
00000010
00000000
00000100
00001000
,  // measure 62
00000001
00000100
00000010
00001000
,  // measure 63
00000001
00000000
00000100
00000000
00001000
00000000
00010000
01000000
,  // measure 64
00100000
00010000
10000000
00100000
,  // measure 65
02000000
00000000
00000000
00000000
03001000
00000000
00010000
00001000
,  // measure 66
00020000
00031000
00011000
00001000
,  // measure 67
00000100
00000001
00000101
00000010
,  // measure 68
00000100
00010000
00011000
00001000
,  // measure 69
00100000
00000000
01000000
00000000
11000000
00000000
10000000
00010000
,  // measure 70
01000000
00000000
00100000
00000000
10000000
00000000
00010000
00100000
,  // measure 71
00001000
00000000
00010000
00000000
00000100
00000000
00010000
00001000
,  // measure 72
00000100
00000001
00000100
00000000
00000001
00000010
00000100
00000000
,  // measure 73
00001000
00000100
00001000
00000100
00000010
00000001
00000000
00000010
,  // measure 74
00000001
00000000
00000000
00000000
;

//---------------dance-double - D-LIGHT----------------
#NOTEDATA:;
#CHARTNAME:DJ OMiY-LDP;
#STEPSTYPE:dance-double;
#DESCRIPTION:D-LIGHT;
#CHARTSTYLE:;
#DIFFICULTY:Easy;
#METER:3;
#RADARVALUES:0.231434,0.269736,0.072902,0.226805,0.000000,163.000000,9.000000,28.000000,0.000000,0.000000,0.000000,0.000000,0.000000,0.231434,0.269736,0.072902,0.226805,0.000000,163.000000,9.000000,28.000000,0.000000,0.000000,0.000000,0.000000,0.000000;
#CREDIT:DJ OMiY;
#NOTES:
// measure 0
00000000
00000000
00000000
00000000
,  // measure 1
00000000
00000000
00000000
00000000
,  // measure 2
00000000
00000000
00000000
00000000
,  // measure 3
00000000
00000000
00000000
00000000
,  // measure 4
00000000
00000000
00000000
00000000
,  // measure 5
00000000
00000000
00000000
00000000
,  // measure 6
00000000
00000000
00000000
00000000
,  // measure 7
00000000
00000000
00000000
00000000
,  // measure 8
00000000
00000000
00000000
00000000
,  // measure 9
10000000
02000000
00000000
13000000
,  // measure 10
00020000
00000000
00000000
00000000
,  // measure 11
00130000
00001000
00010000
00000000
,  // measure 12
00000100
00000010
00000001
00000100
,  // measure 13
00000001
00002000
00000000
00003100
,  // measure 14
00020000
00000000
00000000
00000000
,  // measure 15
00031000
00100000
01000000
10000000
,  // measure 16
00020000
00000000
20000000
30030000
,  // measure 17
10010000
00000000
01000000
00010000
,  // measure 18
00100000
00000000
01000000
10000000
,  // measure 19
00000000
10000000
00000000
00010000
,  // measure 20
00100000
00000000
00001000
00010000
,  // measure 21
00000100
00000000
00001000
00000000
,  // measure 22
00000001
00000000
00000010
00000100
,  // measure 23
00001000
00000000
00000100
00000000
,  // measure 24
00010000
00011000
00002000
00000000
,  // measure 25
00103000
00000000
00010000
00000000
,  // measure 26
10000000
01000000
00100000
00000000
,  // measure 27
00010000
00000000
00100000
00000000
,  // measure 28
00001000
00000000
00010000
00000100
,  // measure 29
00001000
00000000
00000001
00000000
,  // measure 30
00000010
00000000
00000001
00001000
,  // measure 31
00000100
00000000
00010000
00000000
,  // measure 32
00002000
00010000
00013000
00001000
,  // measure 33
00200000
00000000
00310000
10000000
,  // measure 34
02000000
00000000
13000000
00010000
,  // measure 35
00100000
00000000
00001000
00010000
,  // measure 36
00002000
00000000
00003100
00000001
,  // measure 37
00000100
00000001
00001000
00000000
,  // measure 38
00000100
00010000
00001000
00000000
,  // measure 39
00100000
00010000
10000000
00010000
,  // measure 40
00200000
00000000
00000000
00000000
,  // measure 41
00302000
00000000
00000000
00000000
00000000
00000000
00000000
00003000
,  // measure 42
00000000
00000000
00000000
00020000
,  // measure 43
00000000
00000000
00000000
00000000
00000000
00000000
00000000
00030000
,  // measure 44
00000000
00000000
00001000
00000100
,  // measure 45
00000020
00000000
00000000
00000000
00000000
00000000
00000000
00000030
,  // measure 46
00000000
00000000
00000000
00000200
,  // measure 47
00000000
00000000
00000000
00000000
00000000
00000000
00000000
00000300
,  // measure 48
00000000
00000000
00000001
00000010
,  // measure 49
00000100
00000000
00000000
00000000
00002200
00000000
00000000
00003300
,  // measure 50
00000000
00000000
00000000
00000000
00022000
00000000
00000000
00033000
,  // measure 51
00000000
00001000
01000000
00010000
,  // measure 52
00000000
10000000
01000000
00100000
,  // measure 53
00010000
00000000
00000000
00000000
20020000
00000000
00000000
30030000
,  // measure 54
00000000
00000000
00000000
00000000
02200000
00000000
00000000
03300000
,  // measure 55
00000000
10000000
01000000
10000000
,  // measure 56
00010000
00000000
00100000
00001000
,  // measure 57
00020000
00000000
00000000
00031000
,  // measure 58
00011000
00001000
00010000
00000000
,  // measure 59
00001000
00010000
00000100
00000000
,  // measure 60
00000010
00000001
00001000
00000000
,  // measure 61
00000100
00010000
00001000
00000000
,  // measure 62
00100000
00010000
10000000
00000000
,  // measure 63
00100000
01000000
00001000
00000000
,  // measure 64
00010000
00000100
00001000
00000000
,  // measure 65
00000020
00000000
00000100
00000130
,  // measure 66
00000000
00000110
00000001
00001000
,  // measure 67
00000000
00000100
00010000
00001000
,  // measure 68
00000000
00100000
00010000
01000000
,  // measure 69
00000000
00100000
10000000
00010000
,  // measure 70
00100000
00100000
00100000
00000000
,  // measure 71
01000000
01000000
01000000
00000000
,  // measure 72
10000000
00010000
00100000
00001000
,  // measure 73
00020000
00000000
00002000
00033000
,  // measure 74
00011000
00000000
00000000
00000000
;
