#VERSION:0.81;
#TITLE:Bubble Bagpipe Hour;
#SUBTITLE:;
#ARTIST:Original Cedar Pipe Band;
#TITLETRANSLIT:;
#SUBTITLETRANSLIT:;
#ARTISTTRANSLIT:;
#GENRE:Scottish;
#ORIGIN:;
#CREDIT:;
#BANNER:Bubble Bagpipe Hour-bn.png;
#BACKGROUND:Bubble Bagpipe Hour-bg.png;
#PREVIEWVID:;
#JACKET:Bubble Bagpipe Hour-jk.png;
#CDIMAGE:;
#DISCIMAGE:;
#LYRICSPATH:;
#CDTITLE:;
#MUSIC:Bubble Bagpipe Hour.mp3;
#OFFSET:-2.430999;
#SAMPLESTART:16.986593;
#SAMPLELENGTH:12.972973;
#SELECTABLE:YES;
#BPMS:0.000=148.000;
#STOPS:;
#DELAYS:;
#WARPS:;
#TIMESIGNATURES:0.000=4=4;
#TICKCOUNTS:0.000=4;
#COMBOS:0.000=1;
#SPEEDS:0.000=1.000=0.000=0;
#SCROLLS:0.000=1.000;
#FAKES:;
#LABELS:0.000=Song Start,
214.000=Song End;
#BGCHANGES:;
#KEYSOUNDS:;
#ATTACKS:
;

//---------------dance-single - ----------------
#NOTEDATA:;
#CHARTNAME:;
#STEPSTYPE:dance-single;
#DESCRIPTION:;
#CHARTSTYLE:;
#DIFFICULTY:Hard;
#METER:9;
#RADARVALUES:0.616091,0.668350,0.119494,0.065178,0.983108,380.000000,11.000000,6.000000,0.000000,0.000000,0.000000,0.000000,0.000000,0.616091,0.668350,0.119494,0.065178,0.983108,380.000000,11.000000,6.000000,0.000000,0.000000,0.000000,0.000000,0.000000;
#CREDIT:DJ OMiY;
#NOTES:
// measure 0
0000
0000
0000
0000
,  // measure 1
0000
0000
0000
0000
,  // measure 2
0000
0000
0000
0000
,  // measure 3
0000
0000
0000
0000
,  // measure 4
1000
0000
0000
1000
0000
1000
0100
0000
0100
0010
0000
0010
,  // measure 5
0001
0000
0000
0001
0000
0001
0100
0000
0100
0010
0000
0010
,  // measure 6
1000
0001
1000
0001
,  // measure 7
1000
0100
1000
0001
0000
0000
0100
0010
1000
0001
0000
0000
,  // measure 8
0010
0001
0010
0001
1000
0001
1000
0010
1000
0020
0000
0000
,  // measure 9
0130
0000
0000
0100
0000
0100
0001
0000
0001
0010
0000
0010
,  // measure 10
0100
0000
0000
0100
0000
0100
1000
0000
1000
0010
0000
0000
,  // measure 11
0100
0000
0000
0010
0000
1000
0100
0000
0000
0010
0000
0001
,  // measure 12
0100
0000
0000
1000
0000
1000
0010
0000
0010
0001
0000
0001
,  // measure 13
1000
0000
0000
0100
0000
0100
0010
0000
0010
0001
0000
0001
,  // measure 14
1000
0000
0000
1000
0000
1000
0010
0000
0010
0100
0000
0000
,  // measure 15
0001
0000
0000
0100
0000
0001
0010
0000
0000
0100
0000
1000
,  // measure 16
0010
0000
0000
0001
0000
0001
0100
0000
0100
1000
0000
1000
,  // measure 17
0001
0000
0001
0100
0010
0100
0010
1000
0010
1000
0000
0000
,  // measure 18
0100
0000
0100
1000
0100
1000
0100
0010
0100
0010
0000
0000
,  // measure 19
0001
0000
0001
1000
0001
1000
0010
0000
0010
0100
0010
1000
,  // measure 20
0100
0000
0100
0010
0000
0010
0001
0010
0100
2000
0000
0000
,  // measure 21
3010
0000
0000
0110
0000
0000
0101
0000
0000
0010
0000
0010
,  // measure 22
1000
0000
1000
0100
0000
0100
0010
0000
0000
0001
0000
0100
,  // measure 23
0010
0000
0000
1000
0000
0100
0010
0000
0000
0100
0000
0100
,  // measure 24
1000
0000
1000
0001
0000
0010
0001
1000
0010
0100
0000
0100
,  // measure 25
0001
0000
0000
0100
0000
0010
1000
0000
0000
0100
0000
0010
,  // measure 26
0001
0000
0001
1000
0000
1000
0010
0000
0000
0100
0000
0100
,  // measure 27
0001
0000
0000
0010
0000
0100
1000
0000
0100
0010
0000
0010
,  // measure 28
0001
1000
0010
0100
0000
0100
0010
1000
0001
0020
0000
0000
,  // measure 29
0130
0000
0100
1000
0000
1000
0001
0000
0001
0100
0000
0100
,  // measure 30
0010
0000
0010
1000
0000
1000
0100
0000
0000
0010
0000
0001
,  // measure 31
0100
0000
0000
0010
0000
1000
0100
0000
0000
0010
0000
0001
,  // measure 32
0100
0000
0100
0010
0000
0010
1000
0100
0010
0001
0000
0001
,  // measure 33
0100
0000
0100
0010
0000
0010
1000
0000
1000
0100
0000
0100
,  // measure 34
0001
0000
0001
0100
0000
0100
1000
0000
1000
0001
0000
0010
,  // measure 35
0001
1000
0010
0100
0000
0100
0010
1000
0001
0100
0000
0001
,  // measure 36
1000
0000
0000
0101
0000
0000
1100
0000
0000
0201
0000
0301
,  // measure 37
1000
0000
0000
1000
0000
1000
0100
0000
0000
0100
0000
0100
,  // measure 38
0010
0000
0000
0000
0001
0010
0001
0000
0000
0000
0010
0000
0100
0000
0000
0000
0000
0000
1000
0000
0000
0000
0100
0000
,  // measure 39
0010
0000
0000
0000
0000
0000
0001
0000
0000
0000
0010
0000
0100
0000
0000
0000
1000
0001
1000
0000
0000
0000
0010
0000
,  // measure 40
0100
0001
0100
0010
1000
0010
0100
0001
1000
0001
1000
0100
,  // measure 41
0010
0100
0010
0001
0100
0001
1000
0100
0010
0002
0000
0000
,  // measure 42
0103
0000
0000
0101
0000
0001
1000
0000
1000
0100
0000
0100
,  // measure 43
0010
0000
0000
0110
0000
0100
1000
0000
1000
0001
0000
0000
,  // measure 44
0100
0001
1000
0010
0000
0010
0100
0001
1000
0010
0000
1000
,  // measure 45
0100
0000
0100
0001
0000
0001
0010
0000
0010
1000
0000
1000
,  // measure 46
0001
0000
0000
0101
0000
0001
0100
0000
0010
0100
0000
0010
,  // measure 47
1000
0000
0000
1001
0000
1000
0100
0000
0100
0010
0000
0000
,  // measure 48
0001
0100
0001
1000
0000
1000
0100
0010
0100
1000
0000
0001
,  // measure 49
0100
0000
0100
1000
0000
1000
0010
0000
0010
0001
0000
0001
,  // measure 50
1000
0001
1000
0100
1000
0100
0010
0001
0010
0001
0000
0000
,  // measure 51
0100
0010
0100
0010
1000
0010
0100
0001
0100
0010
0000
0000
,  // measure 52
1000
0100
1000
0001
0100
0001
1000
0100
0010
0002
0000
0000
,  // measure 53
0103
1001
1001
0000
;

//---------------dance-single - ----------------
#NOTEDATA:;
#CHARTNAME:;
#STEPSTYPE:dance-single;
#DESCRIPTION:;
#CHARTSTYLE:;
#DIFFICULTY:Medium;
#METER:6;
#RADARVALUES:0.434523,0.406822,0.206398,0.238988,0.277008,239.000000,19.000000,22.000000,0.000000,0.000000,0.000000,0.000000,0.000000,0.434523,0.406822,0.206398,0.238988,0.277008,239.000000,19.000000,22.000000,0.000000,0.000000,0.000000,0.000000,0.000000;
#CREDIT:DJ OMiY;
#NOTES:
0000
0000
0000
0000
,
0000
0000
0000
0000
,
0000
0000
0000
0000
,
0000
0000
0000
0000
,
0001
0000
0000
0001
0000
1000
0001
0000
1000
0001
0000
0000
,
1000
0000
0000
1000
0000
0001
1000
0000
0001
1000
0000
0000
,
0001
1000
0010
0100
,
0002
0023
2030
3200
,
0301
0000
0000
1000
0000
0000
0001
0010
0100
2000
0000
0000
,
3010
0000
0000
0010
0000
0100
0010
0000
0100
0010
0000
0000
,
1000
0000
0000
1000
0000
0001
1000
0000
0001
1000
0000
0000
,
0010
0100
0001
0010
,
0100
0000
0000
1000
0000
1000
0010
0000
0010
0100
0000
0000
,
0001
0000
0000
0001
0000
0100
0010
0000
0100
0010
0000
0000
,
1000
0000
0000
1000
0000
0001
0100
0000
0001
0100
0000
0000
,
0010
1000
0001
0010
,
0100
0000
0000
1000
0000
0001
0100
0000
0100
0010
0000
0000
,
2000
3010
0202
0303
,
0001
0010
2200
3300
,
0010
1001
0010
1001
,
0010
0000
1000
0000
0000
0100
0000
0000
0010
0000
0000
0001
,
1000
0010
0100
0001
,
1000
0000
0000
1100
0000
0000
0101
0000
0000
0010
0000
0100
,
0010
0000
0000
0100
0000
0010
0100
0000
0000
0001
0000
0000
,
0010
0000
0000
0100
0000
0000
1000
0001
1000
0001
0000
0000
,
0011
1000
0001
1000
,
0100
0000
0000
1010
0000
0000
0011
0000
0000
0001
0000
1000
,
0001
0000
0000
1000
0000
0001
1000
0000
0000
0100
0000
0000
,
0010
0000
0000
0001
0000
0000
0100
0010
0100
0020
0000
0000
,
1030
0100
0010
0100
,
1000
0000
0000
0001
0000
0000
0010
0000
0000
0100
0000
0010
,
0001
0000
0000
0100
0000
0010
0001
0000
0000
1000
0000
0000
,
0001
0000
0000
0100
0000
0000
0010
1000
0010
1000
0000
0000
,
0001
0100
1000
0010
,
0001
0000
0000
1000
0000
0000
0010
0000
0000
1000
0000
0100
,
0010
0000
0000
0010
0000
0100
1000
0000
0000
0001
0000
0100
,
0010
1001
1001
1001
,
0010
0000
0100
0000
,
0010
1000
0100
0010
,
0001
0000
1000
0001
,
2000
3010
0200
0310
,
0002
0000
0000
0013
0000
0000
0100
0010
0100
0010
0000
0000
,
1001
0000
0000
0001
0000
0100
0010
0000
0100
0010
0000
0000
,
1000
0000
0000
0001
0000
1000
0100
0000
1000
0100
0000
0000
,
0010
0001
1000
0010
,
1000
0000
0000
0001
0000
0001
0010
0000
0010
0100
0000
0000
,
1000
0000
0000
1000
0000
0001
0010
0000
0001
0010
0000
0000
,
0001
0000
0000
0001
0000
1000
0100
0000
1000
0100
0000
0000
,
0010
0001
1000
0010
,
0100
0000
0000
0001
0000
0001
1000
0000
1000
0010
0000
0000
,
2000
3100
0022
0033
,
0002
0103
2020
3030
,
0100
1001
0010
2002
,
3003
1100
0101
0000
;

//---------------dance-single - ----------------
#NOTEDATA:;
#CHARTNAME:;
#STEPSTYPE:dance-single;
#DESCRIPTION:;
#CHARTSTYLE:;
#DIFFICULTY:Easy;
#METER:4;
#RADARVALUES:0.386415,0.406822,0.238988,0.467112,0.000000,184.000000,22.000000,43.000000,0.000000,0.000000,0.000000,0.000000,0.000000,0.386415,0.406822,0.238988,0.467112,0.000000,184.000000,22.000000,43.000000,0.000000,0.000000,0.000000,0.000000,0.000000;
#CREDIT:DJ OMiY;
#NOTES:
0000
0000
0000
0000
,
0000
0000
0000
0000
,
0000
0000
0000
0000
,
0000
0000
0000
0000
,
0010
0010
0020
0130
,
0100
0100
0200
0301
,
0001
0001
0002
1003
,
2200
3300
0022
0033
,
0101
1100
1010
0011
,
1001
0001
0100
0010
,
1000
1000
0100
0010
,
0002
0100
2003
0010
,
3002
2003
3002
2003
,
3010
0010
1000
0100
,
0010
0010
0001
0100
,
0020
1000
0230
0001
,
0320
0230
0320
0230
,
0301
1000
0001
1000
,
0010
0100
0010
0100
,
0001
1000
0010
0100
,
0101
1100
1010
0011
,
1001
1000
1000
0010
,
0100
0001
1000
0000
,
0200
0300
0020
0030
,
1000
0010
0002
1003
,
0101
0001
0001
1000
,
0010
0100
0001
0000
,
0020
0030
0200
0300
,
1000
0010
1000
0110
,
1001
1000
1000
0001
,
0010
0001
0100
0020
,
1030
0020
0130
0001
,
0010
0010
0020
0030
,
0110
0100
0100
1000
,
1000
0001
0001
1000
,
0200
0310
0200
1300
,
1100
1100
0011
0011
,
0100
0000
0010
0000
,
1000
0001
1000
0000
,
0100
0000
0010
0000
,
0001
0010
0100
1000
,
0001
0100
0010
2000
,
3010
0010
0100
0010
,
1000
1000
0100
0010
,
0002
0010
2003
0100
,
3002
2003
3002
2003
,
3010
0010
0100
0001
,
0010
0010
0100
1000
,
0020
1000
0230
0001
,
0320
0230
0320
0230
,
0301
1000
0001
1000
,
0010
0100
0010
0100
,
0001
1000
0010
0200
,
0300
1001
1001
0000
;

//---------------dance-single - ----------------
#NOTEDATA:;
#CHARTNAME:;
#STEPSTYPE:dance-single;
#DESCRIPTION:;
#CHARTSTYLE:;
#DIFFICULTY:Beginner;
#METER:2;
#RADARVALUES:0.192432,0.232470,0.065178,0.054315,0.000000,113.000000,6.000000,5.000000,0.000000,0.000000,0.000000,0.000000,0.000000,0.192432,0.232470,0.065178,0.054315,0.000000,113.000000,6.000000,5.000000,0.000000,0.000000,0.000000,0.000000,0.000000;
#CREDIT:DJ OMiY;
#NOTES:
0000
0000
0000
0000
,
0000
0000
0000
0000
,
0000
0000
0000
0000
,
0000
0000
0000
0000
,
0020
0000
0030
0010
,
0020
0000
0030
0010
,
0020
0000
0030
0010
,
0010
0000
0100
0000
,
0001
0001
0001
0001
,
0001
0000
1000
0000
,
0001
0000
1000
0000
,
0100
0000
0100
0000
,
0100
0100
0100
0000
,
0010
0000
0100
0000
,
0010
0000
0100
0000
,
1000
0000
1000
0000
,
1000
1000
1000
0000
,
0001
0000
1001
0000
,
1000
0000
1001
0000
,
0010
0000
0010
0000
,
0100
0100
0100
0100
,
0100
0000
0001
0000
,
0100
0000
0010
0000
,
1000
0000
1000
0000
,
0001
0001
0001
0000
,
0010
0000
0100
0000
,
0010
0000
0001
0000
,
1000
0000
1000
0000
,
0001
0001
0001
0100
,
0001
0000
0001
0000
,
0001
0000
0000
0000
,
0010
0000
0010
0000
,
0010
0000
0100
0100
,
0100
0000
0100
0000
,
1000
0000
0001
0000
,
1000
0000
0001
0000
,
0010
0010
0010
0010
,
0020
0000
0000
0000
,
0030
0000
0000
0000
,
0200
0000
0300
0000
,
1000
0000
0001
0000
,
1000
1000
0001
1000
,
1000
0000
0001
0000
,
1000
0000
0001
0000
,
0010
0000
0010
0000
,
0010
0010
0010
0000
,
0001
0000
0100
0000
,
0001
0000
0100
0000
,
0010
0000
0010
0000
,
0010
0010
0010
0000
,
1000
0000
1001
0000
,
0001
0000
1001
0000
,
0010
0010
0010
0010
,
0000
1001
1001
0000
;

//---------------dance-double - ----------------
#NOTEDATA:;
#CHARTNAME:;
#STEPSTYPE:dance-double;
#DESCRIPTION:;
#CHARTSTYLE:;
#DIFFICULTY:Hard;
#METER:9;
#RADARVALUES:0.571087,0.668350,0.141220,0.228124,0.733257,334.000000,13.000000,21.000000,0.000000,0.000000,0.000000,0.000000,0.000000,0.571087,0.668350,0.141220,0.228124,0.733257,334.000000,13.000000,21.000000,0.000000,0.000000,0.000000,0.000000,0.000000;
#CREDIT:DJ OMiY;
#NOTES:
00000000
00000000
00000000
00000000
,
00000000
00000000
00000000
00000000
,
00000000
00000000
00000000
00000000
,
00000000
00000000
00000000
00000000
,
01000000
00010000
00000100
00000010
,
00001000
00010000
00100000
10000000
,
01000000
00001000
00010000
00000010
,
00000002
00000023
00000230
00002300
,
00023000
00000000
00000000
00230000
00000000
00000000
10300000
01000000
00100000
00010000
00000000
00000000
,
00110000
00000000
00000000
11000000
00000000
10000000
01000000
00000000
00100000
00001000
00000000
00000000
,
00011000
00000000
00000000
00000110
00000000
00000001
00000010
00000000
00000100
00001000
00000000
00000000
,
00000010
00000000
00000000
00000100
00000000
00000001
00000010
00000000
00000000
00000100
00000000
00001000
,
00000010
00000000
00000000
00000001
00000000
00000001
00000100
00000000
00000100
00001000
00000000
00000000
,
00001100
00000000
00000000
00010100
00000000
00010000
00001000
00000000
00001000
00100000
00000000
00000000
,
00110000
00000000
00000000
10100000
00000000
10000000
00010000
00000000
00010000
01000000
00000000
00000000
,
00100000
00000000
00000000
01000000
00000000
00010000
00100000
00000000
00000000
01000000
00000000
10000000
,
00100000
00000000
00000000
00010000
00000000
00010000
01000000
00000000
01000000
10000000
00000000
10000000
,
00010000
00000000
00010000
00100000
00000000
00100000
00001000
00010000
00001000
00010000
00000000
00000000
,
00000100
00000000
00000100
00001000
00000000
00001000
00000001
00000100
00000001
00000100
00000000
00000000
,
00000010
00000000
00000010
00010000
00000000
00010000
00001000
00000000
00001000
00010000
00000000
00010000
,
01000000
00000000
01000000
00100000
00000000
00100000
00010000
00100000
01000000
20000000
00000000
00000000
,
30100000
00000000
00000000
01000000
00000000
00000000
00001000
00000000
00000000
00010000
00000000
00010000
,
00000100
00000000
00000100
00000010
00000000
00000010
00000001
00000000
00000000
00000100
00000000
00000010
,
00001000
00000000
00000000
00000100
00000000
00000010
00000001
00000000
00000000
00000100
00000000
00000010
,
00001000
00000000
00001000
00000100
00000000
00000100
00010000
00001000
00100000
00010000
00000000
10000000
,
00100000
00000000
00000000
00010000
00000000
00100000
10000000
00000000
00000000
01000000
00000000
00010000
,
00001000
00000000
00001000
00010000
00000000
00010000
00000010
00000000
00000000
00000100
00000000
00000001
,
00000010
00000000
00000000
00000100
00000000
00001000
00000010
00000000
00000010
00000001
00000000
00000001
,
00000010
00000000
00000010
00001000
00000000
00001000
00000100
00000010
00000001
00002000
00000000
00000000
,
00003100
00000000
00000000
00010000
00000000
00000000
00001000
00000000
00000000
00100000
00000000
00100000
,
00010000
00000000
00010000
10000000
00000000
10000000
00100000
00000000
00000000
01000000
00000000
00001000
,
00010000
00000000
00000000
00001000
00000000
00010000
00000100
00000000
00000100
00000010
00000000
00000010
,
00000200
00000000
00000000
00020300
00000000
00031000
00100000
01000000
10000000
00010000
00000000
00010000
,
00100000
00000000
00000000
01000000
00000000
00100000
00001000
00000000
00000000
00010000
00000000
00000100
,
00000010
00000000
00000000
00000001
00000000
00000100
00001000
00000000
00000000
00010000
00000000
00100000
,
10000000
00000000
00000000
01000000
00000000
00010000
00001000
00000000
00000000
00010000
00000000
00000100
,
00000010
00000000
00000000
00000011
00000000
00000000
00001100
00000000
00000000
00020100
00000000
00031000
,
01000000
00000000
00000000
01000000
00000000
01000000
00100000
00000000
00000000
00100000
00000000
00100000
,
10000000
00000000
10000000
01000000
00000000
01000000
00010000
00000000
00000000
00001000
00000000
00010000
,
00000100
00000000
00000000
00000100
00000000
00001000
00000010
00000000
00000010
00000001
00000000
00000001
,
00000010
00000100
00000010
00000100
00000010
00001000
00000100
00010000
00000100
00010000
00000100
00001000
,
00010000
00100000
00010000
00100000
00010000
10000000
00100000
10000000
00010000
02000000
00000000
00000000
,
03100000
00000000
00000000
10000000
00000000
01000000
00100000
00000000
00001000
00010000
00000000
00000100
,
00000010
00000000
00000000
00000001
00000000
00000001
00000100
00000000
00000100
00001000
00000000
00000000
,
00020000
00000000
00000000
00032000
00000000
00103000
02000000
00000000
00000000
23000000
00000000
30100000
,
10000000
00000000
10000000
01000000
00000000
01000000
00010000
00000000
00010000
00100000
00000000
00100000
,
10000000
00000000
00000000
10000000
00000000
00010000
00100000
00000000
00100000
00001000
00000000
00010000
,
00000100
00000000
00000000
00000100
00000000
00000010
00000100
00000000
00001000
00000001
00000000
00000000
,
00000200
00000000
00000000
00000320
00000000
00010030
00002000
00000000
00000000
00003200
00000000
00000301
,
00001000
00000000
00001000
00000010
00000000
00000010
00000001
00000000
00000001
00000100
00000000
00000100
,
00001000
00000000
00001000
00000100
00001000
00000100
00010000
00001000
00010000
00001000
00000000
00000000
,
00001000
00000000
00001000
00100000
00010000
00100000
01000000
00100000
01000000
00100000
00000000
00000000
,
01000000
00000000
01000000
10000000
01000000
10000000
01000000
00100000
00010000
20000000
00000000
00000000
,
31000000
01100000
00000110
00000000
;

//---------------dance-double - ----------------
#NOTEDATA:;
#CHARTNAME:;
#STEPSTYPE:dance-double;
#DESCRIPTION:;
#CHARTSTYLE:;
#DIFFICULTY:Medium;
#METER:7;
#RADARVALUES:0.457801,0.406822,0.141220,0.228124,0.358481,261.000000,13.000000,21.000000,0.000000,0.000000,0.000000,0.000000,0.000000,0.457801,0.406822,0.141220,0.228124,0.358481,261.000000,13.000000,21.000000,0.000000,0.000000,0.000000,0.000000,0.000000;
#CREDIT:DJ OMiY;
#NOTES:
00000000
00000000
00000000
00000000
,
00000000
00000000
00000000
00000000
,
00000000
00000000
00000000
00000000
,
00000000
00000000
00000000
00000000
,
10000000
10000000
01000000
00010000
,
00001000
00001000
00000010
00001001
,
00000001
00000001
00000100
00001000
,
00010000
00100000
10000000
01000000
,
00010000
00000000
00000000
00001000
00000000
00000000
00000010
00000001
00001000
00000002
00000000
00000000
,
00000103
00000000
00000000
00000100
00000000
00000010
00000100
00000000
00000010
00000100
00000000
00000000
,
00001000
00000000
00000000
00001000
00000000
00010000
00001000
00000000
00010000
00001000
00000000
00000000
,
00100000
01000000
10000000
00010000
,
01000000
00000000
00000000
00100000
00000000
00100000
10000000
00000000
10000000
01000000
00000000
00000000
,
00100000
00000000
00000000
00100000
00000000
00001000
00100000
00000000
00001000
00100000
00000000
00000000
,
00001000
00000000
00000000
00001000
00000000
00010000
00000100
00000000
00010000
00000100
00000000
00000000
,
00001000
00000010
00000100
00000001
,
00001000
00000000
00000000
00000100
00000000
00000100
00010000
00000000
00010000
00001000
00000000
00000000
,
00000200
00000310
00002002
00003003
,
00000200
00010300
00202000
00303000
,
00010000
11000000
10000000
01010000
,
00100000
00000000
00100000
10000000
00000000
10000000
01000000
00000000
01000000
00200000
00000000
00000000
,
00301000
00000000
00000000
00010000
00000000
00000000
00000100
00000000
00000000
00000010
00000000
00000010
,
00000200
00000000
00000000
00002300
00000000
00000000
00003001
00000000
00000000
00000100
00000000
00000001
,
00000010
00000000
00000000
00000100
00000000
00001000
00000010
00000000
00000000
00000100
00000000
00001000
,
00010000
00000000
00010000
00001000
00000000
00001000
00100000
00010000
00100000
00010000
00000000
00000000
,
10000000
00100000
01000000
00010000
,
00100000
00000000
00100000
01000000
00000000
01000000
00100000
00000000
00000000
00010000
00000000
01000000
,
00100000
00000000
00000000
10000000
00000000
01000000
00100000
00000000
00000000
00010000
00000000
10000000
,
00020000
00000000
00000000
00230000
00000000
00000000
01300000
00100000
00001000
00020000
00000000
00000000
,
00030100
00000100
00000010
00000010
,
00000001
00000000
00000001
00000100
00000000
00000100
00000010
00000000
00000000
00001000
00000000
00000100
,
00000010
00000000
00000000
00000010
00000000
00000100
00010000
00000000
00010000
00001000
00000000
00000000
,
00100000
00000000
00000000
00010000
00000000
10000000
00010000
00100000
00010000
00100000
00000000
00000000
,
01000000
00000000
00000000
10000000
00000000
00000000
00100000
00000000
00000000
01000000
00000000
00010000
,
00100000
00000000
00000000
00001000
00000000
00010000
00000100
00000000
00000000
00000010
00000000
00000001
,
00000100
00000000
00000100
00000010
00000000
00000000
00000100
00000000
00000100
00000010
00000000
00000000
,
00000110
00001001
00011000
20010000
,
30100000
00100000
10000000
10000000
,
01000000
00000000
00000000
00010000
00000000
00001000
00010000
00000000
00000000
00001000
00000000
00000000
,
00000100
00000100
00000010
00001000
,
00000001
00000010
00000100
00001000
,
00010000
00000000
00000000
00100000
00000000
00000000
01000000
10000000
01000000
00200000
00000000
00000000
,
00310000
00000000
00000000
00010000
00000000
10000000
00010000
00000000
10000000
00010000
00000000
00000000
,
00100000
00000000
00000000
00100000
00000000
00001000
00010000
00000000
00001000
00010000
00000000
00000000
,
00000100
00000010
00000100
00010000
,
00001000
00000000
00000000
00000100
00000000
00000100
00000001
00000000
00000001
00000010
00000000
00000010
,
00001000
00000000
00000000
00001000
00000000
00010000
00001000
00000000
00010000
00001000
00000000
00000000
,
00010000
00000000
00000000
00010000
00000000
00100000
10000000
00000000
00100000
10000000
00000000
00000000
,
01000000
00010000
00001000
00000010
,
00001000
00000000
00000000
00010000
00000000
00010000
00100000
00000000
00100000
01000000
00000000
01000000
,
00002000
00013000
00002200
00003300
,
00000010
00000001
00000220
00000330
,
00000001
00000000
00000001
00000010
00000000
00000010
00000100
00010000
00001000
00020000
00000000
00000000
,
00031000
00110000
00001100
00000000
;

//---------------dance-double - ----------------
#NOTEDATA:;
#CHARTNAME:;
#STEPSTYPE:dance-double;
#DESCRIPTION:;
#CHARTSTYLE:;
#DIFFICULTY:Easy;
#METER:4;
#RADARVALUES:0.344515,0.377763,0.162946,0.282440,0.000000,181.000000,15.000000,26.000000,0.000000,0.000000,0.000000,0.000000,0.000000,0.344515,0.377763,0.162946,0.282440,0.000000,181.000000,15.000000,26.000000,0.000000,0.000000,0.000000,0.000000,0.000000;
#CREDIT:DJ OMiY;
#NOTES:
00000000
00000000
00000000
00000000
,
00000000
00000000
00000000
00000000
,
00000000
00000000
00000000
00000000
,
00000000
00000000
00000000
00000000
,
00001000
00010000
00001000
00010000
,
00000100
00000010
00000100
00000010
,
00001000
00010000
00001000
00010000
,
00100000
01000000
00100000
01000000
,
00011000
00011000
00011000
00021000
,
00030100
00000100
00000010
00000001
,
00000100
00000100
00001000
00010000
,
00100000
10000000
00100000
00010000
,
00100000
10000000
01000000
00100000
,
00001000
00001000
00010000
00000100
,
00000010
00000010
00000100
00010000
,
00001000
00000100
00000001
00000100
,
00001000
00000100
00000100
00000100
,
00000001
00000010
00000200
00000300
,
00001000
00000100
00020000
00030000
,
00001000
00100000
00001000
00010000
,
00001000
01000000
00100000
20010000
,
30100000
00100000
00100000
10000000
,
00010000
10000000
00010000
00000000
,
00200000
00300000
00002000
00003000
,
00010000
00000100
00000010
00000001
,
00000001
00000100
00000100
00000010
,
00001000
00000010
00000100
00000001
,
00002000
00003000
00000200
00000300
,
00010000
00010000
00011000
00012000
,
00103000
00010000
01000000
00000000
,
00100000
10000000
01000000
00200000
,
00310000
00200000
01300000
00100000
,
00001000
00010000
00002000
00003100
,
00000010
00000100
00000100
00000001
,
00000001
00001000
00001000
00000020
,
00000130
00000020
00000031
00000010
,
00001010
00001010
00001100
00001100
,
00020000
00000000
00032000
00000000
,
00103000
00010000
10000000
00000000
,
02000000
00000000
03200000
00000000
,
00310000
10000000
01000000
00100000
,
00010000
00001000
00000100
00000020
,
00000031
00000001
00000100
00000010
,
00010000
00010000
00000100
00010000
,
00001000
00100000
01000000
00100000
,
00010000
10000000
01000000
00100000
,
00001000
00001000
00010000
00100000
,
01000000
01000000
00010000
00100000
,
00010000
01000000
10000000
01000000
,
00010000
00100000
00001000
00010000
,
00000200
00000300
00000022
00000033
,
00000200
00000300
00022000
00033000
,
00010000
00100000
00010000
00002000
,
00003000
10010000
10010000
00000000
;
