#VERSION:0.81;
#TITLE:Afternoon tea dream;
#SUBTITLE:;
#ARTIST:ELEKTEL;
#TITLETRANSLIT:;
#SUBTITLETRANSLIT:;
#ARTISTTRANSLIT:;
#GENRE:Tea-sy Listening;
#ORIGIN:;
#CREDIT:;
#BANNER:Afternoon tea dream-bn.png;
#BACKGROUND:Afternoon tea dream-bg.png;
#PREVIEWVID:;
#JACKET:Afternoon tea dream-jk.png;
#CDIMAGE:;
#DISCIMAGE:;
#LYRICSPATH:;
#CDTITLE:;
#MUSIC:Afternoon tea dream.mp3;
#OFFSET:0.605000;
#SAMPLESTART:18.304367;
#SAMPLELENGTH:16.842106;
#SELECTABLE:YES;
#BPMS:0.000=114.000;
#STOPS:;
#DELAYS:;
#WARPS:;
#TIMESIGNATURES:0.000=4=4;
#TICKCOUNTS:0.000=4;
#COMBOS:0.000=1;
#SPEEDS:0.000=1.000=0.000=0;
#SCROLLS:0.000=1.000;
#FAKES:;
#LABELS:0.000=Song Start,
229.000=Song End;
#BGCHANGES:;
#KEYSOUNDS:;
#ATTACKS:
;

//---------------dance-single - ----------------
#NOTEDATA:;
#CHARTNAME:;
#STEPSTYPE:dance-single;
#DESCRIPTION:;
#CHARTSTYLE:;
#DIFFICULTY:Hard;
#METER:7;
#RADARVALUES:0.438312,0.405797,0.062937,0.220280,0.149476,354.000000,8.000000,28.000000,0.000000,0.000000,0.000000,0.000000,0.000000,0.438312,0.405797,0.062937,0.220280,0.149476,354.000000,8.000000,28.000000,0.000000,0.000000,0.000000,0.000000,0.000000;
#CREDIT:DJ OMiY;
#NOTES:
// measure 0
0000
0000
0000
0000
,  // measure 1
0000
0000
0000
0000
,  // measure 2
0000
0000
0000
0000
,  // measure 3
0000
0000
0000
0000
,  // measure 4
0000
0000
0000
0000
,  // measure 5
0000
0000
0000
0000
0001
0000
1000
0100
,  // measure 6
0010
0000
0100
2000
0001
3000
0001
0100
,  // measure 7
0010
0100
0002
0023
,  // measure 8
0230
0000
0000
0000
1300
0000
0010
0000
0000
1000
0100
0000
1000
0001
1000
0000
,  // measure 9
0010
1000
0100
0010
0001
0010
0100
1000
,  // measure 10
0001
0100
1000
0100
0001
1000
0100
0010
,  // measure 11
0001
0010
1000
0010
0001
0100
0010
1000
,  // measure 12
0100
0000
1000
0000
0001
0000
0100
0000
0000
0010
0100
0000
0001
0000
0100
0000
,  // measure 13
0010
1000
0010
0001
0010
1000
0001
0100
,  // measure 14
0010
1000
0100
0010
0001
0010
0100
1000
,  // measure 15
0010
0100
0010
1000
0001
0010
0100
1000
,  // measure 16
0001
0000
0100
0000
1000
0000
0100
0000
0000
0001
0100
0000
0001
0000
0100
0000
,  // measure 17
0010
1000
0010
0000
0100
0000
0010
1000
0010
0000
0000
0000
0100
0000
0001
1000
,  // measure 18
0001
0000
0000
0000
0010
0000
0000
0010
0000
0000
0010
0000
0000
0100
1000
0000
,  // measure 19
0001
0010
0001
0000
1000
0000
0001
0010
0001
0000
0000
1000
0000
0100
0000
0010
,  // measure 20
0001
0000
0000
0000
0100
0000
0010
1000
0000
0000
1000
0000
0002
0000
0000
0000
,  // measure 21
0103
0000
0001
0000
0010
0100
1000
0000
,  // measure 22
0020
2030
3002
0013
,  // measure 23
0100
0000
0010
0001
1000
0001
0100
0001
,  // measure 24
1000
0000
0000
0000
0010
0000
0000
0100
0000
0000
0010
0000
1000
0001
1000
0000
,  // measure 25
0100
0000
0010
0100
1000
0000
0100
0010
,  // measure 26
0001
0000
0100
0001
1000
0000
0010
0100
,  // measure 27
1000
0000
0100
0001
1000
0000
0010
1000
,  // measure 28
0100
0000
0010
0100
1000
0100
0010
0000
,  // measure 29
0001
0100
0001
0000
0100
0010
1000
0100
,  // measure 30
0010
0000
0100
0000
1000
0000
0001
0100
,  // measure 31
0010
0000
1000
0100
0010
0000
0001
0000
,  // measure 32
2000
0100
0001
3010
,  // measure 33
0101
0000
0000
0000
1001
0000
0000
0000
0010
0000
0000
1000
0000
0000
0100
0010
,  // measure 34
0001
0000
1001
0000
1000
0001
0100
0010
,  // measure 35
1000
0000
1100
0000
0011
0000
1000
0010
,  // measure 36
0100
0001
0200
0000
0000
0000
0000
0000
0010
0000
0000
0000
0310
0000
0000
0000
,  // measure 37
0110
0000
0000
0000
0010
0000
1000
0000
0001
0000
0000
0100
0000
0000
0001
1000
,  // measure 38
0001
0000
0011
0000
1010
1000
0001
0100
,  // measure 39
0002
0000
0013
0000
2000
0000
3010
0001
,  // measure 40
1000
0100
1000
0100
1000
0100
0010
0001
,  // measure 41
1000
0001
1000
0000
0100
0000
1000
0001
1000
0000
0000
0000
0010
0000
0100
0001
,  // measure 42
0100
0000
0000
0000
0010
0000
0000
0010
0000
0000
0010
0000
0000
0100
0001
0000
,  // measure 43
0010
0100
0010
0000
0001
0000
0010
0100
0010
0000
0000
0001
0000
1000
0000
0001
,  // measure 44
0100
0000
0000
0000
0010
0000
0000
0001
0000
0000
0100
0000
0020
0000
0000
0000
,  // measure 45
1030
0100
0010
0001
1000
0000
0001
0100
,  // measure 46
0001
0010
0100
1000
0010
0000
0100
0000
,  // measure 47
0010
1000
0100
1000
0001
0100
0010
0100
,  // measure 48
0002
0000
0000
0000
0023
0000
0000
0000
0230
0000
0000
0000
1300
0001
1000
0000
,  // measure 49
0010
0200
1300
0200
0301
0000
0010
0100
,  // measure 50
1000
0100
0010
0002
1003
0000
0010
1000
,  // measure 51
0100
0020
0031
0020
1030
0010
0001
0000
,  // measure 52
0100
0000
0010
0000
1000
0000
0010
0000
0000
0100
0001
0000
0100
0000
0010
0000
,  // measure 53
1000
0020
0031
0020
1030
0001
0100
0000
,  // measure 54
0010
1000
0100
2000
3001
0100
0010
0000
,  // measure 55
1000
0200
0310
0200
1300
0100
0010
0000
,  // measure 56
0001
0100
0010
0200
0301
0010
0001
0000
,  // measure 57
1000
0000
0001
0000
1000
0000
0002
0000
0000
0000
0000
0000
0103
0000
0000
0100
0000
0000
0000
0000
0000
0000
0000
0000
0000
0000
0000
0000
0000
0000
0000
0000
0000
0000
0000
0000
0000
0000
0000
0000
0000
0000
0000
0000
0000
0000
0000
0000
;

//---------------dance-single - ----------------
#NOTEDATA:;
#CHARTNAME:;
#STEPSTYPE:dance-single;
#DESCRIPTION:;
#CHARTSTYLE:;
#DIFFICULTY:Medium;
#METER:5;
#RADARVALUES:0.361888,0.360708,0.094406,0.377623,0.027535,262.000000,12.000000,48.000000,0.000000,0.000000,0.000000,0.000000,0.000000,0.361888,0.360708,0.094406,0.377623,0.027535,262.000000,12.000000,48.000000,0.000000,0.000000,0.000000,0.000000,0.000000;
#CREDIT:DJ OMiY;
#NOTES:
0000
0000
0000
0000
,
0000
0000
0000
0000
,
0000
0000
0000
0000
,
0000
0000
0000
0000
,
0000
0000
0000
0000
,
1000
0000
0100
0000
0100
0000
0010
0100
,
0010
0000
0001
1000
0001
0000
0200
0000
,
0310
1000
0200
0320
,
0032
0000
1003
0001
0000
0001
0100
0010
,
2000
3200
0320
0032
,
0203
0320
2030
3002
,
0203
2300
3200
0302
,
1003
0100
1000
0100
0000
0010
0100
1000
,
0002
0203
0320
2030
,
3200
0320
0032
2003
,
3020
0032
0023
2030
,
3001
0100
0010
1000
0000
1000
0010
0100
,
0001
0001
1000
0001
0001
0000
1000
0100
,
0100
0000
0000
0000
0010
0000
0000
0010
0000
0000
0010
0000
0000
0000
0001
0000
,
1000
1000
0001
1000
2000
0000
3010
0000
,
0100
0000
0000
0000
0001
0000
0000
0001
0000
0000
0001
0000
2000
0000
0000
0000
,
3010
0100
0001
0000
1000
0000
0100
0000
,
0010
0100
1000
0000
0001
0000
1000
0000
,
0100
0010
0001
0000
1000
0100
0010
0000
,
0100
1000
0010
0100
,
0002
0000
0000
0000
0013
0000
0100
1000
,
0200
0000
1300
0010
,
2000
0000
0000
0000
3010
0000
0100
0001
,
0020
0000
0130
0010
,
0002
0000
1000
0000
0100
0000
1003
0001
,
2000
0000
0000
0000
3010
1000
0100
0000
,
0010
0000
0100
0000
0010
0000
0001
1000
,
0020
0001
0100
1030
,
0101
0000
0000
0000
0001
0000
0000
0000
0001
0000
0000
1000
0000
0000
0001
0000
,
1000
0000
1000
0000
1000
0010
1000
0010
,
0100
0000
0100
0000
0110
0000
0100
0010
,
0100
0001
0010
0000
0010
0000
0010
0000
,
1001
0000
0000
0000
1000
0000
0000
0000
1000
0000
0000
0001
0000
0000
1000
0000
,
0001
0000
0001
0000
0001
1000
0010
1000
,
0010
0000
0010
0000
0110
0000
0100
0100
,
0001
0000
0001
0000
1000
0001
1000
0000
,
0010
0010
0100
0010
0010
0000
0100
0001
,
1000
0000
0000
0000
0001
0000
0000
0001
0000
0000
0001
0000
0000
0000
1000
0000
,
0100
0100
0010
0100
0100
0000
0020
0000
,
0031
0000
0000
0000
1000
0000
0000
1000
0000
0000
1000
0000
0020
0000
0000
0000
,
0130
0000
0001
0000
0010
0000
0100
1000
,
0200
0000
0310
0100
1000
0000
0010
0000
,
0200
0000
0301
0100
0002
0000
0023
0000
,
0230
0000
1000
0000
0010
0000
0310
0100
,
0010
0000
0011
0000
0011
0000
0100
1000
,
0001
0000
0100
0000
0010
0000
1000
0010
,
0100
0000
1010
0000
1010
0000
0100
0001
,
2000
0000
3002
0000
0103
0100
0001
0100
,
0010
0000
1001
0000
1001
0000
0010
1000
,
0100
0010
0200
1300
,
0001
0000
0110
0000
0110
0000
1000
0001
,
0010
0000
0100
0000
1000
0100
0010
0001
,
2000
0000
0000
0000
3001
0001
0000
0000
0000
0000
0000
0000
0000
0000
0000
0000
;

//---------------dance-single - ----------------
#NOTEDATA:;
#CHARTNAME:;
#STEPSTYPE:dance-single;
#DESCRIPTION:;
#CHARTSTYLE:;
#DIFFICULTY:Easy;
#METER:3;
#RADARVALUES:0.194431,0.202677,0.062937,0.086539,0.000000,154.000000,8.000000,11.000000,0.000000,0.000000,0.000000,0.000000,0.000000,0.194431,0.202677,0.062937,0.086539,0.000000,154.000000,8.000000,11.000000,0.000000,0.000000,0.000000,0.000000,0.000000;
#CREDIT:DJ OMiY;
#NOTES:
0000
0000
0000
0000
,
0000
0000
0000
0000
,
0000
0000
0000
0000
,
0000
0000
0000
0000
,
0000
0000
0000
0000
,
1000
0000
0002
0000
,
0103
0000
0010
1000
,
0200
0000
0310
0010
,
0100
0000
1000
0001
,
0100
0010
0100
0010
,
1000
0100
1000
0100
,
0010
0001
0010
0001
,
1000
0000
0001
0000
,
0100
0001
0100
0001
,
1000
0010
1000
0010
,
0100
0010
0100
0010
,
1000
0000
0100
0000
,
0020
0031
2000
3010
,
0100
0000
0100
0000
,
0002
0013
0200
1300
,
0010
0000
1000
0000
,
0002
0000
0010
0000
,
2003
0000
0100
0000
,
3010
0000
1000
0100
,
0010
0000
0001
0000
,
0100
0000
0010
0100
,
0001
0000
1000
0000
,
0100
0010
0100
0000
,
1000
0001
1000
0000
,
0010
0010
0010
0100
,
0010
0000
0100
0000
,
0001
0010
0100
0000
,
1000
0100
0010
0000
,
1001
1000
1000
0001
,
1000
1000
1000
0001
,
0100
0100
0010
0010
,
1000
0000
0100
0010
,
0001
0001
0001
1000
,
0001
0001
0001
0100
,
0001
0001
1000
1000
,
0010
0100
0001
0000
,
1001
0000
0110
0000
,
2002
0000
3003
0010
,
1001
0000
0110
0000
,
1100
0000
0101
0010
,
1000
0000
1000
0100
,
0010
0000
0001
0000
,
1000
0000
0001
0100
,
0010
0000
0100
0000
,
0001
1000
0001
0000
,
0100
0000
0010
0000
,
1000
0100
1000
0000
,
0100
0000
0010
0000
,
0001
1000
0010
0000
,
0100
0000
0001
0000
,
0010
0100
1000
0000
,
0001
0000
0010
0000
,
0200
1300
0000
0000
;

//---------------dance-single - ----------------
#NOTEDATA:;
#CHARTNAME:;
#STEPSTYPE:dance-single;
#DESCRIPTION:;
#CHARTSTYLE:;
#DIFFICULTY:Beginner;
#METER:1;
#RADARVALUES:0.129246,0.135118,0.062937,0.125874,0.000000,91.000000,8.000000,16.000000,0.000000,0.000000,0.000000,0.000000,0.000000,0.129246,0.135118,0.062937,0.125874,0.000000,91.000000,8.000000,16.000000,0.000000,0.000000,0.000000,0.000000,0.000000;
#CREDIT:DJ OMiY;
#NOTES:
0000
0000
0000
0000
,
0000
0000
0000
0000
,
0000
0000
0000
0000
,
0000
0000
0000
0000
,
0000
0000
0000
0000
,
0000
0000
0010
0000
,
0010
0000
0000
1000
,
1000
0000
0100
0000
,
0020
0000
0030
0000
,
0001
0000
0010
0000
,
0100
0000
1000
0000
,
0001
0000
0010
0000
,
0200
0000
0300
0000
,
1000
0000
0100
0000
,
0010
0000
0001
0000
,
1000
0000
0100
0000
,
0020
0000
0030
0000
,
0001
0000
0100
0000
,
0202
0000
0303
0000
,
1000
0000
0100
0000
,
2200
0000
3300
0000
,
0010
0000
0001
0000
,
0200
0000
0300
0000
,
0010
0000
1000
0000
,
0200
0000
0300
0000
,
0010
0000
0001
0000
,
1000
0000
0000
0000
,
0010
0000
1000
0000
,
0001
0000
0000
0000
,
0010
0010
0010
0000
,
0002
0000
0003
0000
,
1000
1000
1000
0000
,
0200
0000
0300
0000
,
0010
0000
0001
0001
,
0001
0000
0100
0000
,
0010
0000
1000
0000
,
0200
0000
0000
0300
,
0100
0000
1000
1000
,
1000
0000
0010
0000
,
0100
0000
0001
0000
,
0020
0000
0030
0000
,
0110
0000
1001
0000
,
0110
0000
0000
0000
,
0110
0000
1001
0000
,
0110
0000
0000
0000
,
0001
0000
0100
0000
,
0001
0000
0100
0000
,
0010
0000
1000
0000
,
0002
0000
0003
0000
,
1000
0000
0100
0000
,
0010
0000
0001
0000
,
1000
0000
0100
0000
,
0020
0000
0030
0000
,
0001
0000
0010
0000
,
0100
0000
1000
0000
,
0001
0000
0010
0000
,
0200
0000
0300
0000
,
0010
0010
0000
0000
;

//---------------dance-double - ----------------
#NOTEDATA:;
#CHARTNAME:;
#STEPSTYPE:dance-double;
#DESCRIPTION:;
#CHARTSTYLE:;
#DIFFICULTY:Hard;
#METER:7;
#RADARVALUES:0.439436,0.405797,0.062937,0.259616,0.114074,350.000000,8.000000,33.000000,0.000000,0.000000,0.000000,0.000000,0.000000,0.439436,0.405797,0.062937,0.259616,0.114074,350.000000,8.000000,33.000000,0.000000,0.000000,0.000000,0.000000,0.000000;
#CREDIT:DJ OMiY;
#NOTES:
00000000
00000000
00000000
00000000
,
00000000
00000000
00000000
00000000
,
00000000
00000000
00000000
00000000
,
00000000
00000000
00000000
00000000
,
00000000
00000000
00000000
00000000
,
00010000
00000000
00010000
00000000
00001000
00000000
00010000
00000100
,
00000020
00000000
00000031
00002000
00000010
00000000
00003100
00001000
,
00000002
00000000
00000013
00000000
00000100
00010000
00001000
00100000
,
00002000
00000000
00013000
01000000
00100000
00001000
00010000
00001000
,
00000100
00000001
00000100
00000010
00000100
00000001
00000100
00000010
,
00001000
00000100
00010000
00000100
00001000
00000100
00010000
00001000
,
00100000
01000000
10000000
01000000
00100000
01000000
10000000
01000000
,
00100000
00000000
00010000
00000000
10000000
00000000
00100000
00000000
00000000
00100000
10000000
00000000
00010000
00000000
10000000
00000000
,
01000000
00100000
00010000
00100000
01000000
00100000
00001000
00010000
,
00000100
00001000
00000010
00000100
00000010
00001000
00000100
00000010
,
00000001
00001000
00000100
00010000
00000100
00001000
00000010
00000100
,
00000010
00001000
00000100
00010000
00001000
00010000
00010000
00100000
,
10000000
00010000
10000000
00000000
00100000
00000000
10000000
00010000
10000000
00000000
00000000
00000000
01000000
00000000
00100000
00010000
,
00200000
00000000
00000000
00000000
00001000
00000000
00000000
00010000
00000000
00000000
00301000
00000000
00000000
00000000
00010000
00000000
,
00000100
00001000
00000100
00000000
00010000
00000000
00000100
00001000
00000100
00000000
00000000
00000010
00000000
00000001
00000000
00001000
,
00000001
00000000
00000100
00000010
00002000
00000000
00003200
00000000
,
00010300
00001000
00010000
00001000
00200000
00000000
02300000
00000000
,
13000000
00100000
10000000
00100000
02000000
00000000
03000000
00000000
,
00010000
00100000
00001000
00020000
00000100
00030200
00001000
00002300
,
00003001
00000000
00000010
00000000
00000100
00000000
00000000
00010000
00000000
00000000
00000100
00000000
00001000
00000000
00000000
00000000
,
00000100
00000000
00000010
00000001
00001000
00000000
00000100
00000000
,
00010000
00000000
00001000
00100000
01000000
00000000
10000000
00000000
,
00100000
00000000
00010000
00000000
00100000
00000000
10000000
01000000
,
00100000
00000000
00001000
00010000
00000100
00000000
00001000
00000000
,
00000010
00001000
00000010
00000000
00010000
00000100
00010000
00000000
,
00001000
00000000
00000100
00000001
00001000
00000000
00000010
00000000
,
00000100
00000000
00000001
00000000
00000010
00000000
00000100
00001000
,
00000100
00000000
00010000
00001000
00100000
00000000
01000000
00000000
,
10010000
00000000
00000000
00000000
10100000
00000000
01000000
00000000
00010000
00000000
00000000
10000000
00000000
00000000
00100000
01000000
,
00100000
00000000
01000000
00000000
00010000
00100000
00001000
00010000
,
00000010
00000000
00000110
00000000
00001001
00000000
00000010
00001000
,
00000001
00000100
00000002
00000000
00000000
00000000
00000000
00000000
00001000
00000000
00000000
00000000
00000013
00000000
00000000
00000000
,
00001100
00000000
00000000
00000000
00000011
00000000
00000001
00000000
00000100
00000000
00000000
00000010
00000000
00000000
00010000
00001000
,
00010000
00000000
00001000
00000000
00100000
00010000
10000000
00100000
,
01000000
00000000
01010000
00000000
11000000
00000000
00100000
00001000
,
00020000
00000000
00000100
00000000
00031000
00010000
00000100
00001000
,
00000010
00000100
00000010
00000000
00001000
00000000
00000010
00000100
00000020
00000000
00000000
00000000
00001030
00000000
00000100
00010000
,
00000100
00000000
00000000
00000000
00010000
00000000
00000000
00001000
00000000
00000000
00100000
00000000
00000000
00000000
01000000
00000000
,
10000000
00010000
10000000
00000000
00100000
00000000
10000000
00010000
10000000
00000000
00000000
01000000
00000000
00100000
00000000
01000000
,
00200000
00000000
00310000
00100000
00002000
00000000
00023000
00000000
,
00030010
00000100
00000001
00000010
00000200
00000000
00002300
00000000
,
00003100
00010000
00001000
00100000
01000000
00000000
00100000
00000000
,
00010000
10000000
00100000
01000000
00002000
00000000
00023000
00000000
,
00230000
00000000
00000000
00000000
10300000
00000000
01000000
00000000
00100000
00000000
01000000
00000000
10000000
00010000
10000000
00000000
,
00100000
02000000
03010000
02000000
03100000
01000000
00010000
00000000
,
00100000
00001000
00010000
00000100
00000010
00000100
00001000
00000000
,
00000001
00000020
00000031
00002000
00003001
00000100
00000010
00000000
,
00001000
00000100
00000010
00000100
00010000
00001000
00010000
00000000
,
00001000
00200000
00301000
00020000
00031000
00000100
00000010
00000000
,
00000100
00000001
00001000
00000100
00010000
00001000
00100000
00000000
,
00010000
00200000
00301000
00020000
00030100
00010000
00001000
00000000
,
00100000
00010000
10000000
01000000
00100000
00001000
01000000
00100000
,
10000000
00000000
00010000
00000000
10000000
00000000
00020000
00000000
00000000
00000000
00000000
00000000
01030000
00000000
00000000
01000000
00000000
00000000
00000000
00000000
00000000
00000000
00000000
00000000
00000000
00000000
00000000
00000000
00000000
00000000
00000000
00000000
00000000
00000000
00000000
00000000
00000000
00000000
00000000
00000000
00000000
00000000
00000000
00000000
00000000
00000000
00000000
00000000
;

//---------------dance-double - ----------------
#NOTEDATA:;
#CHARTNAME:;
#STEPSTYPE:dance-double;
#DESCRIPTION:;
#CHARTSTYLE:;
#DIFFICULTY:Medium;
#METER:5;
#RADARVALUES:0.351774,0.338164,0.236014,0.141609,0.003934,265.000000,30.000000,18.000000,0.000000,0.000000,0.000000,0.000000,0.000000,0.351774,0.338164,0.236014,0.141609,0.003934,265.000000,30.000000,18.000000,0.000000,0.000000,0.000000,0.000000,0.000000;
#CREDIT:DJ OMiY;
#NOTES:
00000000
00000000
00000000
00000000
,
00000000
00000000
00000000
00000000
,
00000000
00000000
00000000
00000000
,
00000000
00000000
00000000
00000000
,
00000000
00000000
00000000
00000000
,
00001000
00000000
00010000
00000000
00000100
00000000
00001000
00000001
,
00000200
00000000
00000000
00000302
00000000
00000000
00000013
00000100
,
00001000
00000100
00020000
00032000
,
02003000
00000000
03100000
01000000
00000000
00100000
00100000
00100000
,
10000000
01000000
00100000
00000000
00010000
00100000
01000000
00000000
,
10000000
01000000
00010000
00000000
00001000
00000100
00000001
00000000
,
00000010
00000100
00001000
00000000
00000100
00000010
00000001
00000000
,
00000100
00001000
00010000
00000000
00001000
00010000
00100000
00000000
,
10000000
00010000
01000000
00000000
00010000
10000000
01000000
00000000
,
00100000
00001000
00010000
00000000
00001000
00010000
00000100
00000000
,
00000010
00000001
00000100
00000000
00000010
00001000
00000100
00000000
,
00000010
00001000
00010000
00000000
00001000
00010000
00100000
00000000
,
01000000
01000000
00010000
01000000
01000000
00000000
00100000
10000000
,
01000000
00110000
00011000
00001100
,
00001000
00001000
00000010
00001000
00001000
00000000
00000100
00000010
,
00000001
00000101
00000110
00001010
,
00002000
00003100
00010000
00001000
,
00200000
01300000
20000000
30010000
,
01000000
00000000
00100000
20000000
00000000
32000000
00000000
03020000
,
00031000
00010000
00010100
00001010
,
00000100
00000000
00000000
00000000
00000001
00000000
00000010
00000100
,
00010000
00000000
00001000
00000000
,
00010000
00000000
00000000
00000000
00000100
00000000
00010000
00001000
,
00100000
00000000
01000000
10000000
,
00100000
00000000
00000000
00000000
01000000
00000000
00100000
01000000
,
00001000
00000000
00010000
00000100
,
00000010
00000100
00000100
00001000
,
00000001
00000000
00000100
00000010
,
00011000
00000000
00101000
00000000
00110000
00000000
01100000
01000000
,
10000000
00000000
00100000
00000000
01000000
00010000
00100000
00000000
,
00101000
00011000
00010100
00000110
,
00000001
00000100
00000010
00000000
00001000
00000010
00000100
00000000
,
00000101
00000000
00000011
00000000
00001010
00000000
00011000
00001000
,
00100000
00000000
00100000
00000000
00010000
10000000
00010000
00000000
,
10100000
00000000
10100000
00000000
01010000
00000000
00101000
00001000
,
00010000
00000000
00000100
00000000
00001000
00000010
00000100
00000001
,
00000010
00000010
00000100
00000010
00000010
00000000
00000001
00001000
,
00000100
00011000
00110000
00011000
,
00010000
00010000
00001000
00100000
00100000
00000000
00010000
10000000
,
01000000
11000000
01100000
00110000
,
00200000
00001000
00010000
00301000
,
00002000
00010000
00000100
00013000
,
00000200
00000000
00000310
00000010
00000002
00000000
00002003
00000000
,
00003200
00000000
00010000
00000000
00001000
00000000
00010300
00000100
,
00010000
00001000
00100000
00001000
00100000
00000000
00010000
00000000
,
10000000
01000000
00100000
00000000
01000000
00100000
00010000
00000000
,
10000000
00100000
10000000
00100000
01000000
00000000
00010000
00000000
,
00100000
00001000
00010000
00000000
00001000
00010000
00000100
00000000
,
00000010
00000100
00000010
00000100
00001000
00000000
00000001
00000000
,
00000100
00000001
00000010
00000000
00000100
00001000
00000010
00000000
,
00001000
00000100
00001000
00000100
00010000
00000000
00001000
00000000
,
00100000
00010000
01000000
00000000
00010000
00100000
00001000
00000000
,
00020000
00000000
00000000
00000000
00031000
00001000
00000000
00000000
00000000
00000000
00000000
00000000
00000000
00000000
00000000
00000000
;

//---------------dance-double - ----------------
#NOTEDATA:;
#CHARTNAME:;
#STEPSTYPE:dance-double;
#DESCRIPTION:;
#CHARTSTYLE:;
#DIFFICULTY:Easy;
#METER:2;
#RADARVALUES:0.187687,0.247717,0.094406,0.149476,0.000000,136.000000,12.000000,19.000000,0.000000,0.000000,0.000000,0.000000,0.000000,0.187687,0.247717,0.094406,0.149476,0.000000,136.000000,12.000000,19.000000,0.000000,0.000000,0.000000,0.000000,0.000000;
#CREDIT:DJ OMiY;
#NOTES:
00000000
00000000
00000000
00000000
,
00000000
00000000
00000000
00000000
,
00000000
00000000
00000000
00000000
,
00000000
00000000
00000000
00000000
,
00000000
00000000
00000000
00000000
,
00001000
00000000
00100000
00000000
,
00010000
00000000
10000000
01000000
,
01000000
00000000
00100000
00100000
,
00001000
00000000
00010000
00000000
,
00000100
00000000
00000100
00000000
,
00000010
00000000
00000001
00000000
,
00000100
00000000
00000010
00000000
,
00001000
00000000
00000100
00010000
,
00001000
00000000
00100000
00000000
,
00010000
00000000
01000000
00000000
,
00100000
00000000
10000000
01000000
,
00100000
00000000
00001000
00000000
,
00010000
00011000
00001000
00011000
,
00010000
00020200
00030300
00000000
,
00000100
00000110
00000010
00000110
,
00000100
00002002
00003003
00000000
,
00000001
00000000
00000100
00000010
,
00000100
00000000
00001000
00000000
,
00010000
00000000
00001000
01000000
,
00010000
00000000
00100000
00000000
,
01000000
00000000
10000000
01000000
,
00100000
00000000
01000000
00000000
,
00100000
00000000
00001000
00000000
,
00010000
00000100
00010000
00000000
,
00001000
00001000
00000010
00000010
,
00000001
00000000
00000100
00000000
,
00000010
00000000
00001000
00000100
,
00001000
00000000
00000010
00000000
,
00010000
00000000
00001000
00100000
,
02000000
00000000
13000000
00100000
,
02000000
00000000
03020000
00000000
,
00130000
00000000
00001000
00000000
,
00010000
00000000
00000100
00000010
,
00000200
00000000
00001300
00000010
,
00000200
00000000
00000302
00000000
,
00000013
00000001
00001000
00000000
,
00000100
00001100
00001000
00001100
,
00000100
00020200
00030300
00000000
,
00010000
00011000
00001000
00011000
,
00010000
00202000
00303000
00000000
,
00200000
00000000
00310000
10000000
,
02000000
00000000
03200000
00000000
,
01300000
00000000
10000000
00010000
,
02000000
00000000
03100000
00000000
,
10000000
01000000
00100000
00000000
,
00001000
00000000
00010000
00000000
,
00000100
00001000
00000010
00000000
,
00000100
00000000
00000001
00000000
,
00000010
00000100
00001000
00000000
,
00000100
00000000
00010000
00000000
,
00001000
00100000
01000000
00000000
,
00100000
00000000
00001000
00000000
,
00020000
00030100
00000000
00000000
;
