#TITLE:AGEHA;
#SUBTITLE:;
#ARTIST:Ryu☆;
#TITLETRANSLIT:;
#SUBTITLETRANSLIT:;
#ARTISTTRANSLIT:Ryu*;
#GENRE:Happy Hardcore;
#CREDIT:;
#BANNER:AGEHA-bn.png;
#BACKGROUND:AGEHA-bg.png;
#LYRICSPATH:;
#CDTITLE:;
#MUSIC:AGEHA.mp3;
#OFFSET:2.220000;
#SAMPLESTART:35.092999;
#SAMPLELENGTH:13.353000;
#LASTBEATHINT:343.000000;
#SELECTABLE:YES;
#BPMS:0.000000=180.000000
,216.000000=90.000000
,244.000000=180.000000
;
#STOPS:
;
#BGCHANGES:;
#KEYSOUNDS:;
#ATTACKS:;

//---------------dance-single - S-HEAVY----------------
#NOTES:
     dance-single:
     DJ OMiY-HSP:
     Hard:
     8:
     0.587145,0.573046,0.316780,0.227431,0.040613,439.000000,39.000000,28.000000,0.000000,0.000000,0.000000,0.587145,0.573046,0.316780,0.227431,0.040613,439.000000,39.000000,28.000000,0.000000,0.000000,0.000000:
0000
0000
0000
0000
,
0000
0000
0000
0000
,
0000
0000
0000
0000
,
1000
0000
1001
0000
0001
0100
0000
0010
,
0000
1000
0000
0100
0010
0000
0001
0000
,
1000
0100
0010
0100
1000
0000
0001
0010
,
0100
0010
0001
0000
1000
0001
1000
0000
,
0010
0000
0110
0000
0001
1000
0000
0010
,
0000
1000
0000
0100
0010
0000
0001
0000
,
1000
0001
0010
0001
1000
0000
0001
1000
,
0100
1000
0001
0000
0100
0010
0100
0000
,
0220
0000
0030
0301
,
2000
0000
0000
0000
3100
1000
0100
1000
,
0002
0000
0203
0000
,
0310
2010
0000
3002
,
0023
0000
0230
0000
,
2300
0000
0000
0000
3001
0010
0001
1000
,
0020
0000
0230
0000
,
0302
0013
0021
0000
,
0230
0000
1300
1001
,
0010
1000
0001
0000
0100
0001
0010
0000
,
0100
1000
0001
0000
0100
0010
1000
0000
,
0001
0100
0001
0100
0010
0000
1000
0100
,
1000
0100
0010
0000
0001
0100
0101
0000
,
1001
1010
0001
0101
,
0001
0010
0100
0000
1000
0100
0010
0000
,
0001
0100
0010
1000
0010
0000
1000
0010
,
0100
0001
0010
0000
0100
0010
0001
0000
,
1000
0000
1010
0000
0010
0100
0000
0001
,
0000
0010
0000
0100
1000
0000
0001
0000
,
0100
0010
0100
0001
1000
0000
0001
0010
,
0001
1000
0010
0000
0100
0010
1000
0000
,
0001
0000
0011
0000
0010
0100
0000
1000
,
0000
0001
0000
1000
0010
0000
0100
0000
,
0010
1000
0001
1000
0010
0000
0100
0001
,
1000
0001
0100
0000
0010
1000
0001
0000
,
0101
0100
0100
0100
,
1010
0101
1100
0011
,
1000
0100
1000
0100
0010
0001
0100
0010
,
0100
0001
1000
0010
1000
0100
0010
0000
,
0001
0010
0001
1000
0010
0100
0010
1000
,
0001
0010
0100
1000
0001
0000
0101
0000
,
1000
0001
1000
0010
1000
0100
0010
0001
,
0010
0100
1000
0100
0001
0100
1000
0000
,
0001
0100
0001
0010
0100
0010
0001
1000
,
0010
0000
0000
0000
0110
0000
0000
0000
0010
0000
1000
0001
1000
0000
0000
0000
,
0010
0100
0001
0100
0000
0010
1000
0001
,
0000
1000
0100
0010
0000
0001
0100
0010
,
0000
0100
0001
1000
0000
0010
1000
0001
,
0000
0010
0001
0010
0100
1000
0001
0010
,
0100
0010
0001
0100
0000
0010
1000
0001
,
0000
0100
0010
1000
0000
0001
1000
0100
,
0000
1000
0100
0010
0000
0100
0010
0100
,
0110
0000
1000
0000
0011
0000
1100
1000
,
2001
0000
0000
0100
,
3002
0000
0000
0000
0013
0001
0010
0001
0200
0000
0000
0000
0320
0000
0000
0000
,
1030
0100
0000
1000
0002
0000
2003
0000
,
3200
0000
0000
0000
0310
0100
0010
0100
2000
0000
0000
0000
3010
0000
0000
0000
,
0200
0000
0302
0000
0023
0000
0130
1001
,
0001
0010
0100
1000
0100
0010
0001
1000
,
0100
1000
0100
1000
0000
0000
0001
0100
0001
0100
0000
0000
0010
0100
0000
0000
,
0002
0000
0000
0000
,
2000
0000
0000
3003
,
1000
0100
0010
0100
1000
0000
0001
0010
,
0100
0010
0001
0000
1000
0001
1001
0000
,
0100
0000
0101
0000
1000
0100
0000
1000
,
0000
0001
0000
0100
0010
0000
0110
0000
,
0001
0010
0001
1000
0001
0000
1000
0100
,
1000
0001
1000
0000
0010
0100
0010
0000
,
0100
0000
0101
0000
1000
0010
0000
0100
,
0000
0001
0000
0010
0100
0000
1100
0000
,
0001
0010
0100
1000
0100
0000
1000
0100
,
0010
0001
0100
0000
0010
1000
0001
0000
,
1000
1010
0001
0110
,
0001
0101
1000
1010
,
0001
0100
1000
0100
0001
0000
1000
0100
,
0001
0100
1000
0000
0010
0100
0110
0000
,
0001
1010
1000
1100
,
0010
0110
0010
0011
,
1000
0100
1000
0010
0100
0000
0001
0100
,
0010
0100
0001
0000
1000
0100
1000
0100
,
0010
0001
0100
0010
1000
0000
0001
1000
,
0010
0100
0001
0000
0100
0010
1000
0000
,
1001
0000
0000
0000
;

//---------------dance-single - S-STANDARD----------------
#NOTES:
     dance-single:
     DJ OMiY-SSP:
     Medium:
     6:
     0.475750,0.539338,0.186819,0.259922,0.000000,355.000000,23.000000,32.000000,0.000000,0.000000,0.000000,0.475750,0.539338,0.186819,0.259922,0.000000,355.000000,23.000000,32.000000,0.000000,0.000000,0.000000:
0000
0000
0000
0000
,
0000
0000
0000
0000
,
0000
0000
0000
0000
,
1000
0000
0001
0000
0100
0001
0000
1000
,
0000
0010
0000
0000
0100
0000
0110
0000
,
0001
0000
1000
0001
1000
0000
0001
0000
,
1000
0001
1000
0000
0010
0000
0110
0000
,
1000
0000
0100
0000
1000
0010
0000
1000
,
0000
0001
0000
0000
0010
0000
0011
0000
,
1000
0000
0010
0100
0010
0000
1000
0000
,
0010
0100
0010
0000
1000
0000
0011
0000
,
2000
0000
0000
3010
,
0102
0000
0000
1003
,
0200
0000
2300
0000
,
3020
0200
0030
0320
,
2030
0000
3200
0000
,
0320
0000
0000
0000
0001
0000
0031
1000
,
0020
0000
0100
0000
,
2030
0000
3002
0000
,
0023
0000
0031
1001
,
1000
0010
0100
0010
,
1000
0001
0010
0001
,
0100
0001
0100
0001
0000
0000
1000
0100
,
1000
0100
0000
0000
0010
0100
0010
0000
,
0001
1001
0100
0010
,
1000
1100
0010
0001
,
1000
0000
0001
0010
0001
0000
1000
0000
,
0001
0010
0001
0000
0100
0000
0110
0000
,
1000
0000
0001
0000
0010
0001
0000
0100
,
0000
0010
0000
0000
1000
0000
1001
0000
,
0001
0000
1000
0010
1000
0000
0001
0000
,
1000
0010
1000
0000
0001
0100
0001
0000
,
0010
0000
0100
0000
1000
0100
0000
1000
,
0000
0001
0000
0000
0100
0000
0101
0000
,
1000
0000
0001
1000
0001
0000
1000
0000
,
0001
1000
0001
0000
0010
0100
1000
0000
,
0002
1000
1000
1003
,
1001
0110
1001
0110
,
0001
1000
0010
0100
,
0010
1000
0001
0010
,
0001
1000
0100
0010
,
0001
1000
1100
1100
,
0010
0001
0100
0010
,
1000
0001
0010
0001
,
0100
1000
0100
0001
,
1000
0001
1000
0001
0000
0100
0001
1000
,
0100
1000
0100
0000
0010
0001
0010
0000
,
0001
0100
0001
0000
1000
0100
1000
0000
,
0010
0100
0010
0000
1000
0001
1000
0000
,
0001
0000
1000
0000
0010
0100
0010
0100
,
0010
1000
0001
0000
1000
0100
1000
0000
,
0001
0100
0001
0000
1000
0010
1000
0000
,
0001
0010
0001
0000
0100
0010
0100
0000
,
0010
0000
1000
0000
0001
1000
0001
1000
,
0002
0000
0000
0003
,
1000
0000
0100
1000
0002
0000
0203
0000
,
0310
2000
0000
3100
0020
0000
0032
0000
,
2003
0000
3010
1000
0200
0000
1000
0000
,
0320
0000
0032
0000
2003
0000
3100
1000
,
0020
0032
0023
2030
,
3001
1000
0000
0001
1000
0000
0001
1000
,
0020
0000
0000
0000
,
0200
0000
0000
0330
,
0001
1000
0001
1000
0001
0000
1000
0001
,
1000
0001
1000
0000
0010
0100
0010
0000
,
1000
0000
0001
0000
0100
0010
0000
0100
,
0000
0001
0000
0000
0010
0000
0110
0000
,
0100
0000
1000
0001
1000
0000
0100
0000
,
1000
0001
1000
0000
0100
0000
0110
0000
,
0010
0000
0001
0000
1000
0010
0000
0100
,
0000
0010
0000
0000
1000
0000
1100
0000
,
1000
0000
0001
0100
0001
0000
1000
0000
,
0001
0100
0001
0000
1000
0000
1100
0000
,
0001
0100
1000
0010
,
0001
0100
1000
0010
,
0001
0000
0100
0010
0100
0000
0001
0000
,
0100
0010
0100
0000
0001
1000
0001
0000
,
1000
0100
0001
0010
,
1000
0100
0001
0010
,
1000
0000
0001
0100
0001
0000
1000
0000
,
0001
0100
0001
0000
1000
0000
1001
0000
,
0001
0000
1000
0100
1000
0000
0001
0000
,
1000
0100
1000
0000
0001
1000
0001
0000
,
0110
0000
0000
0000
;

//---------------dance-single - S-LIGHT----------------
#NOTES:
     dance-single:
     DJ OMiY-LSP:
     Easy:
     4:
     0.379439,0.370795,0.064980,0.625437,0.000000,242.000000,8.000000,77.000000,0.000000,0.000000,0.000000,0.379439,0.370795,0.064980,0.625437,0.000000,242.000000,8.000000,77.000000,0.000000,0.000000,0.000000:
0000
0000
0000
0000
,
0000
0000
0000
0000
,
0000
0000
0000
0000
,
0001
0100
0001
1000
,
0200
0000
0010
0310
,
0002
2000
3003
2000
,
0200
3300
0010
0011
,
0001
0100
0001
1000
,
0200
0000
1000
1300
,
0020
0200
0330
0200
,
0002
0303
0001
1000
,
2002
0000
0000
0003
,
3010
0000
0000
0100
,
0100
0000
0001
0000
,
2000
0200
3000
0010
,
0320
0000
0032
0000
,
1003
0000
0000
1000
,
0020
0000
0000
0000
,
0130
0000
0001
0000
,
1000
0000
0001
1001
,
0100
0001
0100
0001
,
1000
0010
1000
0010
,
0200
0002
0303
0002
,
2000
3003
1000
1000
,
0010
0100
0010
1000
,
0100
1000
0001
0100
,
0002
0020
0033
0200
,
2000
3300
1000
0001
,
0100
0010
1000
0001
,
0020
0000
0001
0031
,
0200
0002
0303
0002
,
2000
3003
0010
1000
,
0001
0010
0001
0100
,
0020
0000
1000
1030
,
0002
2000
3003
2000
,
0020
3030
0100
0010
,
0200
0000
0000
0300
,
0010
0010
0010
1001
,
1000
0100
0010
0001
,
0010
0100
1000
0001
,
0100
0001
1000
0010
,
1000
0100
0010
0001
,
1001
1000
0010
0100
,
0010
1000
0001
0100
,
0001
1000
0010
0100
,
0001
0002
0003
1001
,
2000
0100
0000
0001
,
0000
0100
0000
3002
,
0000
1000
0000
0100
,
0000
1003
0001
1000
,
0002
0010
0000
1000
,
0000
0100
0000
2003
,
0000
0010
0000
3100
,
1000
0001
1000
0010
,
0200
0000
0000
0300
,
0010
0000
0100
0001
,
2000
0000
3200
0320
,
0032
0000
0013
0000
,
0001
0100
0010
1000
,
0020
0100
0230
0001
,
0302
0000
0000
1003
,
2002
0000
0000
0000
,
0000
0000
0000
3003
,
2000
0200
3300
0020
,
0002
0033
0001
1000
,
0010
0100
0001
1000
,
0200
0000
0010
0310
,
0002
0200
0303
0020
,
2000
3030
1000
0100
,
0010
0001
1000
0001
,
0020
0000
0100
0130
,
2000
0002
3003
0002
,
0020
0033
0100
1000
,
0010
0010
0010
0010
,
1000
1000
1000
1000
,
0002
2000
3003
2000
,
0020
3030
0100
0001
,
0100
0100
0100
0100
,
0001
0001
0001
0001
,
0020
0200
0330
2000
,
0200
3300
0010
0011
,
0002
0200
0303
0020
,
2000
3030
0001
0010
,
1000
0000
0000
0000
;

//---------------dance-single - BEGINNER----------------
#NOTES:
     dance-single:
     DJ OMiY-BEG:
     Beginner:
     2:
     0.177536,0.238803,0.008123,0.154329,0.000000,133.000000,1.000000,19.000000,0.000000,0.000000,0.000000,0.177536,0.238803,0.008123,0.154329,0.000000,133.000000,1.000000,19.000000,0.000000,0.000000,0.000000:
0000
0000
0000
0000
,
0000
0000
0000
0000
,
0000
0000
0000
0000
,
1000
0000
0000
0000
,
0001
0000
0000
0000
,
0010
0010
0000
0010
,
0020
0000
0030
0000
,
0001
0000
0000
0000
,
1000
0000
0000
0000
,
0100
0100
0000
0100
,
0200
0000
0300
0000
,
1000
0000
0000
0000
,
0001
0000
0000
0000
,
0100
0000
0000
0000
,
0100
0000
0000
0000
,
0010
0000
0010
0000
,
0010
0000
0000
0000
,
1000
0000
0000
0000
,
0001
0000
1000
0000
,
0001
0000
0000
0000
,
0000
0100
0000
0100
,
0000
0010
0000
0010
,
0000
1000
0000
1000
,
0000
0002
0000
0003
,
0000
0100
0000
0010
,
0000
0100
0000
0010
,
0010
0010
0000
0010
,
0020
0000
0030
0000
,
1000
0000
0000
0000
,
0001
0000
0000
0000
,
1000
1000
0000
1000
,
2000
0000
3000
0000
,
0001
0000
0000
0000
,
0010
0000
0000
0000
,
0001
0001
0000
0001
,
0002
0000
0003
0000
,
0100
0000
0000
0000
,
0100
0100
0100
0100
,
0100
0000
0000
0000
,
0010
0000
0000
0000
,
1000
0000
0000
0000
,
0001
0000
0000
0000
,
0010
0000
0000
0000
,
0100
0000
0000
0000
,
1000
0000
0000
0000
,
0001
0001
0000
0001
,
0001
0001
0000
0100
,
0000
0001
0000
0100
,
0000
0010
0000
1000
,
0000
0020
0000
0030
,
0000
1000
0000
0100
,
0000
1000
0000
0100
,
0000
1000
0000
0001
,
0001
0000
1000
0000
,
2002
0000
3003
0000
,
0100
0000
0010
0010
,
0010
0000
1000
1000
,
1000
0000
0001
0000
,
0100
0000
0020
0030
,
0010
0000
1000
0000
,
0002
0003
0000
2000
,
3000
0000
0000
0000
,
0000
0000
0000
0000
,
0100
0100
0000
0100
,
0200
0000
0300
0000
,
0010
0000
0000
0000
,
0001
0000
0000
0000
,
1000
1000
0000
1000
,
2000
0000
3000
0000
,
0010
0000
0000
0000
,
1000
0000
0000
0000
,
0100
0100
0000
0100
,
0200
0000
0300
0000
,
0010
0000
0010
0000
,
0010
0000
0010
0000
,
0001
0001
0000
0001
,
0002
0000
0003
0000
,
0100
0000
0100
0000
,
0100
0000
0100
0000
,
0010
0010
0000
0010
,
0020
0000
0030
0000
,
1000
1000
0000
1000
,
2000
0000
3000
0000
,
0002
0000
0000
0000
,
0003
0000
0000
0000
;

//---------------dance-double - D-HEAVY----------------
#NOTES:
     dance-double:
     DJ OMiY-HDP:
     Hard:
     8:
     0.583663,0.606755,0.341147,0.211186,0.036551,435.000000,42.000000,26.000000,0.000000,0.000000,0.000000,0.583663,0.606755,0.341147,0.211186,0.036551,435.000000,42.000000,26.000000,0.000000,0.000000,0.000000:
// measure 0
00000000
00000000
00000000
00000000
,  // measure 1
00000000
00000000
00000000
00000000
,  // measure 2
00000000
00000000
00000000
00000000
,  // measure 3
00000001
00000000
00000101
00000000
00001000
00000100
00000000
00001000
,  // measure 4
00000000
00000010
00000000
00000100
00000001
00000000
00001001
00000000
,  // measure 5
00001000
00000001
00000010
00000100
00001000
00000000
00010000
00100000
,  // measure 6
01000000
10000000
00010000
00000000
01000000
00010000
10000000
00000000
,  // measure 7
00010000
00000000
01100000
00000000
01000000
00010000
00000000
10000000
,  // measure 8
00000000
00010000
00000000
00100000
00001000
00000000
00010000
00000000
,  // measure 9
00001000
00100000
00010000
00100000
00001000
00000000
00010000
00000100
,  // measure 10
00001000
00000100
00010000
00000000
00000100
00000010
00000001
00000000
,  // measure 11
00000200
00000000
00000000
00000310
,  // measure 12
00002010
00000000
00000000
00000000
00000000
00003100
00001000
00000100
,  // measure 13
00020000
00000000
00032000
00000000
,  // measure 14
00103000
00120000
00000000
10030000
,  // measure 15
00200000
00000000
02300000
00000000
,  // measure 16
03020000
00000000
00000000
00000000
00000000
10030000
01000000
00100000
,  // measure 17
00002000
00000000
00023000
00000000
,  // measure 18
00030100
00000000
00001000
00000001
00002000
00000000
00000000
00000000
,  // measure 19
00003020
00000000
00000130
00000110
,  // measure 20
00001000
00000100
00001000
00000000
00000010
00010000
00001000
00000000
,  // measure 21
00100000
00010000
01000000
00000000
00100000
01000000
00001000
00000000
,  // measure 22
00010000
01000000
10000000
00000000
00100000
01000000
00010000
00000000
,  // measure 23
00100000
00001000
00010000
00000000
00000100
00000000
00000110
00000000
,  // measure 24
00000010
00000001
00000100
00000000
00000010
00001000
00000100
00000000
,  // measure 25
00010000
00000010
00001000
00000000
00000100
00000010
00000001
00000000
,  // measure 26
00001000
00000001
00000010
00000100
00001000
00000000
00010000
00100000
,  // measure 27
01000000
10000000
00010000
00000000
01000000
00001000
01000000
00000000
,  // measure 28
00010000
00000000
00110000
00000000
10000000
00010000
00000000
01000000
,  // measure 29
00000000
00001000
00000000
00010000
00000100
00000000
00001100
00000000
,  // measure 30
00000100
00000010
00000001
00000010
00000100
00000000
00000010
00000100
,  // measure 31
00001000
00000100
00000010
00000000
00000100
00010000
00001000
00000000
,  // measure 32
00010000
00000000
00011000
00000000
00001000
00100000
00000000
00010000
,  // measure 33
00000000
00100000
00000000
00001000
00010000
00000000
01000000
00000000
,  // measure 34
00100000
00010000
10000000
00010000
00100000
00000000
00001000
00010000
,  // measure 35
00001000
00000100
00000001
00000000
00000010
00000100
00001000
00000000
,  // measure 36
00000010
00000010
00000010
00000010
,  // measure 37
00000011
00001010
00011000
01010000
,  // measure 38
01000000
00010000
10000000
00100000
01000000
00100000
10000000
00000000
,  // measure 39
01000000
00100000
00001000
00010000
00001000
00000100
00000010
00000000
,  // measure 40
00000100
00000001
00000010
00000100
00001000
00000010
00000100
00000000
,  // measure 41
00000010
00010000
00001000
00010000
00000100
00000000
00000110
00000000
,  // measure 42
00000001
00000010
00000100
00001000
00000100
00010000
00001000
00000000
,  // measure 43
00100000
00010000
00001000
00010000
00100000
01000000
10000000
00000000
,  // measure 44
00100000
01000000
00001000
01000000
00010000
00100000
01000000
00000000
,  // measure 45
10000000
00010000
10000000
00010000
00000000
00100000
00001000
00010000
,  // measure 46
00001000
00010000
00000100
00010000
00000000
00000010
00000100
00000001
,  // measure 47
00000000
00000010
00000100
00001000
00000000
00000100
00001000
00010000
,  // measure 48
00000000
00100000
00010000
10000000
00000000
00100000
01000000
00001000
,  // measure 49
00000000
00010000
01000000
10000000
00100000
01000000
00010000
00100000
,  // measure 50
00001000
00100000
00010000
00100000
00000000
00001000
00010000
00000100
,  // measure 51
00000000
00001000
00000010
00000001
00000000
00000001
00000010
00001000
,  // measure 52
00000000
00000100
00010000
00001000
00000000
00100000
00001000
00010000
,  // measure 53
00001000
00000000
00101000
00000000
00110000
00010000
10010000
00000000
,  // measure 54
02200000
00000000
00300000
03010000
,  // measure 55
10010000
00000000
00000000
00000000
10000000
00010000
01000000
00010000
02000000
00000000
00000000
00000000
03200000
00000000
00000000
00000000
,  // measure 56
00310000
00012000
00000000
00003100
00000002
00000000
00000023
00000000
,  // measure 57
00002030
00000000
00000000
00000000
00003010
00000001
00000010
00000001
00000200
00000000
00000000
00000000
00000310
00000000
00000000
00000000
,  // measure 58
00002000
00000000
00003200
00000000
00020300
00000000
00031000
00011000
,  // measure 59
00001000
00010000
00100000
01000000
10000000
01000000
00100000
00010000
,  // measure 60
00001000
00000100
00001000
00000100
00000000
00000000
00000010
00000100
00000010
00000100
00000000
00000000
00000001
00001000
00000000
00000000
,  // measure 61
00000210
00000000
00000000
00000000
,  // measure 62
00000002
00000000
00000000
00000303
,  // measure 63
00001000
00000001
00000010
00000100
00001000
00000000
00010000
00100000
,  // measure 64
01000000
10000000
00010000
00000000
00100000
00001000
00100000
00000000
,  // measure 65
00010000
00000000
01010000
00000000
10000000
00100000
00000000
00010000
,  // measure 66
00000000
00001000
00000000
00000100
00000001
00000000
00001001
00000000
,  // measure 67
00000001
00001000
00000100
00010000
00001000
00000000
00010000
00001000
,  // measure 68
00100000
00010000
10000000
00000000
00100000
01000000
00100000
00000000
,  // measure 69
10000000
00000000
11000000
00000000
00010000
01000000
00000000
00010000
,  // measure 70
00000000
10000000
00000000
01000000
00100000
00000000
00010000
00000000
,  // measure 71
10000000
01000000
10000000
00010000
00100000
00000000
00001000
00010000
,  // measure 72
00000010
00001000
00000001
00000000
00000010
00000001
00001000
00000000
,  // measure 73
00000110
00000101
00001100
00000110
,  // measure 74
00001100
00011000
00110000
10100000
,  // measure 75
00010000
00100000
10000000
00100000
00010000
00000000
00001000
00000100
,  // measure 76
00000001
00000100
00001000
00000000
00000010
00000100
00000001
00000000
,  // measure 77
00001001
00001100
00011000
00110000
,  // measure 78
01100000
11000000
01010000
00011000
,  // measure 79
00001000
00000100
00000001
00000100
00001000
00000000
00010000
00100000
,  // measure 80
10000000
00100000
00010000
00000000
00001000
00100000
00010000
10000000
,  // measure 81
00010000
10000000
01000000
00100000
00010000
00000000
00001000
00000100
,  // measure 82
00000010
00000001
00001000
00000000
00000001
00000010
00000100
00000000
,  // measure 83
00001000
00000000
00000000
00000000
;

//---------------dance-double - D-STANDARD----------------
#NOTES:
     dance-double:
     DJ OMiY-SDP:
     Medium:
     6:
     0.447901,0.471920,0.162451,0.203064,0.000000,341.000000,20.000000,25.000000,0.000000,0.000000,0.000000,0.447901,0.471920,0.162451,0.203064,0.000000,341.000000,20.000000,25.000000,0.000000,0.000000,0.000000:
// measure 0
00000000
00000000
00000000
00000000
,  // measure 1
00000000
00000000
00000000
00000000
,  // measure 2
00000000
00000000
00000000
00000000
,  // measure 3
10000000
00000000
01000000
00000000
10000000
00010000
00000000
00100000
,  // measure 4
00000000
00001000
00000000
00000000
00010000
00000000
00011000
00000000
,  // measure 5
00001000
00000000
00000100
00000010
00000100
00000000
00001000
00000000
,  // measure 6
00000100
00000010
00000100
00000000
00000001
00000000
00001000
00000000
,  // measure 7
00000010
00000000
00001001
00000000
00000001
00000100
00000000
00000010
,  // measure 8
00000000
00000100
00000000
00000000
00000001
00000000
00001000
00000000
,  // measure 9
00000100
00000000
00010000
00001000
00010000
00000000
00000100
00000000
,  // measure 10
00010000
00001000
00010000
00000000
01000000
00000000
10000000
00000000
,  // measure 11
02000000
00000000
00000000
03000000
,  // measure 12
00200000
00000000
00000000
00000000
00000000
00000000
00301000
00100000
,  // measure 13
00002000
00000000
00023000
00000000
,  // measure 14
00030100
00001200
00000000
00001300
,  // measure 15
00000002
00000000
00000023
00000000
,  // measure 16
00000230
00000000
00000000
00010300
,  // measure 17
00002000
00000000
00000000
00000000
,  // measure 18
00203000
00000000
00320000
00000000
,  // measure 19
02030000
00000000
03100000
10010000
,  // measure 20
10000000
01000000
10000000
00010000
,  // measure 21
00100000
00001000
00010000
00001000
,  // measure 22
00000010
00000001
00000100
00001000
,  // measure 23
00000100
00000001
00001000
00001100
,  // measure 24
00010100
00010000
00001000
00100000
,  // measure 25
00010000
10000000
01000000
00100000
,  // measure 26
00010000
00000000
01000000
00100000
01000000
00000000
00010000
00000000
,  // measure 27
01000000
00100000
01000000
00000000
00010000
00000000
10010000
00000000
,  // measure 28
01000000
00000000
00001000
00000000
00100000
00001000
00000000
00010000
,  // measure 29
00000000
00000100
00000000
00000000
00000010
00000000
00000010
00000000
,  // measure 30
00000001
00000000
00001000
00000100
00001000
00000000
00000001
00000000
,  // measure 31
00001000
00000100
00001000
00000000
00010000
00000000
00100000
00000000
,  // measure 32
00010000
00000000
10010000
00000000
00010000
01000000
00000000
00100000
,  // measure 33
00000000
01000000
00000000
00000000
00010000
00000000
10000000
00000000
,  // measure 34
01000000
00000000
00100000
00010000
00100000
00000000
01000000
00000000
,  // measure 35
00100000
00010000
00100000
00000000
00001000
00000000
00011000
00000000
,  // measure 36
00001000
00001000
00001000
00001000
,  // measure 37
00010000
00001000
00010000
00001000
,  // measure 38
00010000
00100000
01000000
00010000
,  // measure 39
10000000
01000000
00100000
00001000
,  // measure 40
00010000
00000100
00000010
00000001
,  // measure 41
00001000
00000010
00000100
00000110
,  // measure 42
00001001
00001000
00000100
00001000
,  // measure 43
00000010
00000100
00001000
00010000
,  // measure 44
00100000
01000000
00010000
10000000
,  // measure 45
00100000
01000000
00100000
01000000
00000000
00010000
01000000
00010000
,  // measure 46
10000000
01000000
10000000
00000000
00100000
01000000
00100000
00000000
,  // measure 47
01000000
00010000
01000000
00000000
00001000
00010000
00001000
00000000
,  // measure 48
00010000
00000100
00010000
00000000
00000100
00000010
00000100
00000000
,  // measure 49
00000010
00000000
00000001
00000000
00001000
00000100
00000010
00000001
,  // measure 50
00000100
00000010
00000100
00000000
00000010
00001000
00000010
00000000
,  // measure 51
00001000
00000100
00001000
00000000
00000100
00010000
00000100
00000000
,  // measure 52
00010000
00001000
00010000
00000000
00001000
00100000
00001000
00000000
,  // measure 53
00100000
00010000
01010000
10100000
,  // measure 54
10020000
00000000
00000000
01000000
,  // measure 55
20030000
00000000
00000000
31000000
20000000
00000000
30020000
00000000
,  // measure 56
00130000
00001000
00000000
00001000
00020000
00000000
00030200
00000000
,  // measure 57
00000320
00000000
00000000
00000031
00000200
00000000
00000010
00000000
,  // measure 58
00000320
00000000
00002030
00000000
00003200
00000000
00010300
00001000
,  // measure 59
00100000
00010000
00100000
00010000
01000000
00000000
00100000
00000000
,  // measure 60
10000000
01000000
00000000
00100000
00010000
00000000
00001000
00000000
,  // measure 61
00000200
00000000
00000000
00000000
,  // measure 62
00000020
00000000
00000000
00000330
,  // measure 63
00000001
00000000
00001000
00000010
00001000
00000000
00000001
00000000
,  // measure 64
00001000
00000010
00001000
00000000
00000100
00000000
00010100
00000000
,  // measure 65
00010000
00000000
00011000
00000000
00001000
00100000
00000000
00010000
,  // measure 66
00000000
00100000
00000000
00000000
01000000
00000000
01000000
00000000
,  // measure 67
10000000
00000000
00010000
10000000
00010000
00000000
10000000
00000000
,  // measure 68
00010000
10000000
00010000
00000000
01000000
00000000
00010000
00000000
,  // measure 69
00100000
00000000
00101000
00000000
00010000
00001000
00000000
00000100
,  // measure 70
00000000
00000001
00000000
00000000
00000010
00000000
00000010
00000000
,  // measure 71
00000100
00000000
00001000
00000001
00001000
00000000
00000100
00000000
,  // measure 72
00001000
00000001
00001000
00000000
00000010
00000000
00000110
00000000
,  // measure 73
00000001
00000010
00001000
00000100
,  // measure 74
00000001
00000010
00001000
00000100
,  // measure 75
00000001
00000000
00001000
00000100
00001000
00000000
00000100
00000000
,  // measure 76
00001000
00000100
00001000
00000000
00010000
00000000
00100000
00000000
,  // measure 77
00010000
00100000
10000000
01000000
,  // measure 78
00010000
00100000
10000000
01000000
,  // measure 79
00010000
00000000
10000000
01000000
10000000
00000000
00010000
00000000
,  // measure 80
10000000
01000000
10000000
00000000
00010000
00000000
01010000
00000000
,  // measure 81
01000000
00000000
00001000
00010000
00001000
00000000
01000000
00000000
,  // measure 82
00001000
00010000
00001000
00000000
00100000
00001000
00100000
00000000
,  // measure 83
00110000
00000000
00000000
00000000
;

//---------------dance-double - D-LIGHT----------------
#NOTES:
     dance-double:
     DJ OMiY-LDP:
     Easy:
     4:
     0.336506,0.337086,0.008123,0.495476,0.000000,228.000000,1.000000,61.000000,0.000000,0.000000,0.000000,0.336506,0.337086,0.008123,0.495476,0.000000,228.000000,1.000000,61.000000,0.000000,0.000000,0.000000:
// measure 0
00000000
00000000
00000000
00000000
,  // measure 1
00000000
00000000
00000000
00000000
,  // measure 2
00000000
00000000
00000000
00000000
,  // measure 3
00010000
00010000
00001000
00100000
,  // measure 4
00020000
00000000
10000000
10030000
,  // measure 5
00020000
00200000
00330000
02000000
,  // measure 6
20000000
33000000
10000000
00010000
,  // measure 7
00100000
00001000
00100000
00001000
,  // measure 8
00020000
00000000
00000100
00030100
,  // measure 9
00002000
00000200
00003300
00000020
,  // measure 10
00000002
00000033
00000001
00000010
,  // measure 11
00000200
00000000
00000000
00000300
,  // measure 12
00001000
00000000
00000000
00000100
,  // measure 13
00010000
00000000
00010000
00000000
,  // measure 14
00001000
01000000
00000000
00000000
,  // measure 15
00010000
00000000
10000000
00000000
,  // measure 16
00010000
00000000
00000000
00100000
,  // measure 17
01000000
00000000
00000000
00000000
,  // measure 18
10000000
00000000
00010000
00000000
,  // measure 19
00100000
00000000
00001000
00010000
,  // measure 20
00001000
00000100
00000000
00000001
,  // measure 21
00000000
00000001
00000000
00000010
,  // measure 22
00000001
00000100
00000000
00000010
,  // measure 23
00001000
00000000
00000100
00001000
,  // measure 24
00000100
00010000
00000000
00001000
,  // measure 25
00000000
00100000
00000000
01000000
,  // measure 26
20000000
00200000
30300000
02000000
,  // measure 27
00020000
03030000
00100000
00001000
,  // measure 28
00010000
00001000
00010000
00001000
,  // measure 29
00200000
00000000
00010000
00310000
,  // measure 30
00020000
00200000
00330000
00200000
,  // measure 31
00002000
00303000
00010000
00000100
,  // measure 32
00001000
00000010
00000100
00000001
,  // measure 33
00000020
00000000
00000100
00000130
,  // measure 34
00000020
00000002
00000033
00002000
,  // measure 35
00000200
00003300
00000100
00010000
,  // measure 36
00002000
00000000
00000000
00003000
,  // measure 37
00010000
00010000
00010000
00010000
,  // measure 38
00001000
00100000
00001000
00000000
,  // measure 39
00010000
01000000
10000000
00000000
,  // measure 40
00100000
01000000
00100000
00000000
,  // measure 41
01000000
00001000
00022000
00033000
,  // measure 42
00001000
00000100
00000010
00000000
,  // measure 43
00000100
00000001
00001000
00000000
,  // measure 44
00000010
00001000
00000100
00000000
,  // measure 45
00010000
00010000
00000000
00000100
,  // measure 46
00002000
00000100
00000000
00000001
,  // measure 47
00000000
00000010
00000000
00003200
,  // measure 48
00000000
00001000
00000000
00010000
,  // measure 49
00000000
00010300
00001000
00100000
,  // measure 50
00020000
10000000
00000000
01000000
,  // measure 51
00000000
00100000
00000000
20030000
,  // measure 52
00000000
00100000
00000000
30010000
,  // measure 53
10000000
00010000
00100000
01000000
,  // measure 54
10000000
00000000
00000000
00100000
,  // measure 55
01000000
00000000
00010000
00100000
,  // measure 56
00001000
00000000
00010000
00010000
,  // measure 57
00000100
00000000
00000010
00000000
,  // measure 58
00000001
00000100
00000001
00001000
,  // measure 59
00000010
00000000
00000100
00000000
,  // measure 60
00000020
00000000
00002030
00000100
,  // measure 61
00003200
00000000
00000000
00000000
,  // measure 62
00000000
00000000
00000300
00000000
,  // measure 63
00002000
00000200
00003300
00000200
,  // measure 64
00020000
00030300
00010000
00001000
,  // measure 65
00100000
00010000
10000000
00100000
,  // measure 66
02000000
00000000
00010000
03010000
,  // measure 67
20000000
02000000
33000000
00200000
,  // measure 68
00020000
00330000
00100000
00001000
,  // measure 69
00010000
00000010
00000100
00000010
,  // measure 70
00000200
00000000
00000001
00000301
,  // measure 71
00000002
00000020
00000033
00000200
,  // measure 72
00002000
00003300
00000100
00010000
,  // measure 73
00001000
00001000
00001000
00001000
,  // measure 74
00000100
00000100
00000100
00000100
,  // measure 75
00000002
00000200
00000303
00000020
,  // measure 76
00002000
00003030
00001000
00010000
,  // measure 77
00100000
00100000
00100000
00100000
,  // measure 78
01000000
01000000
01000000
01000000
,  // measure 79
20000000
00020000
30030000
00020000
,  // measure 80
02000000
03030000
01000000
00010000
,  // measure 81
00002000
00000020
00003030
00000020
,  // measure 82
00000200
00000330
00000010
00001000
,  // measure 83
00000001
00000000
00000000
00000000
;
