#VERSION:0.81;
#TITLE:アンインストール;
#SUBTITLE:;
#ARTIST:YURiE;
#TITLETRANSLIT:Uninstall;
#SUBTITLETRANSLIT:;
#ARTISTTRANSLIT:;
#GENRE:Trance;
#ORIGIN:;
#CREDIT:;
#BANNER:Uninstall-bn.png;
#BACKGROUND:Uninstall-bg.png;
#PREVIEWVID:;
#JACKET:Uninstall-jk.png;
#CDIMAGE:;
#DISCIMAGE:;
#LYRICSPATH:;
#CDTITLE:PROJECT GOLDENROD-cdtitle.png;
#MUSIC:Uninstall.mp3;
#OFFSET:-1.874000;
#SAMPLESTART:76.445427;
#SAMPLELENGTH:13.714287;
#SELECTABLE:YES;
#BPMS:0.000=140.000,
104.000=70.000,
136.000=140.000;
#STOPS:;
#DELAYS:;
#WARPS:;
#TIMESIGNATURES:0.000=4=4;
#TICKCOUNTS:0.000=4;
#COMBOS:0.000=1;
#SPEEDS:0.000=1.000=0.000=0;
#SCROLLS:0.000=1.000;
#FAKES:;
#LABELS:0.000=Song Start;
#BGCHANGES:;
#KEYSOUNDS:;
#ATTACKS:
;

//---------------dance-single - ----------------
#NOTEDATA:;
#CHARTNAME:;
#STEPSTYPE:dance-single;
#DESCRIPTION:;
#CHARTSTYLE:;
#DIFFICULTY:Hard;
#METER:7;
#RADARVALUES:0.449971,0.452237,0.261822,0.277690,0.055538,329.000000,33.000000,35.000000,0.000000,0.000000,0.000000,0.000000,0.000000,0.449971,0.452237,0.261822,0.277690,0.055538,329.000000,33.000000,35.000000,0.000000,0.000000,0.000000,0.000000,0.000000;
#CREDIT:DJ OMiY;
#NOTES:
0000
0000
0000
0000
,
0000
0000
0000
0000
,
0000
0000
0000
0000
,
0000
0000
0000
0000
,
1000
0101
2100
3010
,
0100
1100
0102
0013
,
0100
1000
0001
0000
0100
0001
1000
0000
,
0010
0000
0000
0010
0000
0000
1000
0000
0000
1000
0000
0000
0001
0000
0000
0000
,
0110
1000
0001
0000
0010
0001
1000
0000
,
0010
0100
0010
0100
0001
1000
0100
0000
,
0010
0001
0100
0000
0100
0000
0010
1000
,
0100
0010
0100
0000
0100
0000
2000
0000
,
3001
0100
0001
1000
0100
0010
0100
0000
,
1000
0010
1000
0000
0001
0100
0010
0100
,
0001
1000
0001
0020
0000
0130
1000
0010
,
0100
0010
1000
0100
0010
0001
1000
0100
,
2000
0000
3010
0100
0010
1000
0001
0010
,
0002
0000
0103
0010
1000
0100
1000
0000
,
0010
0100
0010
0100
0001
0100
0001
0100
,
0010
1000
0010
1000
0100
1000
0100
0000
,
1200
0000
0310
0001
0100
0010
0100
0010
,
2000
0000
3100
0010
0001
0010
0001
1000
,
0010
0100
0010
0100
0010
1000
0010
1000
,
0001
0010
0100
2000
0001
0000
3010
0000
,
1001
0000
0001
0011
0000
0000
0110
0000
,
1000
0100
1100
0000
0020
0000
0230
0000
,
0301
0000
0000
1000
0000
0000
0010
0000
0100
0000
0000
0000
0001
0000
0010
0000
,
0100
0000
1000
0100
0000
0000
1000
0000
0001
0000
0010
0001
0000
0000
0100
0000
,
0010
0000
1000
0100
0001
0000
0100
1000
,
0010
0000
0100
0001
0000
0000
1000
0000
0001
0000
0010
0000
0100
0000
1000
0000
,
2010
0000
0000
3001
0000
0000
0100
0000
0020
0000
0000
0000
1030
0000
0010
0000
,
0100
0000
0001
0200
0000
0000
0310
0000
1000
0000
0100
0020
0000
0000
0031
0000
,
1000
0000
0010
0100
0002
0000
0013
0100
,
1000
0000
0001
0200
0000
0000
0310
0000
1000
0000
0010
0000
0100
0000
0100
0000
,
2002
0000
0003
0000
,
0200
3300
0001
0100
,
1010
0000
1000
0200
0010
0000
1300
0000
,
0101
0000
0010
0000
1000
0001
0100
0000
,
0010
1000
0100
0010
0001
1000
0100
0000
,
1000
0001
0010
0100
1000
0001
0100
0010
,
0110
0000
1000
0001
0100
0001
0020
0000
,
0130
1001
0010
2000
,
3200
0000
0310
0002
0000
0103
0010
0200
,
0000
0301
1000
0100
0010
0100
1000
0001
,
0102
0000
1003
0200
1000
0000
0310
0000
,
0001
0101
1000
0010
,
0100
0010
1000
0100
0010
0001
0100
0000
,
0010
0100
0001
0010
0100
1000
0010
0100
,
0110
1000
0200
0302
,
0203
0000
1000
0000
0310
0100
1000
0001
,
0200
0000
0310
0100
0001
1000
0001
0010
,
0100
1200
0320
0032
,
0103
0110
1010
0101
,
1000
0011
1100
0101
,
1000
0010
0100
0000
0001
0010
0100
0000
,
1000
0000
0000
0001
0000
0000
0010
0000
0000
0001
0000
0000
1000
0000
0000
0000
,
0010
0110
1001
0101
,
0010
1100
0101
1010
,
0001
0100
0010
0000
1000
0100
0010
0000
,
0001
0000
0000
0010
0000
0000
0100
0000
0000
1000
0000
0000
0001
0000
0000
0000
,
0110
0000
0000
0000
;

//---------------dance-single - ----------------
#NOTEDATA:;
#CHARTNAME:;
#STEPSTYPE:dance-single;
#DESCRIPTION:;
#CHARTSTYLE:;
#DIFFICULTY:Challenge;
#METER:9;
#RADARVALUES:0.561046,0.523643,0.230086,0.103142,0.182482,453.000000,29.000000,13.000000,0.000000,0.000000,0.000000,0.000000,0.000000,0.561046,0.523643,0.230086,0.103142,0.182482,453.000000,29.000000,13.000000,0.000000,0.000000,0.000000,0.000000,0.000000;
#CREDIT:DJ OMiY;
#NOTES:
0000
0000
0000
0000
,
0000
0000
0000
0000
,
0000
0000
0000
0000
,
0000
0000
0000
0000
,
0101
1000
0010
1000
0100
0010
0001
1000
,
0010
0100
0010
1000
0100
0010
0001
0100
,
0001
1000
0010
0001
0010
1000
0001
0100
,
0010
1000
0000
1000
0001
0000
0001
0100
0000
0100
0010
0000
0100
0000
0001
0000
,
1001
0100
1000
0100
0010
0001
0100
0010
,
0100
0001
0010
0100
1000
0001
0100
0001
,
0010
0100
1100
0000
1100
0000
1100
0001
,
0010
0100
1100
0000
1100
0000
0011
0100
,
1010
0100
0001
0010
0100
0010
0001
1000
,
0010
0100
0001
1000
0100
0001
0100
1000
,
0001
0010
0100
0010
0001
1000
0010
1000
,
0100
1000
0001
0010
0100
0010
0001
0100
,
0101
0001
1000
0100
1000
0010
0100
0001
,
1000
0100
0010
0100
1000
0001
0100
1000
,
0100
0001
0100
0001
1000
0010
1000
0010
,
0100
0001
0010
0100
1000
0001
1000
0100
,
1100
1000
0010
0100
0001
0010
0100
0010
,
1000
0010
0001
0100
0010
1000
0001
1000
,
0100
1000
0100
0010
0001
0010
0001
0100
,
0010
0100
1000
0100
0001
1000
0100
0010
,
0011
0000
0010
0110
0100
0000
1100
0000
,
1000
1010
0101
0000
2000
0000
3002
0000
,
0103
0000
0100
0001
1000
0000
1000
0000
0100
0000
0000
0000
0010
0000
0100
0000
,
1000
0001
1000
0010
0100
0000
0010
0100
0001
0010
0100
1000
0010
0000
0010
0000
,
0100
0000
0100
0001
0100
0001
1000
0000
0100
0000
0010
0000
0010
0000
0100
0000
,
1000
0000
0010
0100
0000
0010
1000
0001
0000
0010
0001
0010
0001
1000
0001
0000
,
0011
0000
0010
0100
1000
0000
1000
0000
0001
0000
0100
0000
0010
0000
1000
0000
,
0100
1000
0001
0100
0010
0000
0100
0000
0010
1000
0100
0010
0001
0000
0001
0000
,
0100
0000
0110
1100
0101
0000
0010
0001
,
0100
0000
0010
1000
0000
0100
0010
0001
0010
0000
0002
0000
2003
0000
3010
0000
,
0220
0000
0000
0000
,
0000
0330
0010
1001
,
0010
0000
1000
0001
0100
0000
0010
0000
1000
0000
0100
0000
0010
0000
0001
0000
,
0100
0000
0001
1000
0010
0000
0100
0000
0001
0000
0010
0000
0100
0000
1000
0000
,
0010
0000
0100
0001
1000
0000
0002
0000
0100
0000
0000
0000
1003
0000
0100
0000
,
0010
0000
0100
1000
0001
0000
0020
0000
0100
0000
0000
0000
0031
0000
0100
0000
,
0110
0000
0010
1000
0001
0000
1000
0000
0100
0000
1000
0000
0001
0000
0010
0000
,
0100
0000
1000
0100
0010
0000
0100
0000
1000
0000
0001
0000
0010
0000
0100
0000
,
1000
0000
0001
0100
0010
0000
1000
0000
0100
0000
0001
0000
0100
0000
1000
0000
,
0001
0100
0100
0001
0001
1000
1000
0100
,
0110
0000
0010
0001
1000
0000
0010
0000
0100
0000
0001
0000
1000
0000
0100
0000
,
1000
0000
0001
0010
0100
0000
0010
0000
0001
0000
1000
0000
0010
0000
0100
0000
,
0001
0000
0010
0001
0100
0000
0002
0000
1000
0000
0000
0000
0103
0000
0001
0000
,
0100
0000
0010
1000
0001
0000
0020
0000
0100
0000
0000
0000
0031
0000
0100
0000
,
0101
0001
1000
0010
0100
0001
1000
0100
,
0010
0100
1000
0100
0001
0100
1000
0010
,
0100
0000
0001
0010
0100
0000
1000
0000
0100
0000
1000
0000
0010
0000
0100
0000
,
0101
0000
2010
0000
3002
0000
0023
0100
,
0130
0010
0001
1000
0001
0100
0001
1000
,
1000
0010
1000
0100
1000
0001
1000
0010
,
0100
0001
0010
0100
1000
0001
0100
0001
,
0010
0001
0000
0001
0100
0000
0100
0010
0000
0010
1000
0000
0100
0000
1000
0000
,
1001
0010
0001
0100
0001
0010
0001
1000
,
1000
0010
1000
0100
1000
0001
1000
0010
,
0100
0001
0010
0100
1000
0100
0010
1000
,
0010
0001
0000
0001
1000
0000
1000
0100
0000
0100
0010
0000
0001
0000
0100
0000
,
1001
0000
0000
0000
;

//---------------dance-single - ----------------
#NOTEDATA:;
#CHARTNAME:;
#STEPSTYPE:dance-single;
#DESCRIPTION:;
#CHARTSTYLE:;
#DIFFICULTY:Medium;
#METER:5;
#RADARVALUES:0.333228,0.428435,0.031736,0.388765,0.023802,241.000000,4.000000,49.000000,0.000000,0.000000,0.000000,0.000000,0.000000,0.333228,0.428435,0.031736,0.388765,0.023802,241.000000,4.000000,49.000000,0.000000,0.000000,0.000000,0.000000,0.000000;
#CREDIT:DJ OMiY;
#NOTES:
0000
0000
0000
0000
,
0000
0000
0000
0000
,
0000
0000
0000
0000
,
0000
0000
0000
0000
,
0010
2000
3002
0023
,
0030
0002
0203
2300
,
3100
0000
0010
0000
,
0200
0000
0000
0302
0000
0000
2003
0000
,
3100
1000
0010
0100
,
0001
1000
0001
0010
,
0100
1000
0100
0000
0100
0000
0000
0000
,
0010
0001
0010
0000
0010
0000
0002
0000
,
1003
0010
0100
0001
,
1000
0001
0010
0100
,
1000
0001
0100
0001
0000
1000
0000
0010
,
1000
0000
0100
0000
0010
0000
0001
1000
,
0001
0100
0010
1000
,
0100
0001
0100
1000
,
0010
0100
0010
0100
,
0001
0100
0001
0000
1000
0100
1000
0000
,
1001
0010
0001
1000
,
0100
0000
1000
0010
0000
0100
0001
0000
,
1000
0001
0100
0000
0010
1000
0001
0000
,
0010
0000
0100
1000
0001
0000
0100
0000
,
0002
0000
0000
0023
0000
0000
0230
0000
,
1300
0010
0100
0000
0001
0000
0001
0000
,
1000
0000
0000
0001
0000
0000
1000
0000
1000
0000
0000
0000
0010
0000
0000
0000
,
0200
0000
0000
0302
0000
0000
2003
0000
3200
0000
0000
2300
0000
0000
3020
0000
,
0130
0000
0001
0010
1000
0000
0010
0001
,
0100
0000
0010
0000
1000
0100
0100
0010
,
1001
0000
0000
0100
0000
0000
0001
0000
0010
0000
0000
0000
0100
0000
0000
0000
,
2000
0000
0000
3020
0000
0000
0230
0000
0302
0000
0000
0023
0000
0000
0230
0000
,
1300
0000
0001
0100
1000
0000
0100
0010
,
0100
0000
0001
0000
1000
0001
0001
0010
,
0200
0000
0000
0000
,
0300
0000
1000
0001
,
1001
0000
0000
0200
0000
0000
0310
1000
,
0001
0000
0100
0001
,
1000
0000
0010
0100
0000
0100
0010
0000
,
1000
0000
0010
0100
0000
0100
0001
0000
,
0010
0000
0100
0000
1000
0001
0100
0000
,
0010
1000
0001
0010
,
0001
0000
0100
0001
0000
1000
0000
0100
,
0000
1000
0010
0000
0100
0000
0010
0000
,
1001
0000
0000
0020
0000
0000
1030
0001
,
0100
0000
0010
1000
,
0100
0000
0010
0001
0000
0001
0010
0000
,
0001
0000
1000
0100
0000
0100
1000
0000
,
0010
0000
0100
0001
,
1000
0000
0010
1000
,
0100
0000
0010
0001
0000
1000
0010
0000
,
0100
0020
2030
3002
,
0013
0002
0203
0320
,
1030
0002
2003
3200
,
0310
0100
1000
0001
,
0200
0000
0000
0320
0000
0000
2030
0000
,
3100
2000
3020
0032
,
0013
0200
0320
2030
,
3001
0010
0100
1000
,
0002
0000
0000
2003
0000
0000
3020
0000
,
0130
0000
0000
0000
;

//---------------dance-single - ----------------
#NOTEDATA:;
#CHARTNAME:;
#STEPSTYPE:dance-single;
#DESCRIPTION:;
#CHARTSTYLE:;
#DIFFICULTY:Easy;
#METER:3;
#RADARVALUES:0.173414,0.190416,0.039670,0.055538,0.000000,141.000000,5.000000,7.000000,0.000000,0.000000,0.000000,0.000000,0.000000,0.173414,0.190416,0.039670,0.055538,0.000000,141.000000,5.000000,7.000000,0.000000,0.000000,0.000000,0.000000,0.000000;
#CREDIT:DJ OMiY;
#NOTES:
0000
0000
0000
0000
,
0000
0000
0000
0000
,
0000
0000
0000
0000
,
0000
0000
0000
0000
,
0000
0010
0100
0001
,
0000
0010
0100
1000
,
0000
0000
0000
0000
,
0002
0000
0000
1003
,
0010
0000
0100
0000
,
0001
0000
1000
0000
,
0010
1000
0001
0000
,
0010
0001
1000
1000
,
0000
0000
0100
0000
,
0010
0100
1000
0000
,
0010
0000
0100
0000
,
0001
0010
0001
0010
,
0100
0000
1000
0000
,
0001
0000
0100
0000
,
0001
0010
0100
0000
,
0010
0100
1000
0000
,
1001
0000
0010
0000
,
1000
0000
0001
0000
,
0100
0001
0010
0000
,
0100
1000
0010
0000
,
0200
0000
0301
1000
,
0000
0110
0002
0000
,
1003
0000
0000
0010
0010
0000
0000
0000
,
0100
0000
0001
0000
,
1000
0000
0000
0100
0100
0000
0000
0000
,
1000
0000
0001
1000
,
0010
0000
0000
1000
1000
0000
0000
0000
,
0001
0000
1000
0000
,
0100
0000
0000
1000
1000
0000
0000
0000
,
0010
0000
0100
0001
,
2002
0000
0000
0000
,
3003
0000
0010
0000
,
0100
0000
0001
0001
,
1000
0000
0010
0000
,
1000
0100
0010
0000
,
0100
0010
0001
0000
,
0100
0000
0010
0000
,
1001
0000
0100
0001
,
1000
0000
0010
0000
,
1000
0100
0010
0000
,
0110
0000
0010
1000
,
0001
0000
0100
0000
,
0001
1000
0010
0000
,
0100
0001
1000
0000
,
0100
0000
1000
0100
,
0010
0000
0001
0000
,
1000
0000
0001
0000
,
0100
0010
0100
0010
,
1000
0001
0100
0001
,
0000
1000
0100
1000
,
0000
0000
0000
0000
,
0020
0000
0000
1030
,
0001
0100
0010
0100
,
0000
0001
1000
0001
,
0000
0000
0100
0000
,
0002
0000
0000
0103
,
0001
0000
0000
0000
;

//---------------dance-single - ----------------
#NOTEDATA:;
#CHARTNAME:;
#STEPSTYPE:dance-single;
#DESCRIPTION:;
#CHARTSTYLE:;
#DIFFICULTY:Beginner;
#METER:2;
#RADARVALUES:0.121277,0.142812,0.015868,0.079340,0.000000,95.000000,2.000000,10.000000,0.000000,0.000000,0.000000,0.000000,0.000000,0.121277,0.142812,0.015868,0.079340,0.000000,95.000000,2.000000,10.000000,0.000000,0.000000,0.000000,0.000000,0.000000;
#CREDIT:DJ OMiY;
#NOTES:
0000
0000
0000
0000
,
0000
0000
0000
0000
,
0000
0000
0000
0000
,
0000
0000
0000
0000
,
0000
0000
0100
0000
,
0000
0000
0001
0000
,
0000
0000
1000
0000
,
0200
0000
0300
0000
,
0010
0000
0000
0000
,
0001
0000
0000
0000
,
0100
0000
0100
0000
,
0010
0000
0010
0000
,
1000
0000
0000
0000
,
0001
0000
0000
0000
,
0100
0000
0000
0000
,
0010
0000
1000
0000
,
1001
0000
0000
0000
,
0010
0000
0000
0000
,
0001
0000
0100
0000
,
0001
0000
0100
0000
,
0010
0000
0000
0000
,
1000
0000
0000
0000
,
0001
0000
1000
0000
,
0100
0000
0010
0000
,
0002
0000
0000
0003
,
0000
1000
1000
0000
,
0020
0000
0030
0000
,
0100
0000
0100
0000
,
0001
0000
1000
0000
,
0200
0000
0300
0100
,
0100
0000
0010
0000
,
0100
0000
1000
0000
,
0001
0001
0001
0000
,
0100
0000
0010
0010
,
0020
0000
0000
0000
,
0030
0000
1000
0000
,
1000
0000
0100
0100
,
0100
0000
0010
0000
,
0001
0000
1000
0000
,
0100
0000
1000
0000
,
0001
0000
0010
0010
,
0010
0000
0001
0000
,
0200
0000
0300
0000
,
0020
0000
0030
0010
,
0010
0000
1000
1000
,
1000
0000
0001
0000
,
0100
0000
0010
0000
,
1000
0000
0001
0000
,
0010
0000
0100
0100
,
0100
0000
1000
0000
,
0002
0000
0003
0000
,
2000
0000
3000
1000
,
1000
0000
0100
0000
,
0000
0000
0010
0000
,
0000
0000
0001
0000
,
0200
0000
0300
0000
,
1001
0000
0010
0000
,
0000
0000
1000
0000
,
0000
0000
0100
0000
,
0010
0000
0001
0000
,
1000
0000
0000
0000
;

//---------------dance-double - ----------------
#NOTEDATA:;
#CHARTNAME:;
#STEPSTYPE:dance-double;
#DESCRIPTION:;
#CHARTSTYLE:;
#DIFFICULTY:Challenge;
#METER:9;
#RADARVALUES:0.562180,0.571247,0.198350,0.126944,0.210251,455.000000,25.000000,16.000000,0.000000,0.000000,0.000000,0.000000,0.000000,0.562180,0.571247,0.198350,0.126944,0.210251,455.000000,25.000000,16.000000,0.000000,0.000000,0.000000,0.000000,0.000000;
#CREDIT:DJ OMiY;
#NOTES:
00000000
00000000
00000000
00000000
,
00000000
00000000
00000000
00000000
,
00000000
00000000
00000000
00000000
,
00000000
00000000
00000000
00000000
,
00000010
00001000
00000100
00010000
00000100
00000010
00000001
00000100
,
00000010
00001000
00000100
00000001
00000100
00001000
00000100
00010000
,
00001000
00010000
00100000
10000000
01000000
00100000
01000000
10000000
,
00010000
00100000
00000000
00100000
00001000
00000000
00001000
00010000
00000000
00010000
00000100
00000000
00000010
00000000
00000001
00000000
,
00000101
00000100
00000010
00001000
00000100
00000010
00000100
00001000
,
00000100
00010000
00000100
00001000
00010000
00100000
00010000
10000000
,
00100000
00010000
00011000
00000000
00011000
00000000
00001000
10000000
,
00100000
00010000
00011000
00000000
00011000
00000000
00010100
00000100
,
00000110
00000100
00001000
00000100
00000001
00000100
00001000
00000010
,
00000001
00000010
00000100
00001000
00010000
00100000
01000000
10000000
,
01000000
00010000
00100000
01000000
10000000
01000000
00100000
01000000
,
10000000
00010000
00100000
00001000
00010000
01000000
00100000
00001000
,
00000200
00000000
00000001
00000000
00001300
00000100
00000001
00000010
,
00002000
00000000
00003010
00000001
00000100
00000010
00000010
00001000
,
00000001
00000010
00000001
00000010
00000100
00001000
00000100
00001000
,
00010000
00100000
00010000
00100000
01000000
10000000
01000000
10000000
,
11000000
01000000
10000000
00010000
10000000
01000000
00100000
01000000
,
10000000
00010000
00100000
00001000
00010000
01000000
10000000
00100000
,
10000000
01000000
10000000
01000000
00100000
00010000
00100000
00010000
,
00001000
00000100
00000010
00000002
00000100
00000000
00001003
00000000
,
00000011
00000000
00001000
00001100
00000100
00000000
00010100
00000000
,
00010000
00011000
00101000
00000000
00020000
00000000
02030000
00000000
,
03100000
00000000
10000000
00010000
01000000
00000000
00100000
00000000
20000000
00000000
00000000
00000000
31000000
00000000
10000000
00000000
,
00100000
01000000
00010000
00100000
00001000
00000000
00010000
00000100
00000010
00000100
00001000
00000001
00000100
00000000
00000010
00000100
,
00000001
00000000
00000000
00000010
00000100
00001000
00000200
00000000
00020300
00000000
00030000
00000000
00001000
00000000
00100000
00000000
,
00010000
01000000
00100000
01000000
00000000
00010000
10000000
01000000
00000000
00100000
01000000
10000000
02000000
00000000
03100000
00000000
,
00011000
00000000
00010000
00000100
00000010
00000000
00000100
00000000
00020000
00000000
00000000
00030000
00001000
00000000
00000100
00000000
,
00000001
00000010
00000100
00001000
00000100
00000000
00001000
00000100
00010000
01000000
10000000
00100000
01000000
00000000
00010000
00100000
,
01000000
00000000
11000000
01001000
00110000
00000000
00100000
00001000
,
00010000
00000000
00000100
00000010
00000000
00000001
00000100
00000001
00000010
00000000
00000100
00000000
00001000
00000000
00020000
00000000
,
00200000
00000000
00000000
00000000
,
00330000
00000000
11000000
01010000
,
00100000
00000000
10000000
00010000
01000000
00000000
00100000
00000000
01000000
00000000
00001000
00000000
00010000
00000000
00000100
00000000
,
00000010
00000000
00000100
00001000
00000001
00000000
00000100
00000000
00000010
00000000
00000100
00000000
00000001
00000000
00000010
00000000
,
00000100
00000000
00001000
00000100
00010000
00000000
00002000
00000000
00100000
00000000
00000000
00000000
00013000
00000000
00001000
00000000
,
01000000
00000000
00100000
01000000
00010000
00000000
20000000
00000000
01000000
00000000
00000000
00000000
30100000
00000000
10000000
00000000
,
10010000
00000000
00010000
00100000
00001000
00000000
00010000
00000000
00000100
00000000
00001000
00000000
00000100
00000000
00000010
00000000
,
00000100
00000000
00000010
00000001
00001000
00000000
00000010
00000000
00010000
00000000
00000100
00000000
00000010
00000000
00000100
00000000
,
00010000
00000000
00000100
00000010
00000001
00000000
00000100
00000000
00000010
00000000
00010000
00000000
00001000
00000000
00100000
00000000
,
00001000
00000000
00010000
01000000
00100000
00000000
00010000
00000000
01000000
00000000
00100000
00000000
01000000
00000000
00001000
00000000
,
00101000
00000000
00100000
00010000
01000000
00000000
00100000
00000000
10000000
00000000
01000000
00000000
00100000
00000000
01000000
00000000
,
10000000
00000000
00010000
00100000
00001000
00000000
00010000
00000000
00000100
00000000
00001000
00000000
00000010
00000000
00000100
00000000
,
00000010
00000000
00001000
00000100
00000010
00000000
00000002
00000000
00000010
00000000
00000000
00000000
00001003
00000000
00000001
00000000
,
00000010
00000000
00000100
00001000
00000100
00000000
00020000
00000000
00001000
00000000
00000000
00000000
00030010
00000000
00001000
00000000
,
00001100
00000000
00000100
00010000
00001000
00000000
00100000
00000000
00010000
00000000
01000000
00000000
00010000
00000000
00100000
00000000
,
00010000
00000000
10000000
01000000
00100000
00000000
01000000
00000000
10000000
00000000
00100000
00000000
01000000
00000000
00010000
00000000
,
00100000
00000000
00001000
00010000
00000100
00000000
00001000
00000000
00000010
00000000
00000100
00000000
00000001
00000000
00000010
00000000
,
00000100
00000000
00000010
00000001
00000100
00000000
00001000
00000000
00000100
00000000
00000001
00000000
00000100
00000000
00000001
00000000
,
00000011
00000010
00000100
00001000
00000100
00010000
00001000
00100000
,
00010000
10000000
00100000
00010000
00100000
01000000
00001000
00010000
,
00000010
00001000
00000010
00000001
00001000
00000100
00000001
00001000
,
00000001
00000010
00000000
00000100
00001000
00000000
00001000
00000100
00000000
00000010
00000001
00000000
00000100
00000000
00001000
00000000
,
00011000
00001000
00100000
00010000
10000000
01000000
00010000
01000000
,
00100000
00001000
00010000
00000010
00000100
00001000
00010000
00001000
,
00000100
00000001
00000010
00000100
00001000
00000100
00010000
00001000
,
00100000
00010000
00000000
00010000
00100000
00000000
01000000
10000000
00000000
10000000
01000000
00000000
00100000
00000000
00010000
00000000
,
01001000
00000000
00000000
00000000
;

//---------------dance-double - ----------------
#NOTEDATA:;
#CHARTNAME:;
#STEPSTYPE:dance-double;
#DESCRIPTION:;
#CHARTSTYLE:;
#DIFFICULTY:Hard;
#METER:7;
#RADARVALUES:0.406900,0.384005,0.222152,0.198350,0.063472,306.000000,28.000000,25.000000,0.000000,0.000000,0.000000,0.000000,0.000000,0.406900,0.384005,0.222152,0.198350,0.063472,306.000000,28.000000,25.000000,0.000000,0.000000,0.000000,0.000000,0.000000;
#CREDIT:;
#NOTES:
00000000
00000000
00000000
00000000
,
00000000
00000000
00000000
00000000
,
00000000
00000000
00000000
00000000
,
00000000
00000000
00000000
00000000
,
00001000
00110000
00101000
00010100
,
00001000
00000011
00001100
00010100
,
00010000
00000100
00001000
00000000
00000100
00010000
00001000
00000000
,
00100000
00000000
00000000
00010000
00000000
00000000
01000000
00000000
00000000
00100000
00000000
00000000
10000000
00000000
00000000
00000000
,
01000000
00100000
00010000
01000000
00100000
10000000
01000000
00000000
,
10000000
00010000
00100000
00000000
00001000
00010000
00000100
00000000
,
00000010
00000100
00010000
00000000
00010000
00000000
00010000
00000100
,
00000010
00000100
00010000
00000000
00010000
00000000
00001000
00100000
,
00010000
01000000
00100000
00000000
01000000
00001000
00010000
00000000
,
00001000
00100000
01000000
00000000
10000000
01000000
00100000
00000000
,
00001000
00010000
00000100
00000010
00000000
00000100
00000000
00001000
,
00000001
00000100
00000001
00001000
00000100
00001000
00000010
00010000
,
00001000
00000000
00010000
00000000
00000100
00000010
00000100
00010000
,
00001000
00000000
00001000
00100000
00000000
00010000
01000000
00000000
,
00100000
10000000
00100000
10000000
00010000
00100000
00010000
00100000
,
00010000
01000000
00010000
01000000
00100000
10000000
00010000
00000000
,
00100000
00000000
00001000
00000000
00010000
00000100
00000010
00000000
,
00000100
00000000
00001000
00000001
00000000
00000010
00000100
00000010
,
00000001
00000100
00000001
00000100
00000010
00001000
00000010
00001000
,
00000100
00010000
00001000
00200000
00000000
00000000
00300000
00000000
,
00101000
00000000
00000000
00011000
00000000
00000000
00010100
00000000
,
00000000
00000110
00000110
00000000
00000002
00000000
00002003
00000000
,
00013000
00000000
00000000
02000000
00000000
00000000
13000000
00100000
00010000
00000000
00000000
00000000
10000000
00000000
01000000
00000000
,
00100000
00000000
00000000
00001000
00000000
00000000
00010000
00000000
00000100
00000000
00000000
00000010
00000000
00000000
00000001
00000000
,
00001000
00000000
00000010
00000010
00001001
00000000
00000100
00010000
,
00001000
00000000
00000000
00100000
00000000
00000000
00010000
00000000
00000000
00000000
10000000
00000000
10000000
00000000
10000000
00000000
,
01010000
00000000
00000000
00100000
00000000
00000000
10000000
01000000
00010000
00000000
00000000
00000000
00001000
00000000
00010000
00000000
,
00000100
00000000
00000010
00000001
00000000
00000000
00000100
00000000
00000010
00000000
00000010
00001000
00000000
00000000
00000100
00000000
,
00010000
00000000
00001000
00001000
00001000
00000000
00100000
00010000
,
10000000
00000000
00000000
01000000
00000000
00000000
00010000
00000000
00001000
00000000
00000010
00000000
00000001
00000000
00000100
00000000
,
00022000
00000000
00000000
00000000
,
00033000
00000000
00001000
00001000
,
00201000
00000000
00310000
20000000
00100000
00000000
30010000
00000000
,
11000000
00100000
01000000
10000000
,
00010000
00100000
00001000
00010000
00000100
00000000
00000010
00000100
,
00010000
00001000
00010000
00000100
00000010
00000000
00000001
00000010
,
00000001
00000000
00000100
00000010
00000100
00000010
00002000
00000000
,
00000200
00003000
00010300
00011000
,
00001000
00100000
00010000
01000000
00000000
00100000
00000000
10000000
,
00000000
01000000
00100000
00000000
00110000
00000000
00101000
00000000
,
00020100
00000000
00030100
00002000
00000010
00000000
00003001
00000000
,
00000110
00000001
00000100
00001000
,
00010000
00001000
00100000
00001000
00010000
00000000
01000000
10000000
,
00010000
00100000
00001000
00010000
01000000
00000000
00100000
00001000
,
00010000
00000100
00000011
00001100
,
00000101
00000010
00001000
00000100
,
00000010
00000000
00000100
00001000
00000000
00000100
00010000
00000000
,
00001000
00110000
00011000
00001100
,
00000010
00000001
00000200
00000000
00000320
00000000
00002030
00000000
,
00003100
00010000
00002000
00000000
00203000
00000000
02300000
00000000
,
03100000
00010000
10000000
00000000
00100000
01000000
00010000
00000000
,
10000000
00000000
00000000
01000000
00000000
00000000
00100000
00000000
00000000
00001000
00000000
00000000
00010000
00000000
00000000
00000000
,
00011000
00000200
00000320
00000230
,
00001300
00000001
00000200
00000000
00002300
00000000
00023000
00000000
,
00130000
10000000
00010000
00000000
01000000
00010000
00100000
00000000
,
00001000
00000000
00000000
00010000
00000000
00000000
00001000
00000000
00000000
00000100
00000000
00000000
00000001
00000000
00000000
00000000
,
00000020
00000000
00000030
00000000
;

//---------------dance-double - ----------------
#NOTEDATA:;
#CHARTNAME:;
#STEPSTYPE:dance-double;
#DESCRIPTION:;
#CHARTSTYLE:;
#DIFFICULTY:Medium;
#METER:5;
#RADARVALUES:0.327560,0.333228,0.103142,0.293558,0.007934,239.000000,13.000000,37.000000,0.000000,0.000000,0.000000,0.000000,0.000000,0.327560,0.333228,0.103142,0.293558,0.007934,239.000000,13.000000,37.000000,0.000000,0.000000,0.000000,0.000000,0.000000;
#CREDIT:DJ OMiY;
#NOTES:
// measure 0
00000000
00000000
00000000
00000000
,  // measure 1
00000000
00000000
00000000
00000000
,  // measure 2
00000000
00000000
00000000
00000000
,  // measure 3
00000000
00000000
00000000
00000000
,  // measure 4
00000000
00000000
00001000
00000000
00010000
00000100
00000010
00000000
,  // measure 5
00000000
00000000
00000001
00000000
00001000
00000010
00010000
00000000
,  // measure 6
00001000
00001000
00100000
00100000
,  // measure 7
00020000
00000000
00000000
02030000
00000000
00000000
03100000
00000000
,  // measure 8
10000000
01000000
00010000
00000000
01000000
00000000
01000000
00000000
,  // measure 9
10000000
00100000
00010000
00001000
,  // measure 10
00010000
00000100
00000010
00000000
00000010
00000000
00000100
00000000
,  // measure 11
00010000
00000100
00000010
00000000
00000010
00000000
00000001
00000000
,  // measure 12
00000001
00000100
00001000
00000000
00000100
00000000
00000010
00000000
,  // measure 13
00001000
00000100
00010000
00001000
,  // measure 14
00100000
00010000
01000000
00000000
,  // measure 15
00100000
00000000
00100000
00000000
10000000
00000000
01000000
00100000
,  // measure 16
00010000
00000000
01000000
00001000
,  // measure 17
00100000
00000000
00001000
00020000
00000000
00030000
00000100
00000000
,  // measure 18
00001000
00000010
00001000
00000000
00000001
00000100
00000001
00000000
,  // measure 19
00001000
00000100
00001000
00000000
00000100
00010000
00000100
00000000
,  // measure 20
00011000
00010000
00001000
00100000
,  // measure 21
00010000
00000000
01000000
00200000
00000000
00300000
10000000
00000000
,  // measure 22
01000000
00100000
01000000
00000000
10000000
01000000
10000000
00000000
,  // measure 23
00010000
00100000
00010000
00200000
00000000
00000000
00300000
00000000
,  // measure 24
00011000
00000000
00000000
00010100
00000000
00000000
00000110
00000000
,  // measure 25
00000000
00000001
00000101
00000000
00002000
00000000
00003200
00000000
,  // measure 26
00020300
00000000
00000000
00030000
00000000
00000000
00001000
00000000
00100000
00000000
00000000
00000000
00010000
00000000
00000000
00000000
,  // measure 27
02000000
00000000
00000000
03000000
00000000
00000000
00100000
00000000
00200000
00000000
00000000
00300000
00000000
00000000
10000000
00000000
,  // measure 28
10000000
00000000
00010000
00100000
10000000
00000000
00100000
00001000
,  // measure 29
00010000
00000000
00000000
00010000
00000000
00000000
00000100
00000000
00000000
00000000
00000010
00000000
00000010
00000000
00000010
00000000
,  // measure 30
00000002
00000000
00000000
00000003
00000000
00000000
00001000
00000000
00000100
00000000
00000000
00000000
00010000
00000000
00000000
00000000
,  // measure 31
00000200
00000000
00000000
00000300
00000000
00000000
00000010
00000000
00000200
00000000
00000000
00000300
00000000
00000000
00010000
00000000
,  // measure 32
00001000
00000000
00100000
00001000
01000000
00000000
00010000
00100000
,  // measure 33
01000000
00000000
00000000
01000000
00000000
00000000
10000000
00000000
00010000
00000000
00100000
00000000
00100000
00000000
00100000
00000000
,  // measure 34
20020000
00000000
00000000
00000000
,  // measure 35
30030000
00000000
00100000
00100000
,  // measure 36
10010000
00000000
00000000
02000000
00000000
00000000
03010000
10000000
,  // measure 37
00200000
00300000
01000000
00010000
,  // measure 38
00100000
00000000
00001000
00010000
00000000
00000000
00000100
00000000
,  // measure 39
00000010
00000000
00000100
00001000
00000000
00000000
00000010
00000100
,  // measure 40
00000001
00000000
00001000
00000000
00000010
00000100
00001000
00000000
,  // measure 41
00010000
00011000
00001000
00100000
,  // measure 42
00010000
00000000
10000000
01000000
00000000
00100000
01000000
10000000
,  // measure 43
00000000
00100000
01000000
00010000
00000000
00100000
01000000
00000000
,  // measure 44
00101000
00000000
00000000
00020000
00000000
00000000
00031000
00010000
,  // measure 45
00000100
00000010
00000100
00001000
,  // measure 46
00000001
00000100
00000000
00000010
00001000
00000000
00000100
00000000
,  // measure 47
00000100
00000010
00000000
00000010
00000001
00000000
00001100
00000000
,  // measure 48
00000000
00000200
00020300
00032000
,  // measure 49
00003000
00100000
00010000
01000000
,  // measure 50
00100000
00000000
01000000
00010000
00000000
00010000
10000000
00000000
,  // measure 51
00100000
11000000
01010000
01100000
,  // measure 52
10000000
02000000
03020000
00032000
,  // measure 53
00003010
00000002
00002003
00003200
,  // measure 54
00010300
00001000
00010000
00100000
,  // measure 55
02000000
00000000
00000000
03020000
00000000
00000000
10030000
00000000
,  // measure 56
01000000
00200000
00302000
00023000
,  // measure 57
00030100
00000020
00000032
00000203
,  // measure 58
00001300
00010000
00001000
00100000
,  // measure 59
00020000
00000000
00000000
20030000
00000000
00000000
31000000
00000000
,  // measure 60
00010000
00000000
00000000
00000000
;

//---------------dance-double - ----------------
#NOTEDATA:;
#CHARTNAME:;
#STEPSTYPE:dance-double;
#DESCRIPTION:;
#CHARTSTYLE:;
#DIFFICULTY:Easy;
#METER:3;
#RADARVALUES:0.198350,0.261822,0.087274,0.079340,0.000000,154.000000,11.000000,10.000000,0.000000,0.000000,0.000000,0.000000,0.000000,0.198350,0.261822,0.087274,0.079340,0.000000,154.000000,11.000000,10.000000,0.000000,0.000000,0.000000,0.000000,0.000000;
#CREDIT:;
#NOTES:
// measure 0
00000000
00000000
00000000
00000000
,  // measure 1
00000000
00000000
00000000
00000000
,  // measure 2
00000000
00000000
00000000
00000000
,  // measure 3
00000000
00000000
00000000
00000000
,  // measure 4
00000000
00000100
00000100
00000200
,  // measure 5
00000000
00010000
00010000
00020000
,  // measure 6
00000000
00000300
00000000
00030000
,  // measure 7
00002000
00000000
00000000
00003000
00000000
00000000
00100000
00000000
,  // measure 8
00010000
01000000
01000000
00000000
,  // measure 9
00100000
10000000
01000000
00000000
,  // measure 10
00100000
01000000
01000000
00000000
,  // measure 11
10000000
01000000
01000000
00010000
,  // measure 12
00000000
00001000
00000100
00000000
,  // measure 13
00000001
00000100
00000100
00000000
,  // measure 14
00000001
00000000
00000010
00000000
,  // measure 15
00000100
00001000
00000100
00001000
,  // measure 16
00010000
00000000
00100000
00000000
,  // measure 17
00010000
00000000
01000000
00000000
,  // measure 18
00100000
10000000
01000000
00000000
,  // measure 19
00100000
00010000
01000000
00000000
,  // measure 20
00001000
00000000
00010000
00000100
,  // measure 21
00000010
00000000
00000100
00000000
,  // measure 22
00000010
00000001
00000100
00001000
,  // measure 23
00010000
00001000
00000000
00000000
,  // measure 24
00011000
00000000
00101000
00000000
,  // measure 25
00011000
00000000
00000100
00000100
,  // measure 26
00020000
00000000
00031000
00000000
,  // measure 27
00100000
00010000
10000000
01000000
,  // measure 28
00020000
00001000
00031000
00000000
,  // measure 29
00000010
00000001
00000100
00001000
,  // measure 30
00021000
00100000
00031000
00000000
,  // measure 31
00012000
00000100
00013000
00001000
,  // measure 32
00100000
01000000
01000000
00000000
,  // measure 33
10000000
01000000
00010000
00001000
,  // measure 34
00000020
00000000
00000000
00000000
,  // measure 35
00000030
00000000
00000001
00000001
,  // measure 36
00000101
00000000
00001000
00000100
,  // measure 37
00010100
00000000
00001000
00100000
,  // measure 38
00010000
00010000
01000000
00000000
,  // measure 39
00100000
10000000
01000000
00000000
,  // measure 40
01100000
00000000
00100000
00001000
,  // measure 41
00010000
00000000
00000100
00000000
,  // measure 42
00001000
00000001
00000100
00000000
,  // measure 43
00000010
00010000
00001000
00010000
,  // measure 44
00100000
00000000
01000000
00010000
,  // measure 45
10000000
00000000
01000000
00000000
,  // measure 46
00100000
01000000
10000000
00000000
,  // measure 47
01000000
00100000
00001000
00000000
,  // measure 48
00010000
00000000
00000100
00001000
,  // measure 49
00000100
00000000
00000010
00000000
,  // measure 50
00000001
00001000
00000100
00010000
,  // measure 51
00000100
00000010
00000010
00000010
,  // measure 52
00000110
00000000
00000001
00000000
,  // measure 53
00000100
00000000
00001000
00000000
,  // measure 54
00010000
00000000
00001000
00000000
,  // measure 55
00200000
00000000
00300000
10010000
,  // measure 56
01000000
00000000
00100000
00000000
,  // measure 57
10000000
01000000
00010000
00000000
,  // measure 58
01000000
00000000
00100000
00000000
,  // measure 59
00002000
00000000
00003000
00011000
,  // measure 60
00000100
00000000
00000000
00000000
;
