#TITLE:Under a Paper Moon;
#SUBTITLE:;
#ARTIST:All Time Low;
#TITLETRANSLIT:;
#SUBTITLETRANSLIT:;
#ARTISTTRANSLIT:;
#GENRE:Rock;
#CREDIT:;
#BANNER:Under a Paper Moon-bn.png;
#BACKGROUND:Under a Paper Moon-bg.png;
#LYRICSPATH:;
#CDTITLE:PROJECT GOLDENROD-cdtitle.png;
#MUSIC:Under a Paper Moon.mp3;
#OFFSET:-0.500000;
#SAMPLESTART:38.910999;
#SAMPLELENGTH:12.569000;
#SELECTABLE:YES;
#DISPLAYBPM:153.000000;
#BPMS:0.000000=153.000000
,208.000000=76.500000
,211.000000=153.000000
;
#STOPS:
;
#BGCHANGES:;
#KEYSOUNDS:;
#ATTACKS:;

//---------------dance-single - ----------------
#NOTES:
     dance-single:
     :
     Hard:
     8:
     0.597528,0.493428,0.138879,0.236911,0.000000,466.000000,17.000000,29.000000,0.000000,0.000000,0.000000,0.597528,0.493428,0.138879,0.236911,0.000000,466.000000,17.000000,29.000000,0.000000,0.000000,0.000000:
// measure 0
0000
0000
0000
0000
,  // measure 1
0000
0000
0000
0000
,  // measure 2
1000
0001
0100
0010
1000
0010
0100
0001
,  // measure 3
1000
0100
0010
0001
0010
0100
1000
0000
,  // measure 4
0001
0100
0010
1000
0010
0100
0002
0000
,  // measure 5
2003
0010
3010
0000
0100
0001
1000
0001
,  // measure 6
0010
0000
0100
1000
0100
0010
0001
1000
,  // measure 7
0001
0000
0100
0010
1000
0010
0100
0002
,  // measure 8
0000
1003
0001
1000
0100
0000
0010
0001
,  // measure 9
0000
0001
0000
1000
0000
0110
0000
1001
,  // measure 10
0000
1000
0100
0000
1000
0010
0100
0001
,  // measure 11
0010
0000
1000
0000
0010
0001
1000
0020
,  // measure 12
0000
0230
0000
0302
0000
1003
0100
0010
,  // measure 13
0100
0010
0001
0010
1000
0010
0001
1000
,  // measure 14
0100
0000
1100
0000
0001
0100
0010
0000
,  // measure 15
1000
0000
0101
0000
1000
0100
0010
0000
,  // measure 16
0100
0000
1001
0000
0010
0001
1000
0100
,  // measure 17
0010
0000
1100
0000
0001
1000
0001
0010
,  // measure 18
0100
0000
1000
0010
0100
0001
1000
0001
,  // measure 19
0010
0000
0100
1000
0100
0001
0100
2000
,  // measure 20
0000
3020
0000
0230
0000
0302
0000
1003
,  // measure 21
0100
1000
1000
0100
1000
1000
0100
0000
,  // measure 22
0010
0001
0001
0010
0001
0001
0010
0000
,  // measure 23
0001
1000
1000
0001
1000
1000
0001
1000
,  // measure 24
0010
0100
0100
0000
0001
0101
0000
1000
,  // measure 25
0001
0100
0001
1000
0001
0100
0010
1000
,  // measure 26
0100
1000
0010
1000
0100
0010
0001
2000
,  // measure 27
0000
3010
0100
0010
0000
0101
0000
1000
,  // measure 28
0100
0010
0100
1000
0001
0100
0000
0010
,  // measure 29
0100
0000
0001
1000
0100
0010
0000
0100
,  // measure 30
1000
0000
0002
0000
1003
0000
0010
0100
,  // measure 31
0001
0010
0001
0010
0100
1000
0100
1000
,  // measure 32
0010
0100
0010
0100
0001
0011
0000
0010
,  // measure 33
0100
1000
0100
0010
0100
1000
0001
0100
,  // measure 34
0010
1000
0010
0001
0010
1000
0001
0200
,  // measure 35
0000
0310
1000
0001
0000
0101
0000
0100
,  // measure 36
0010
0000
2000
0000
3001
0010
0100
1000
,  // measure 37
0001
0000
0020
0000
0031
0100
0010
1000
,  // measure 38
0010
0000
0200
0000
0301
1000
0100
0010
,  // measure 39
0100
1000
0100
1000
0001
0100
0001
0100
,  // measure 40
1000
0100
1000
0100
0001
0010
0100
1000
,  // measure 41
0001
0000
1001
0000
0100
0000
0100
0010
,  // measure 42
0100
0001
1000
1000
0020
0000
1030
0100
,  // measure 43
0010
0001
0101
0000
0001
1000
0001
1000
,  // measure 44
0001
0010
0100
1000
0100
0010
0002
0000
,  // measure 45
0103
0000
0000
0000
,  // measure 46
0010
0000
0000
0000
,  // measure 47
1000
0000
0000
0000
0000
0000
0000
0001
,  // measure 48
0000
0000
0100
0000
,  // measure 49
0010
1000
0010
1000
0010
1000
0010
1000
,  // measure 50
0001
0100
0001
0100
0001
0100
0001
0100
,  // measure 51
0010
0100
0010
0100
0001
1000
0001
0000
,  // measure 52
0200
0020
0000
0000
0300
0030
2000
0002
,  // measure 53
0000
3003
1000
0100
1000
0010
1000
0100
,  // measure 54
1000
0001
0010
0100
0010
0001
0100
0010
,  // measure 55
0100
0002
0000
1003
0100
0010
0000
0011
,  // measure 56
0000
0001
1000
0010
0100
0010
1000
0001
,  // measure 57
0000
0001
1000
0000
0010
0000
0100
0001
,  // measure 58
0000
1000
0010
0000
0010
0000
0100
0001
,  // measure 59
1000
0001
0010
0100
0010
0100
1000
0100
,  // measure 60
1000
0100
0001
0100
1000
0010
0100
0110
,  // measure 61
0000
1000
0001
0100
0010
0100
1000
0100
,  // measure 62
0001
1000
0100
0010
0100
1000
0010
0100
,  // measure 63
0010
2000
0000
3001
0010
0100
0000
1001
,  // measure 64
0000
1000
0010
0100
0020
0000
1030
0100
,  // measure 65
0010
0001
1000
0000
0020
0000
0130
0001
,  // measure 66
1000
0001
0010
0000
0200
0000
1300
0010
,  // measure 67
0100
0010
1000
0001
1000
0001
0010
0100
,  // measure 68
0010
0100
1000
0100
1000
0100
0010
0001
,  // measure 69
0010
0001
0010
0100
1000
0010
0100
0001
,  // measure 70
1000
0100
0001
0100
1000
0100
0010
0100
,  // measure 71
0001
0100
1000
0001
0010
0100
1000
0100
,  // measure 72
0010
0001
0100
0010
1000
0010
0100
0001
,  // measure 73
0010
1002
0100
1000
,  // measure 74
0100
2003
0100
0001
,  // measure 75
3100
1000
0001
0100
0110
0000
0000
0000
;

//---------------dance-single - ----------------
#NOTES:
     dance-single:
     :
     Medium:
     6:
     0.450480,0.431749,0.171556,0.187895,0.000000,342.000000,21.000000,23.000000,0.000000,0.000000,0.000000,0.450480,0.431749,0.171556,0.187895,0.000000,342.000000,21.000000,23.000000,0.000000,0.000000,0.000000:
0000
0000
0000
0000
,
0000
0000
0000
0000
,
1000
0000
0000
1100
0000
0000
0001
0000
,
0010
0000
0000
0110
0000
0000
0100
0000
,
2000
0000
0000
3200
0000
0000
0320
0000
,
0032
0100
0103
0000
0010
0100
0010
0000
,
1000
0000
0000
0000
0001
0000
1000
0010
,
0000
0000
0100
0001
0100
0000
0001
1000
,
0010
0000
0100
0010
0000
1000
0100
0010
,
0000
0010
0000
0001
0000
0010
0000
1100
,
0000
0000
0001
0000
0100
0000
0010
1000
,
0001
0000
1000
0000
0100
0000
0010
0001
,
1000
0000
0010
0100
0000
0001
1000
0001
,
0000
0010
0000
0010
0000
0100
0000
1001
,
0000
1000
0010
0000
0100
0000
0001
1000
,
0001
0000
0010
0000
0100
0000
1000
0010
,
0100
0000
0010
0100
0001
0000
0010
0001
,
1000
0000
0100
0000
1000
0000
0001
0100
,
0001
0000
1000
0000
0001
0000
0010
0100
,
1000
0000
0010
0000
0100
0000
0001
1000
,
0010
0100
0001
1001
,
1000
0100
1000
0010
0000
0000
0100
0000
,
0001
0010
0001
0100
0000
0000
0010
0000
,
2000
0000
0000
3002
0000
0000
0023
0000
,
0230
1000
1300
0000
0001
1000
0000
2000
,
0010
0000
3010
0000
0100
0010
0100
0001
,
0010
0000
0010
0000
0100
1000
0000
0001
,
0000
0100
0010
0100
0000
0002
0000
2000
,
0003
0000
3010
0000
1000
0100
0000
1000
,
0100
0000
0010
0000
0001
0100
0000
0001
,
0100
0000
0010
0000
1000
0000
0010
0100
,
0001
0011
0100
1100
,
1001
0000
0101
0000
0001
1000
0000
1000
,
0020
0000
1000
0000
1030
0100
0010
0001
,
1000
0000
0010
0000
0100
0001
0000
1000
,
0000
0010
0100
0010
0000
2000
0000
0200
,
3000
0000
0310
0000
0001
1000
0000
0001
,
1000
0000
0100
0000
0010
0100
0000
0010
,
0100
0000
1000
0000
0001
0000
0010
0001
,
1000
1010
0001
0101
,
0110
0000
1001
0000
1000
0000
0001
0100
,
0010
0110
1000
0001
,
1000
0000
0001
0000
0100
0000
0010
1000
,
0001
0100
0001
0000
1000
0000
0100
0000
,
1000
0010
0100
0002
,
0013
0000
0000
0000
,
0001
0000
0000
0000
,
1000
0000
0000
0000
0000
0000
0000
0010
,
0000
0000
0100
0000
,
0010
1000
0010
0000
1000
0001
1000
0000
,
0001
0100
0001
0000
0010
0100
0010
0000
,
0100
0000
1000
0000
0001
1000
0001
0010
,
0200
0000
0000
2000
,
3300
0000
1002
0000
0010
0000
0013
0001
,
1000
0001
0100
0000
0010
0000
1000
0100
,
0000
1000
0000
0010
1000
0001
0000
0200
,
0000
0020
0300
0000
1030
0000
0100
0010
,
0000
0100
1000
0000
0001
0000
0010
0100
,
0000
0010
0001
0000
1000
0000
0010
0000
,
0100
0001
1000
0010
1000
0000
0001
0100
,
0001
0000
0010
0100
0010
0000
0100
1000
,
0000
1000
0200
0000
0010
0000
0310
0001
,
0010
0100
1000
0000
0010
0000
0100
0001
,
0000
1000
0000
0010
1000
0100
0000
2000
,
0000
0002
3000
0000
0013
0000
0001
0100
,
0000
0001
0100
0000
0010
0000
1000
0100
,
0000
1000
0100
0000
0010
0000
0001
0000
,
1000
0010
0100
0000
0110
0000
0001
0000
,
1001
0000
1010
0000
1001
0000
0010
0001
,
0000
1000
0010
0000
0100
0000
0010
1000
,
0000
0001
0010
0000
0100
0000
1000
0000
,
0001
0100
0010
1000
0001
0000
1000
0100
,
0010
0000
0001
0010
0100
0000
1000
0000
,
0010
1100
0101
1000
,
0010
0100
0001
0010
,
0100
0100
1000
0100
0001
0000
0000
0000
;

//---------------dance-single - ----------------
#NOTES:
     dance-single:
     :
     Easy:
     4:
     0.348947,0.339232,0.204233,0.187895,0.000000,251.000000,25.000000,23.000000,0.000000,0.000000,0.000000,0.348947,0.339232,0.204233,0.187895,0.000000,251.000000,25.000000,23.000000,0.000000,0.000000,0.000000:
0000
0000
0000
0000
,
0000
0000
0000
0000
,
0001
1000
0010
0100
,
0010
1000
0001
1000
,
0020
0000
0130
0001
,
2000
0000
3001
1000
,
1001
0000
0100
0100
,
0001
0000
0010
0100
,
2000
0000
3020
0000
,
0130
0001
1000
0100
,
0110
0000
0001
0010
,
0001
0000
1000
0010
,
0200
0000
0302
0000
,
1003
0100
0010
0001
,
1100
0000
0010
1000
,
0100
0000
0010
0001
,
2000
0000
3200
0000
,
0310
0100
1000
0010
,
0101
0000
1000
0001
,
0010
0000
0001
0100
,
0002
0000
0023
0000
,
0130
0000
1000
0001
,
0100
0000
0010
1000
,
0200
0000
0310
0001
,
1000
0110
1001
0000
,
1001
1000
1000
0100
,
0010
0010
0010
0001
,
1000
0001
0100
0010
,
0001
0010
1000
0001
,
1000
0100
0100
0010
,
0001
1000
0010
0100
,
0020
1000
1000
2030
,
0001
3001
1001
0000
,
1001
0010
0010
1000
,
0001
0001
0001
0100
,
0001
0010
0100
1000
,
0010
1000
0100
0100
,
0010
0001
1000
0010
,
1000
0001
0100
0010
,
0200
0001
0001
0302
,
0010
0010
0013
0100
,
0110
1001
0100
0000
,
0010
0000
1000
0001
,
0011
1100
1000
0000
,
0010
0100
0100
0002
,
1003
0000
0000
0000
,
0100
0000
0000
0000
,
2000
0000
0000
0000
0000
0000
0000
3000
,
0000
0000
0001
0000
,
0100
0100
0100
0100
,
0001
0001
0001
0001
,
1000
0100
0010
0001
,
2000
0000
0000
0200
,
3300
1001
0100
0100
,
0001
1000
1000
1000
,
0100
0010
0001
0010
,
0100
1000
0001
0010
,
0010
0100
1000
0001
,
0100
0010
0100
1000
,
0100
0002
0010
0010
,
0023
0100
0130
0110
,
0000
0110
0010
0010
,
0001
1000
1000
1000
,
0010
0100
0001
0010
,
1000
0010
0001
1000
,
1000
0001
0100
0010
,
1000
0100
0010
0100
,
1000
0200
1000
1000
,
2300
0001
0001
3001
,
0110
1001
0100
0100
,
0010
1001
0010
0010
,
0100
1001
1000
1001
,
0001
0010
0100
1000
,
0001
0110
1001
1000
,
0000
0001
0000
1000
,
0001
1010
0101
0000
;

//---------------dance-single - ----------------
#NOTES:
     dance-single:
     :
     Beginner:
     2:
     0.144714,0.246714,0.081693,0.040847,0.000000,109.000000,10.000000,5.000000,0.000000,0.000000,0.000000,0.144714,0.246714,0.081693,0.040847,0.000000,109.000000,10.000000,5.000000,0.000000,0.000000,0.000000:
0000
0000
0000
0000
,
0000
0000
0000
0000
,
1000
0000
0000
0000
,
0010
0000
0000
0000
,
0001
0000
1000
0000
,
0200
0000
0300
0000
,
0100
0000
0000
0000
,
0010
0000
0000
0000
,
0001
0000
0000
0000
,
1000
0000
0000
0000
,
0100
0000
0000
0000
,
0010
0000
0000
0000
,
0100
0000
0000
0000
,
1000
0000
0000
0000
,
1001
0000
0000
0000
,
0010
0000
0000
0000
,
1000
0000
0000
0000
,
0001
0000
0000
0000
,
0010
0000
0000
0000
,
0100
0000
0000
0000
,
1000
0000
0000
0000
,
0010
0000
0010
0000
,
0100
0000
0100
0000
,
0001
0000
1000
0000
,
0002
0000
0003
0000
,
1001
0000
1000
0000
,
0010
0000
0000
0000
,
0100
0000
0001
0000
,
1000
0000
0000
0000
,
0001
0000
0010
0000
,
0001
0000
0000
0000
,
1000
0000
1000
0000
,
1000
0000
0010
0000
,
1001
0000
0001
0000
,
0100
0000
0000
0000
,
0010
0000
1000
0000
,
0100
0000
0000
0000
,
0010
0000
0010
0000
,
0001
0000
1000
0000
,
0010
0000
0100
0000
,
0010
0000
0100
0000
,
0110
0110
0000
0000
,
0000
0000
0000
0000
,
1001
1001
0000
0000
,
0000
0000
0000
0000
,
0100
0000
0000
0000
,
0001
0000
0000
0000
,
0020
0000
0000
0000
0000
0000
0000
0030
,
0000
0000
0000
0000
,
0100
0000
1000
0000
,
0100
0000
1000
0000
,
0100
0000
1000
0000
,
0001
0000
0000
0100
,
0000
0100
0000
0010
,
0000
0100
0000
0000
,
0000
0001
0000
1000
,
0000
0001
0000
0000
,
0000
0010
0000
0100
,
0000
1000
0000
0100
,
0000
0010
0000
0001
,
0000
1000
0000
0001
,
0000
1001
0000
1000
,
0000
0100
0000
0000
,
0000
0010
0000
0001
,
0000
0100
0000
0000
,
0000
0010
0000
1000
,
0000
0010
0000
0100
,
0000
0001
0000
1000
,
0000
0001
0000
0010
,
0000
0100
0000
0100
,
0000
1000
0000
1000
,
0000
0001
0000
0001
,
0000
0100
0000
0100
,
0000
1001
2002
0000
,
0000
3003
0000
0000
,
0000
0001
0001
0000
;

//---------------dance-double - ----------------
#NOTES:
     dance-double:
     :
     Hard:
     8:
     0.578856,0.524267,0.081693,0.228741,0.000000,458.000000,10.000000,28.000000,0.000000,0.000000,0.000000,0.578856,0.524267,0.081693,0.228741,0.000000,458.000000,10.000000,28.000000,0.000000,0.000000,0.000000:
00000000
00000000
00000000
00000000
,
00000000
00000000
00000000
00000000
,
00001000
00100000
00010000
10000000
01000000
00100000
00010000
00000000
,
00100000
00001000
00010000
00000010
00000100
00000001
00001000
00000000
,
00000001
00000010
00000100
00001000
00000100
00000010
00000001
00000000
,
00001000
00000100
00000100
00000000
00010000
00001000
00010000
00000000
,
00011000
00000000
00001000
00000000
00100000
00010000
10000000
00100000
,
01000000
00000000
00100000
10000000
00000000
10000000
01000000
00100000
,
00010000
00000000
00100000
00002000
00000000
00013000
00000100
00001000
,
00000000
00000001
00000000
00001000
00000000
00000110
00000000
00001001
,
00000000
00000001
00000100
00000000
00000010
00000100
00001000
00000100
,
00000001
00000000
00001001
00000000
00001000
00000100
00010000
00001000
,
00100000
00010000
10000000
00200000
00000000
10300000
01000000
00100000
,
00000000
00001000
00000000
00010000
00000000
00000010
00001000
00000002
,
00000100
00000000
00001003
00000000
00000100
00001000
00010000
00100000
,
00010000
00000000
10000000
00000000
01000000
10000000
00010000
00100000
,
00001000
00010000
00001000
00100000
00001000
00010000
00000100
00000010
,
00000001
00000000
00001000
00000100
00001000
00000010
00000100
00000001
,
00000010
00000000
00000100
00001000
00000100
00010000
00001000
00100000
,
01000000
00000000
10000000
00010000
01000000
00100000
10000000
02000000
,
00000000
03020000
00000000
00032000
00000000
00003020
00000000
00000031
,
00000100
00000010
00000010
00001000
00000010
00000010
00000100
00000000
,
00000001
00001000
00001000
00000100
00001000
00001000
00010000
00000000
,
00100000
00010000
00010000
10000000
01000000
01000000
00010000
01000000
,
10000000
00100000
00100000
00000000
01000000
01010000
00000000
10000000
,
00100000
01000000
00100000
01000000
00010000
10000000
01000000
00100000
,
00001000
00010000
00001000
00010000
00000100
00001000
00000010
00000200
,
00000000
00000301
00000010
00000200
00000000
00002300
00000000
00003001
,
00000100
00000000
00000010
00000000
00001000
00000001
00000000
00000001
,
00000100
00000000
00000010
00000000
00001000
00000100
00010000
00000100
,
00001000
00000000
00010000
00000000
00100000
00000000
00010000
10000000
,
00100000
01000000
00010000
01000000
00100000
01000000
00010000
01000000
,
00100000
10000000
01000000
00100000
01000000
11000000
00000000
10000000
,
00010000
00100000
00010000
00100000
00001000
00010000
00000100
00001000
,
00000010
00000100
00000010
00000100
00000001
00000010
00000100
00002000
,
00000000
00003010
00000100
00000002
00000000
00000203
00000000
00000310
,
00001000
00000000
00000100
00000000
00010000
00001000
00000000
00001000
,
00100000
00000000
00010000
00000000
10000000
01000000
00100000
01000000
,
10000000
00000000
00100000
00000000
01000000
00010000
00000000
00100000
,
00001000
00010000
00001000
00010000
00000100
00001000
00000100
00001000
,
00000010
00000100
00000010
00000100
00000001
00000010
00000100
00010000
,
00001000
00000000
00011000
00000000
00010000
00000000
00001000
00100000
,
00000000
00010000
10000000
00010000
00100000
00000000
01000000
10000000
,
01000000
00100000
00020000
00000000
00100000
00000000
00130000
00001000
,
00010000
00000100
00001000
00000100
00010000
00001000
00200000
00000000
,
01300000
00000000
00000000
00000000
,
00100000
00000000
00000000
00000000
,
00001000
00000000
00000000
00000000
00000000
00000000
00000000
00010000
,
00000000
00000000
00000100
00000000
,
00000010
00000001
00000010
00000001
00000010
00000001
00000010
00000001
,
00001000
00000100
00001000
00000100
00001000
00000100
00001000
00000100
,
00010000
00001000
00010000
00001000
00100000
00010000
00100000
00010000
,
02000000
00200000
00000000
03000000
00300000
00000000
20000000
00020000
,
30000000
10030000
01000000
00100000
01000000
10000000
01000000
00100000
,
00001000
00010000
00000100
00001000
00000100
00000010
00000100
00001000
,
00000010
00020000
00000000
00031000
00100000
00020000
00000000
02030000
,
00000000
03100000
10000000
00000000
01000000
00000000
00100000
00001000
,
00000000
00001000
00010000
00000000
00000100
00000000
00001000
00000010
,
00000001
00000010
00001000
00000000
00000001
00000000
00000010
00000000
,
00000001
00001000
00000010
00000100
00000001
00000100
00000010
00000100
,
00000001
00000100
00000010
00000100
00000001
00001000
00000100
00001100
,
00000000
00000100
00000010
00000001
00000010
00000001
00001000
00000100
,
00010000
00001000
01000000
00010000
01000000
00010000
00100000
01000000
,
10000000
02000000
00000000
03100000
00001000
00020000
00000000
00032000
,
00000000
00003100
00000001
00000000
00000010
00000000
00000100
00001000
,
00000000
00001000
00000010
00000000
00000100
00000000
00000001
00001000
,
00000100
00010000
00001000
00000000
00100000
00000000
00001000
01000000
,
00100000
01000000
00010000
00100000
01000000
00100000
00010000
00100000
,
01000000
00100000
00010000
10000000
01000000
00100000
00010000
00100000
,
01000000
10000000
00200000
00000000
01300000
00010000
00100000
00001000
,
00010000
00000100
00000020
00000000
00000031
00000000
00001000
00000010
,
00000100
00000001
00000010
00000100
00001000
00000100
00000010
00000001
,
00000010
00000100
00001000
00000100
00010000
00001000
00100000
00010000
,
01000000
00000000
10010000
00000000
10000000
00010000
02000000
00000000
,
03100000
01000000
00000000
00100000
10000000
00010000
00100000
00000000
,
00001000
00010000
00000100
00001000
00001100
00000000
00000000
00000000
;

//---------------dance-double - ----------------
#NOTES:
     dance-double:
     :
     Medium:
     6:
     0.451647,0.462589,0.163387,0.138879,0.000000,350.000000,20.000000,17.000000,0.000000,0.000000,0.000000,0.451647,0.462589,0.163387,0.138879,0.000000,350.000000,20.000000,17.000000,0.000000,0.000000,0.000000:
00000000
00000000
00000000
00000000
,
00000000
00000000
00000000
00000000
,
00001000
00010000
00001000
00010000
00000000
00000100
00001000
00000000
,
00000010
00000100
00000010
00000100
00000000
00000001
00000010
00000000
,
00000100
00001000
00000100
00020000
00000000
00031000
00200000
00000000
,
00310000
10000000
00010000
00000000
01000000
00100000
02000000
00000000
,
03010000
00000000
10000000
00000000
00010000
01000000
00010000
01000000
,
00000000
00000000
00100000
00000000
10000000
00000000
01000000
00100000
,
00000000
00000000
00010000
00100000
00000000
00001000
00000000
00010000
,
00000000
00000100
00000000
00000100
00000000
00002000
00000000
00000020
,
00000000
00003030
00000000
00000000
00000100
00000001
00000100
00000001
,
00000000
00000000
00000010
00000000
00000001
00000000
00001000
00000100
,
00000000
00010000
00000000
00001000
00000000
00100000
00000000
00100000
,
00000000
01000000
00000000
01000000
00000000
20000000
00000000
30010000
,
01000000
00000000
00100000
00000000
10000000
00010000
10000000
00000000
,
01000000
00000000
00100000
00000000
00001000
00010000
00001000
00010000
,
00000000
00000100
00000000
00000010
00000000
00000100
00001000
00000001
,
00002000
00000000
00003010
00000000
00000100
00000001
00000100
00000010
,
00000100
00000000
00000001
00000000
00001000
00000100
00001000
00000010
,
00001000
00000000
00000100
00000000
00010000
00000000
00001000
00200000
,
00000000
00320000
00000000
20030000
00000000
30200000
00000000
01300000
,
00010000
10000000
00010000
10000000
00000000
00100000
01000000
00000000
,
00010000
10000000
00010000
10000000
00000000
00100000
01000000
00000000
,
00010000
00100000
00010000
00200000
00000000
00000000
00302000
00000000
,
00023000
00000100
00030100
00000000
00000100
00001000
00000000
00001000
,
00000001
00000000
00000010
00000000
00000001
00001000
00000100
00001000
,
00000010
00000000
00001000
00000000
00000100
00010000
00000000
00001000
,
00000000
00100000
00010000
00100000
00000000
00010000
00000000
10000000
,
00000000
00000000
00100000
00000000
01000000
00100000
00000000
01000000
,
00100000
00000000
10000000
00000000
01000000
10000000
00000000
01000000
,
10000000
00000000
00010000
00000000
00100000
00000000
00001000
00010000
,
00001000
00011000
00010000
00010100
,
00000100
00000000
00000110
00000000
00000010
00000001
00000000
00000001
,
00001000
00000000
00000100
00000000
00001000
00000100
00010000
00001000
,
00100000
00000000
00010000
00000000
10000000
01000000
00000000
00100000
,
00000000
00001000
00010000
00001000
00000000
00010000
00000000
00000100
,
00000000
00000000
00000010
00000000
00000001
00001000
00000000
00000001
,
00001000
00000000
00000010
00000000
00000100
00000001
00000000
00000100
,
00000001
00000000
00001000
00000000
00000100
00000000
00010000
00001000
,
00010000
00011000
00001000
00101000
,
00100000
00000000
01100000
00000000
01000000
00000000
10000000
00010000
,
10000000
00000000
11000000
00000000
11000000
00000000
01000000
00100000
,
00000000
01000000
00100000
01000000
00100000
00000000
00010000
00100000
,
00001000
00100000
00001000
00000000
00010000
00000000
00000100
00000000
,
00010000
00001000
00000010
00000002
,
00001003
00000000
00000000
00000000
,
00000100
00000000
00000000
00000000
,
00010000
00000000
00000000
00000000
00000000
00000000
00000000
00001000
,
00000000
00000000
00100000
00000000
,
00010000
00000000
01000000
00000000
00010000
00000000
01000000
00010000
,
10000000
00000000
01000000
00000000
10000000
00000000
01000000
10000000
,
00100000
01000000
00100000
01000000
,
00002000
00020000
00000000
00000000
00003000
00000000
00031000
00000000
,
00000000
00000000
00011000
00000000
00010000
00000000
00001000
00100000
,
00010000
10000000
00010000
00000000
00100000
00000000
00010000
01000000
,
00000000
00100000
00000000
10000000
00010000
10000000
00000000
01000000
,
00000000
00100000
00000000
00000000
00001000
00000000
00010000
00000100
,
00000000
00010000
00000100
00000000
00001000
00000000
00000001
00000100
,
00000000
00000001
00000100
00000000
00000010
00000000
00001000
00000000
,
00000001
00000010
00000001
00000000
00000101
00000000
00000100
00000000
,
00000110
00000000
00000010
00000000
00001010
00000000
00001000
00000100
,
00000000
00000100
00010000
00000000
00001000
00000000
00100000
00010000
,
01000000
00100000
01000000
00000000
00010000
00000000
10000000
00010000
,
00000000
00100000
00000000
00001000
00010000
00001000
00000000
00100000
,
00000000
01000000
10000000
00000000
00010000
00000000
10000000
01000000
,
00000000
10000000
01000000
00000000
00100000
00000000
00001000
00010000
,
00000000
00001000
00010000
00000000
00000100
00000000
00001000
00000010
,
00000000
00000100
00000010
00000000
00001010
00000000
00001000
00000000
,
00001100
00000000
00000100
00000000
00010100
00000000
00010000
00001000
,
00000000
00001000
00100000
00000000
00010000
00000000
10000000
01000000
,
00000000
01000000
00100000
00000000
00010000
00000000
01000000
00000000
,
00010000
10000000
01000000
00000000
11000000
00000000
10000000
00000000
,
10010000
00000000
00010000
00000000
01010000
00000000
00010000
10000000
,
00010000
00110000
00110000
00100000
,
00001000
00100000
00000000
00010000
10000000
01000000
10000000
00000000
,
10000000
00010000
00100000
01000000
10000000
00000000
00000000
00000000
;

//---------------dance-double - ----------------
#NOTES:
     dance-double:
     :
     Easy:
     4:
     0.317437,0.400910,0.147048,0.147048,0.000000,236.000000,18.000000,18.000000,0.000000,0.000000,0.000000,0.317437,0.400910,0.147048,0.147048,0.000000,236.000000,18.000000,18.000000,0.000000,0.000000,0.000000:
00000000
00000000
00000000
00000000
,
00000000
00000000
00000000
00000000
,
00001000
00000000
00100000
00010000
,
10000000
00000000
01000000
00100000
,
00002000
00000000
00023000
00000000
,
00030100
00000000
00001000
00000001
,
00000100
00000000
00000010
00001000
,
00000001
00000000
00000010
00000100
,
00001000
00000000
00000100
00000000
,
00010000
00001000
00100000
00010000
,
10000000
00000000
00100000
01000000
,
00010000
00000000
10000000
01000000
,
00100000
00000000
00010000
00100000
,
00001000
00010000
00001000
00000100
,
00000010
00000000
00000100
00000001
,
00001000
00000000
00000100
00001000
,
00000001
00000000
00000010
00000100
,
00001000
00000000
00000100
00010000
,
00001000
00000000
00100000
00010000
,
10000000
00000000
00100000
01000000
,
00010000
10000000
01000000
00100000
,
00010000
01010000
10000000
11000000
,
00200000
02300000
03002000
00013000
,
00000100
00001100
00000001
00000011
,
00001000
00001000
00000020
00000030
,
00000110
00000100
00000100
00000001
,
00001000
00001000
00000100
00010000
,
00002000
00000000
00203000
00000000
,
00310000
10000000
01000000
00000000
,
10000000
00010000
01000000
00000000
,
00100000
01000000
00001000
00010000
,
00000100
00000010
00000100
00000010
,
00000001
00001000
00001001
00000000
,
00000110
00000010
00000010
00001000
,
00000100
00000100
00010000
00001000
,
00200000
00000000
02300000
00000000
,
13000000
01000000
00100000
00000000
,
00001000
00010000
00000100
00000000
,
00000010
00000001
00001000
00000000
,
00000100
00010000
00000100
00010000
,
00001000
00100000
00001000
00100000
,
00110000
00110000
00010000
00000000
,
10000000
00000000
00100000
01000000
,
10010000
10010000
01000000
00000000
,
01000000
00000000
00010000
00200000
,
00301000
00000000
00000000
00000000
,
00010000
00000000
00000000
00000000
,
00002000
00000000
00000000
00000000
00000000
00000000
00000000
00003000
,
00000000
00000000
00000100
00000000
,
00000001
00001000
00000001
00001000
,
00000100
00010000
00000100
00010000
,
00001000
00100000
00001000
01000000
,
20020000
00000000
00000000
30030000
,
00000000
01100000
00100000
00100000
,
10000000
01000000
01000000
00100000
,
00001000
00020000
00000000
00030200
,
00000000
00000310
00000001
00000100
,
00000000
00000010
00001000
00000001
,
00000000
00001000
00000100
00010000
,
00000000
00001000
00100000
00001000
,
00100000
00010000
01000000
01100000
,
00000000
10010000
00010000
00010000
,
00100000
01000000
01000000
00100000
,
00001000
00020000
00000000
00030020
,
00000000
00001030
00000001
00000100
,
00000000
00000010
00010000
00001000
,
00000000
00100000
00010000
10000000
,
01000000
10000000
00100000
10000000
,
00100000
01000000
00010000
01000000
,
00010000
00100000
00001000
00100000
,
00001000
00010000
00000100
00010000
,
00000100
00001000
00000001
00000010
,
00000100
00001000
00010000
00100000
,
00001000
00011000
00011000
00000100
,
00001000
00000001
00000100
00000001
,
00001000
00000100
00000101
00000000
;
