#TITLE:Second Nature;
#SUBTITLE:;
#ARTIST:Starz ft. Veela;
#TITLETRANSLIT:;
#SUBTITLETRANSLIT:;
#ARTISTTRANSLIT:;
#GENRE:Drum'n'bass;
#CREDIT:;
#BANNER:Second Nature-bn.png;
#BACKGROUND:Second Nature-bg.png;
#LYRICSPATH:;
#CDTITLE:PROJECT GOLDENROD-cdtitle.png;
#MUSIC:Second Nature.mp3;
#OFFSET:-0.100000;
#SAMPLESTART:87.810997;
#SAMPLELENGTH:21.962999;
#SELECTABLE:YES;
#BPMS:0.000000=175.000000
;
#STOPS:
;
#BGCHANGES:;
#KEYSOUNDS:;
#ATTACKS:;

//---------------dance-single - ----------------
#NOTES:
     dance-single:
     :
     Hard:
     7:
     0.501429,0.581018,0.246447,0.276319,0.000000,400.000000,33.000000,37.000000,0.000000,0.000000,0.000000,0.501429,0.581018,0.246447,0.276319,0.000000,400.000000,33.000000,37.000000,0.000000,0.000000,0.000000:
0000
0000
0000
0000
,
0000
0000
0000
0000
,
0000
0000
0000
0000
,
0000
0000
0000
0000
,
0000
0000
0000
0000
,
0000
0000
0000
0000
,
0000
0000
0000
0000
,
0000
0000
0000
0000
,
0010
0000
1000
0000
,
0001
0010
0001
0000
,
1000
0000
0100
0000
,
0010
0001
1000
0000
,
0001
0000
0010
0000
,
0100
1000
0001
0000
,
1000
0000
0100
0000
,
0020
0000
0000
0030
,
1001
0000
0000
1000
0000
0000
1000
0000
,
0000
0001
0000
0000
0001
0000
0000
0100
,
0010
0000
0000
0010
0000
0000
0010
0000
,
0000
1000
0000
0000
1000
0000
0000
0001
,
0100
0000
0000
0100
0000
0000
0100
0000
,
0000
0010
0000
0000
0010
0000
0000
1000
,
0100
0000
0000
0100
0000
0000
0100
0000
,
0000
0001
0000
0000
0001
0000
0000
0001
,
0100
1000
0100
1000
,
0001
0100
0001
0100
,
0010
1000
0001
0100
,
0010
1000
0001
0100
,
0001
0010
0100
1000
,
0001
0010
0100
1000
,
0010
1000
0010
1000
0001
0010
0001
0010
,
0001
0101
1000
1100
,
0110
0000
0010
0000
1000
0100
0010
0000
,
0001
0000
1000
0000
0010
0100
0001
0000
,
0010
0000
0100
0000
1000
0001
0100
0000
,
0001
0000
0010
0100
1000
0100
0010
0001
,
0100
0000
1001
0000
1000
0010
0100
0000
,
0001
0000
1000
0000
0100
0010
0001
0000
,
0010
0000
0001
0000
0100
0010
1000
0000
,
0100
0000
0010
0100
1000
0001
0100
0010
,
0100
0000
0101
0000
1000
0100
1000
0000
,
0001
0000
0010
0000
0100
1000
0010
0000
,
0100
0000
0001
0000
0010
0001
1000
0000
,
0100
0000
1000
0000
0001
0010
0100
1000
,
0001
0000
1100
0000
0010
1000
0100
0000
,
1000
0000
0001
0000
0010
0001
0100
0000
,
0010
0000
1000
0000
0001
0010
0100
0000
,
1000
0000
0010
0000
1000
0100
0010
0001
,
0200
0000
0000
0310
1000
0000
1000
0000
,
0101
0000
1001
0000
0102
0000
0000
1003
,
0020
0000
0130
0001
2000
0000
3020
0000
,
1000
0000
1030
0001
2000
0000
3001
0000
,
0200
0000
0000
0301
0010
0000
0010
0000
,
1100
0000
1001
0000
2100
0000
0000
3010
,
0200
0000
0301
1000
0002
0000
0023
0000
,
0100
0000
0130
1000
0001
1000
0100
1000
,
0020
0000
0000
0130
0001
0000
0001
0000
,
1100
0000
0110
0000
0021
0000
0000
0130
,
2000
0000
3001
0100
0002
0000
0023
0000
,
0100
0000
0130
1000
0001
1000
0001
0010
,
0200
0000
0000
0310
0001
0000
1000
0000
,
0011
0000
0110
0000
1200
0000
0000
0310
,
0002
0000
1003
0010
0200
0000
0320
0000
,
1030
0100
1000
0100
0010
0001
1000
0000
,
1001
0110
1001
0002
,
0103
0000
0010
1000
0010
0000
0100
0000
,
0001
0000
0010
0000
0001
0000
1000
0010
,
0000
0100
0000
0001
0000
1000
0100
0000
,
0110
1001
0110
1000
,
0001
0000
0010
1000
0000
0010
0001
0000
,
1000
0000
0100
0000
1000
0000
0010
0100
,
0000
0001
0000
1000
0000
0001
0010
0000
,
1100
0101
1100
0002
,
0013
0100
0000
1000
0000
0001
0100
0000
,
0010
0000
2000
0000
3200
0000
1300
0001
,
0000
0100
0000
0010
0000
1000
0001
0000
,
0101
0000
1100
0000
0101
0000
1000
0010
,
0100
0000
0001
0010
0000
0100
1000
0000
,
0020
0000
0230
0000
0302
0000
1003
0100
,
1000
0010
1000
0001
1000
0100
1000
0100
,
0010
0000
0010
0000
0010
0000
0001
0010
,
0100
0000
1000
0100
0000
1000
0100
0000
,
0010
0000
0001
0000
1000
0000
0010
0100
,
0000
0010
0000
1000
0000
0001
0100
0000
,
0002
0000
0100
0000
2003
0000
3100
1000
,
0010
0000
1000
0100
0000
0001
0100
0000
,
1000
0010
1000
0010
0100
0001
0100
0002
,
0000
0023
0000
0230
0000
1300
0001
0000
,
1000
0000
1000
0000
1000
0000
0100
0010
,
0001
0000
0010
0100
0000
0010
0001
0000
,
1000
0000
0001
0000
0100
0000
0010
1000
,
0000
0001
0000
1000
0000
0100
0010
0001
,
0200
0000
0001
0000
0320
0000
1030
0001
,
1000
0000
1000
0010
0000
0001
0010
0000
,
0100
0000
0001
0000
0100
0000
0010
1000
,
0000
0101
0000
1100
0000
1000
0001
0020
,
0000
0000
0000
0000
,
0000
0030
0000
0000
;

//---------------dance-single - ----------------
#NOTES:
     dance-single:
     :
     Medium:
     6:
     0.426748,0.508390,0.156830,0.097085,0.000000,366.000000,21.000000,13.000000,0.000000,0.000000,0.000000,0.426748,0.508390,0.156830,0.097085,0.000000,366.000000,21.000000,13.000000,0.000000,0.000000,0.000000:
0000
0000
0000
0000
,
0000
0000
0000
0000
,
0000
0000
0000
0000
,
0000
0000
0000
0000
,
0000
0000
0000
0000
,
0000
0000
0000
0000
,
0000
0000
0000
0000
,
0000
0000
0000
0000
,
1000
0000
0100
0000
,
0010
0000
0001
0000
,
0100
0000
0001
0000
,
0010
0000
0100
0000
,
1000
0000
0010
0000
,
1000
0000
0100
0000
,
0001
0000
0100
0000
,
1000
0000
0100
0000
,
1001
0000
0000
0001
0000
0000
1000
0000
,
0000
0010
0000
0000
0010
0000
0000
0000
,
1000
0000
0000
0001
0000
0000
1000
0000
,
0000
0100
0000
0000
0010
0000
0000
0000
,
0001
0000
0000
0010
0000
0000
0001
0000
,
0000
1000
0000
0000
1000
0000
0000
0000
,
0010
0000
0000
1000
0000
0000
0100
0000
,
0000
0010
0000
0000
0001
0000
0000
0000
,
1000
1000
0010
0010
,
0100
0001
1000
0001
,
0010
0010
0100
0100
,
1000
0001
1000
0100
,
0010
0010
0001
0001
,
1000
0100
0010
0001
,
1000
0010
0001
0010
,
1000
1001
0010
1001
,
0110
0000
0001
0000
0000
1000
0010
0000
,
0100
0000
0001
0000
0000
0010
0100
0000
,
1000
0000
0001
0000
0000
1000
0010
0000
,
0100
0000
0001
0000
0000
1000
0010
1000
,
0001
0000
0010
0000
0000
0100
1000
0000
,
0001
0000
0100
0000
0000
0010
0100
0000
,
0001
0000
1000
0000
0000
0100
0001
0000
,
0100
0000
1000
0000
0000
0001
1000
0010
,
0100
0000
0110
0000
0000
1000
0001
0000
,
1000
0000
1100
0000
0000
0010
0001
0000
,
0100
0000
1001
0000
0000
0001
0100
0000
,
0010
0000
1001
0000
0000
0010
1000
0001
,
0010
0000
0110
0000
0000
0100
1000
0000
,
0010
0000
1100
0000
0000
1000
0001
0000
,
0010
0000
0101
0000
0000
0100
0010
0000
,
1000
0000
0011
0000
0000
0010
0100
1000
,
0001
0000
1000
0000
0010
1000
0001
0000
,
0020
0000
0031
0000
0110
0000
0000
1000
,
0001
0000
0001
0100
0020
0000
1000
0000
,
0000
0000
0130
0001
1000
0000
0001
0000
,
0101
0000
0010
0000
1000
0100
0010
0000
,
0200
0000
1300
0000
1001
0000
0000
1000
,
0010
0000
1000
0100
0020
0000
0001
0000
,
0000
0000
0130
0010
0100
0000
1000
0000
,
0001
0000
0100
0010
0100
0000
0001
0000
,
2000
0000
3200
0000
0320
0000
0031
0100
,
0001
0000
1000
0010
0100
0000
0001
0000
,
1000
0000
0001
1000
0010
0000
0110
0000
,
1001
0000
0001
1000
0100
0000
1000
0000
,
0002
0000
0023
0000
0230
0000
1300
0100
,
0010
0000
0001
0010
0100
0000
1000
0000
,
0010
0100
0010
0100
0010
0100
0010
0000
,
1001
1000
0001
0001
,
0010
0000
0001
1000
0100
0000
1000
0000
,
0010
0000
0010
0000
0100
0000
0001
1000
,
0000
1000
0000
0001
0000
0001
0100
0000
,
0110
0100
0001
0001
,
1000
0000
0100
1000
0001
0000
0100
0000
,
1000
0000
0100
0000
0001
0000
1000
0100
,
0000
0100
0000
0010
0000
0010
0001
1000
,
0001
1000
0010
0100
,
0001
0000
1000
0000
0100
1000
0001
0000
,
0100
0000
0010
0000
1000
0000
0010
1000
,
0000
1000
0000
0001
0000
0001
0100
0000
,
0110
0000
1000
0000
0001
0000
1000
0100
,
0010
0000
0001
1000
0001
0000
0100
0000
,
0010
0000
0100
0000
1000
0000
0100
0010
,
0000
0010
0000
0100
0000
0100
0001
0000
,
2001
0000
0000
0000
3010
0000
1000
0100
,
1000
0000
0001
0100
0001
0000
0010
0000
,
0100
0000
1000
0000
0010
0000
0100
0001
,
0000
0001
0000
1000
0000
0100
1000
0100
,
0010
0000
0100
0000
1000
0000
0010
0100
,
0001
0000
0010
0100
1000
0000
0010
0000
,
1000
0000
0100
0000
0010
0000
0100
1000
,
0000
1000
0000
0001
0000
0001
0010
0001
,
0200
0000
0000
0000
0301
0000
1000
0001
,
0100
0000
0010
1000
0001
0000
0010
0000
,
0100
0000
1000
0000
0001
0000
0010
0001
,
0000
0001
0000
1000
0000
0010
1000
0001
,
0100
0000
0010
0000
1000
0000
0100
1000
,
0001
0000
0010
0001
0100
0000
0010
0000
,
1000
0000
0100
0000
1000
0000
0010
0001
,
0000
0001
0000
0010
0000
0010
1000
0002
,
0000
0000
0000
0000
,
0000
0003
0000
0000
;

//---------------dance-single - ----------------
#NOTES:
     dance-single:
     :
     Easy:
     4:
     0.332864,0.431282,0.179234,0.141894,0.000000,269.000000,24.000000,19.000000,0.000000,0.000000,0.000000,0.332864,0.431282,0.179234,0.141894,0.000000,269.000000,24.000000,19.000000,0.000000,0.000000,0.000000:
0000
0000
0000
0000
,
0000
0000
0000
0000
,
0000
0000
0000
0000
,
0000
0000
0000
0000
,
0000
0000
0000
0000
,
0000
0000
0000
0000
,
0000
0000
0000
0000
,
0000
0000
0000
0000
,
0010
0000
0000
0000
,
0100
0000
0000
0000
,
0001
0000
1000
0000
,
0001
0000
0000
0000
,
0010
0000
0000
0000
,
0100
0000
0000
0000
,
1000
0000
0100
0000
,
0020
0000
0000
0030
,
0011
0000
0001
0000
,
1000
0100
1000
0000
,
0010
0000
0100
0000
,
0001
0010
0100
0000
,
2000
0000
3002
0000
,
0103
0010
0100
0001
,
2000
0000
3020
0000
,
1030
0001
0100
0000
,
0010
1000
0010
1000
,
0001
0100
0001
0100
,
0001
0010
0001
0010
,
0100
1000
0100
1000
,
0010
0100
0010
0100
,
0001
1000
0001
1000
,
0001
0010
0100
1000
,
0001
0101
1000
2100
,
3010
0100
0000
1001
,
0010
0001
0000
1100
,
0001
1000
0000
0110
,
0100
0001
1000
0110
,
0001
1000
0000
0101
,
1000
0010
0000
1100
,
0001
0010
0000
1001
,
1000
0100
0010
0011
,
0100
0010
0000
0101
,
1000
0010
0000
1100
,
1000
0001
0000
0110
,
0001
0010
0100
1001
,
0100
0100
0000
0101
,
0001
1000
0000
0110
,
0001
1000
0000
0011
,
0100
1000
0001
1001
,
0100
0000
0100
0010
,
1000
1000
2000
3000
,
0001
0000
0010
0001
,
0000
0100
0010
0000
,
1001
0000
0010
0001
,
0010
0010
0020
0030
,
0100
0000
1000
0001
,
0000
0100
0010
1000
,
1000
0000
0010
0100
,
0001
0001
0002
0003
,
0010
0000
0100
1000
,
0000
0001
0100
0000
,
0010
0000
1000
0001
,
0100
0100
0200
0300
,
0001
0000
1000
0100
,
0020
0032
2003
3010
,
1001
1000
0010
0100
,
0001
0010
0100
0000
,
1000
0001
0100
1000
,
0100
0001
0010
0100
,
1000
0100
0010
0001
,
0100
0010
0100
0000
,
0001
0010
0001
1000
,
0100
0010
0001
1000
,
0110
0010
1000
0001
,
0010
0100
1000
0000
,
0000
0001
0100
0001
,
0010
1000
0010
0001
,
1000
0100
1000
0100
,
0010
0001
1000
0000
,
0010
1000
0001
0010
,
0100
0010
0001
1000
,
0020
0000
1030
0000
,
0001
0100
0100
0000
,
0010
1000
0001
1000
,
0100
0000
0010
0001
,
2000
0000
3100
0000
,
1000
0001
0100
0000
,
0010
1000
0100
0000
,
0010
0001
1000
0001
,
0200
0000
0301
0000
,
0010
0100
1000
0000
,
0010
1000
0001
0000
,
0100
0010
1000
0000
,
0002
0000
0013
0000
,
0100
1000
0001
0000
,
0100
0010
0100
0001
,
1000
0100
0011
2020
,
0000
3030
0000
0000
;

//---------------dance-single - ----------------
#NOTES:
     dance-single:
     :
     Beginner:
     1:
     0.136559,0.213961,0.037340,0.119489,0.000000,107.000000,5.000000,16.000000,0.000000,0.000000,0.000000,0.136559,0.213961,0.037340,0.119489,0.000000,107.000000,5.000000,16.000000,0.000000,0.000000,0.000000:
0000
0000
0000
0000
,
0000
0000
0000
0000
,
0000
0000
0000
0000
,
0000
0000
0000
0000
,
0000
0000
0000
0000
,
0000
0000
0000
0000
,
0000
0000
0000
0000
,
0000
0000
0000
0000
,
0020
0000
0000
0000
,
0000
0000
0030
0000
,
0002
0000
0000
0000
,
0000
0000
0003
0000
,
2000
0000
0000
0000
,
0000
0000
3000
0000
,
0100
0000
0000
0000
,
0100
0000
0000
0000
,
1001
0000
0000
0000
,
0100
0000
0000
0000
,
0010
0000
0000
0000
,
1000
0000
0000
0000
,
0001
0000
0000
0000
,
1000
0000
0000
0000
,
0100
0000
0000
0000
,
0010
0000
0000
0000
,
0001
0000
0001
0000
,
0001
0000
0000
0000
,
1000
0000
1000
0000
,
1000
0000
0000
0000
,
0010
0000
0010
0000
,
0010
0000
0000
0000
,
0100
0000
0100
0000
,
0200
0000
0300
0000
,
0110
0000
0000
0000
,
1000
0000
0000
0000
,
0001
0000
0000
0000
,
0010
0000
0000
0000
,
0100
0000
0000
0000
,
1000
0000
0000
0000
,
0001
0000
0000
0000
,
0010
0000
0000
0000
,
0100
0000
0000
0000
,
1000
0000
0000
0000
,
0001
0000
0000
0000
,
0100
0000
0000
0000
,
1000
0000
0000
0000
,
0100
0000
0000
0000
,
0001
0000
0000
0000
,
1000
0000
0000
0000
,
0210
0000
0300
0000
,
0001
0001
0001
0000
,
0020
0000
0030
0000
,
0100
0000
0000
0000
,
2000
0000
3000
0000
,
0100
0100
0100
0000
,
1000
0000
0000
0000
,
0001
0000
0000
0000
,
0120
0000
0030
0000
,
1000
1000
1000
0000
,
0001
0000
0000
0000
,
0100
0000
0000
0000
,
0002
0000
0003
0000
,
0010
0010
0010
0000
,
0100
0000
0000
0000
,
1000
0000
0001
0000
,
1001
0000
0000
0000
,
0100
0000
0000
0000
,
0010
0000
0000
0000
,
1000
0000
0000
0000
,
0001
0000
0000
0000
,
0010
0000
0000
0000
,
0100
0000
0000
0000
,
1000
0000
0000
0000
,
0010
0000
0000
0000
,
0100
0000
0000
0000
,
0001
0000
0000
0000
,
0010
0000
0000
0000
,
0100
0000
0000
0000
,
1000
0000
0000
0000
,
0100
0000
0000
0000
,
0001
0000
0000
0000
,
0100
0000
1000
0000
,
0020
0000
0030
0000
,
0100
0000
0001
0000
,
0020
0000
0030
0000
,
0001
0000
1000
0000
,
0200
0000
0300
0000
,
0010
0000
0100
0000
,
2000
0000
3000
0000
,
0010
0000
1000
0000
,
0002
0000
0003
0000
,
0010
0000
0001
0000
,
0200
0000
0300
0000
,
0010
0000
1000
0000
,
0002
0000
0003
0000
,
1000
0000
0001
0000
,
0100
0000
0100
0000
;

//---------------dance-double - ----------------
#NOTES:
     dance-double:
     :
     Hard:
     8:
     0.564374,0.578030,0.358468,0.164298,0.000000,459.000000,48.000000,22.000000,0.000000,0.000000,0.000000,0.564374,0.578030,0.358468,0.164298,0.000000,459.000000,48.000000,22.000000,0.000000,0.000000,0.000000:
// measure 0
00000000
00000000
00000000
00000000
,  // measure 1
00000000
00000000
00000000
00000000
,  // measure 2
00000000
00000000
00000000
00000000
,  // measure 3
00000000
00000000
00000000
00000000
,  // measure 4
00000000
00000000
00000000
00000000
,  // measure 5
00000000
00000000
00000000
00000000
,  // measure 6
00000000
00000000
00000000
00000000
,  // measure 7
00000000
00000000
00000000
00000000
,  // measure 8
00010000
00001000
00100000
00000000
,  // measure 9
00010000
00000000
10000000
00000000
,  // measure 10
01000000
00100000
00010000
00000000
,  // measure 11
00100000
00000000
00001000
00000000
,  // measure 12
00000100
00000000
00000010
00000000
,  // measure 13
00000100
00000001
00001000
00000000
,  // measure 14
00000001
00000000
00000020
00000000
,  // measure 15
00000200
00000000
00000000
00000330
,  // measure 16
00001001
00000000
00000000
00001000
00000000
00000000
00000100
00000000
,  // measure 17
00000000
00010000
00000000
00000000
00001000
00000000
00000000
00001000
,  // measure 18
00100000
00000000
00000000
00010000
00000000
00000000
10000000
00000000
,  // measure 19
00000000
01000000
00000000
00000000
00100000
00000000
00000000
00100000
,  // measure 20
01000000
00000000
00000000
10000000
00000000
00000000
00010000
00000000
,  // measure 21
00000000
00100000
00000000
00000000
10000000
00000000
00000000
00100000
,  // measure 22
00010000
00000000
00000000
01000000
00000000
00000000
00100000
00000000
,  // measure 23
00000000
01000000
00000000
00000000
00001000
00000000
00000000
00010000
,  // measure 24
00000100
00000010
00000001
00001000
,  // measure 25
00000010
00000100
00000010
00001000
00000001
00000000
00000010
00000000
,  // measure 26
00000100
00001000
00000100
00010000
,  // measure 27
00001000
00100000
00010000
00100000
00001000
00010000
00001000
00000000
,  // measure 28
01000000
00100000
10000000
01000000
,  // measure 29
00100000
00010000
10000000
01000000
00100000
00000000
01000000
00000000
,  // measure 30
10000000
00010000
10000000
00100000
01000000
00010000
00100000
00001000
,  // measure 31
00010000
00000100
00010100
00000000
00000100
00001000
00001001
00000000
,  // measure 32
00000010
00000000
00000011
00000000
00000001
00000100
00000010
00000000
,  // measure 33
00001000
00000000
00001100
00000000
00000100
00001000
00010000
00000000
,  // measure 34
00100000
00000000
01100000
00000000
00100000
00010000
10000000
00000000
,  // measure 35
00100000
00000000
10100000
00000000
10000000
01000000
00010000
01000000
,  // measure 36
00100000
00000000
00110000
00000000
00100000
00001000
00010000
00000000
,  // measure 37
00000100
00000000
00001100
00000000
00000010
00000001
00001000
00000000
,  // measure 38
00000010
00000000
00000110
00000000
00001000
00000001
00000010
00000000
,  // measure 39
00000100
00000000
00001100
00000000
00000100
00010000
00001000
00010000
,  // measure 40
00100000
00000000
10010000
00000000
10000000
01000000
00010000
00000000
,  // measure 41
01000000
00000000
10010000
00000000
00010000
00100000
00001000
00000000
,  // measure 42
00010000
00000000
00010100
00000000
00000100
00001000
00000010
00000000
,  // measure 43
00000100
00000000
00000110
00000000
00000001
00000010
00001000
00000010
,  // measure 44
00000001
00000000
00000101
00000000
00000010
00000001
00001000
00000000
,  // measure 45
00000010
00000000
00001010
00000000
00000100
00001000
00000001
00000000
,  // measure 46
00000010
00000000
00001100
00000000
00000100
00010000
00001000
00000000
,  // measure 47
00100000
00001000
00100000
00010000
10000000
00010000
01000000
00100000
,  // measure 48
02000000
00000000
03010000
10000000
01000000
00100000
00010000
00000000
,  // measure 49
11000000
00000000
01100000
00000000
00210000
00000000
00310000
00100000
,  // measure 50
00001000
00000000
00010000
00000010
00000100
00000000
00002000
00000000
,  // measure 51
00003100
00000000
00000001
00001000
00000100
00000010
00000001
00000100
,  // measure 52
00000002
00000000
00000013
00000100
00001000
00000100
00010000
00000000
,  // measure 53
00011000
00000000
00101000
00000000
02100000
00000000
13000000
00010000
,  // measure 54
00100000
00000000
01000000
10000000
00010000
00000000
00200000
00000000
,  // measure 55
00301000
00000000
00010000
00001000
00010000
00100000
01000000
10000000
,  // measure 56
02000000
00000000
03100000
01000000
00010000
10000000
01000000
00000000
,  // measure 57
01010000
00000000
00101000
00000000
00010200
00000000
00001300
00000001
,  // measure 58
00000100
00000000
00000010
00001000
00000100
00000000
00000002
00000000
,  // measure 59
00000103
00001000
00000001
00000010
00000100
00010000
00001000
00010000
,  // measure 60
00000020
00000000
00001030
00000100
00000010
00000001
00001000
00000000
,  // measure 61
00001100
00000000
00001010
00000000
00001002
00000000
00001003
00000100
,  // measure 62
00010000
00000000
00001000
00100000
02000000
00000000
13000000
00000000
,  // measure 63
00100000
01000000
10000000
01000000
00010000
01000000
10000000
00000000
,  // measure 64
01100000
01010000
10010000
00200000
,  // measure 65
10300000
01000000
00100000
00010000
00100000
00001000
00010000
00000100
,  // measure 66
00001000
00000000
00000010
00000000
00000100
00000000
00000001
00000010
,  // measure 67
00000100
00001000
00000100
00000010
00000001
00001000
00000010
00000000
,  // measure 68
00000110
00000101
00001100
00000200
,  // measure 69
00010300
00001000
00100000
00010000
01000000
00100000
01000000
10000000
,  // measure 70
01000000
00000000
00100000
00000000
10000000
00000000
01000000
00100000
,  // measure 71
00010000
00100000
00001000
00010000
00000100
00000010
00000001
00001000
,  // measure 72
00001100
00010100
00011000
00200000
,  // measure 73
00310000
01000000
00010000
10000000
00100000
00010000
00100000
10000000
,  // measure 74
01000000
00000000
00100000
00000000
00001000
00000000
00010000
00001000
,  // measure 75
00000100
00000010
00000100
00000001
00001000
00000100
00000010
00000000
,  // measure 76
00001001
00000000
00000110
00000000
00001001
00000000
00000010
00001000
,  // measure 77
00000100
00010000
00001000
00100000
01000000
10000000
00010000
01000000
,  // measure 78
00100000
00000000
00010000
00000000
00100000
00000000
10000000
00010000
,  // measure 79
10000000
01000000
10000000
00010000
10000000
01000000
00010000
00001000
,  // measure 80
00000200
00000000
00000010
00000000
00000301
00000100
00000010
00001000
,  // measure 81
00000100
00000000
00010000
00001000
00010000
00000000
00011000
00000000
,  // measure 82
00100000
00010000
00100000
00010000
10000000
01000000
00100000
01000000
,  // measure 83
00000000
10000000
00000000
01000000
00000000
00100000
00010000
00100000
,  // measure 84
00002000
00000000
00010000
00000000
00103000
00000000
00001000
00010000
,  // measure 85
00000100
00000000
00000100
00000010
00000100
00000000
00001001
00000000
,  // measure 86
00000010
00000001
00000010
00000001
00001000
00000100
00000010
00000001
,  // measure 87
00000000
00000100
00000000
00000010
00001000
00000100
00001000
00010000
,  // measure 88
00200000
00000000
01000000
00000000
00310000
00000000
00100000
01000000
,  // measure 89
10000000
00000000
00010000
10000000
00010000
00000000
01100000
00000000
,  // measure 90
10000000
00100000
01000000
00010000
01000000
00010000
00100000
01000000
,  // measure 91
00000000
10000000
00000000
00010000
00000000
00100000
00001000
00010000
,  // measure 92
00002000
00000000
00000100
00000000
00013000
00000000
00001000
00000010
,  // measure 93
00000001
00000000
00000001
00000100
00000010
00000000
00001100
00000000
,  // measure 94
00000100
00010000
00001000
00100000
00010000
00100000
00001000
00010000
,  // measure 95
00000000
00010100
00000000
00000110
00000000
00000010
00001000
00020000
,  // measure 96
00000000
00000000
00000000
00030000
;

//---------------dance-double - ----------------
#NOTES:
     dance-double:
     :
     Medium:
     6:
     0.442751,0.465402,0.112021,0.231511,0.000000,369.000000,15.000000,31.000000,0.000000,0.000000,0.000000,0.442751,0.465402,0.112021,0.231511,0.000000,369.000000,15.000000,31.000000,0.000000,0.000000,0.000000:
00000000
00000000
00000000
00000000
,
00000000
00000000
00000000
00000000
,
00000000
00000000
00000000
00000000
,
00000000
00000000
00000000
00000000
,
00000000
00000000
00000000
00000000
,
00000000
00000000
00000000
00000000
,
00000000
00000000
00000000
00000000
,
00000000
00000000
00000000
00000000
,
10000000
00000000
01000000
00000000
,
00100000
00000000
00010000
00000000
,
00001000
00000000
00000100
00000000
,
00000010
00000000
00000001
00000000
,
00001001
00000000
00000010
00000000
,
00000100
00000000
00001000
00000000
,
00010000
00000000
00100000
00000000
,
02000000
00000000
20000000
33000000
,
10010000
00000000
00000000
00010000
00000000
00000000
10000000
00000000
,
00000000
01000000
00000000
00000000
01000000
00000000
00000000
00000000
,
00100000
00000000
00000000
00001000
00000000
00000000
00010000
00000000
,
00000000
00000100
00000000
00000000
00000010
00000000
00000000
00000000
,
00000001
00000000
00000000
00000100
00000000
00000000
00001000
00000000
,
00000000
00000100
00000000
00000000
00000001
00000000
00000000
00000000
,
00000010
00000000
00000000
00000100
00000000
00000000
00001000
00000000
,
00000000
00000100
00000000
00000000
00010000
00000000
00000000
00000000
,
00011000
00001000
00100000
00010000
,
10000000
10000000
01000000
00100000
,
00010000
00010000
00100000
00001000
,
00010000
00000100
00002000
00003002
,
00000013
00000010
00000001
00001000
,
00000100
00000100
00001000
00000010
,
00000100
00000001
00000100
00000000
00000010
00001000
00000010
00000000
,
00001000
00001100
00000100
00000011
,
00000010
00000000
00000001
00000000
00000000
00001000
00000100
00000000
,
00001000
00000000
00000010
00000000
00000000
00010000
00001000
00000000
,
00100000
00000000
00010000
00000000
00000000
10000000
01000000
00000000
,
00100000
00000000
00010000
00000000
00000000
10000000
00010000
00100000
,
00010000
00000000
00100000
00000000
00000000
00001000
00010000
00000000
,
00000100
00000000
00000010
00000000
00000000
00000001
00000100
00000000
,
00000010
00000000
00001000
00000000
00000000
00000100
00001000
00000000
,
00000010
00000000
00000100
00000000
00000000
00000001
00000010
00000001
,
00001000
00000000
00001100
00000000
00000000
00000100
00010000
00000000
,
00001000
00000000
00101000
00000000
00000000
00100000
00010000
00000000
,
10000000
00000000
10010000
00000000
00000000
00100000
10000000
00000000
,
01000000
00000000
11000000
00000000
10000000
00010000
01000000
00010000
,
10000000
00000000
10100000
00000000
00000000
00100000
01000000
00000000
,
00010000
00000000
00110000
00000000
00000000
00100000
00001000
00000000
,
00010000
00000000
00011000
00000000
00000000
00001000
00000100
00000000
,
00000010
00000000
00001001
00000000
00000010
00000100
00000010
00000000
,
00002000
00000000
00000000
00003010
00001000
00000010
00001000
00000000
,
00000001
00000000
00000001
00000000
00000020
00000000
00000000
00000130
,
00001000
00000000
00000100
00001000
00000100
00000000
00020000
00000000
,
00000000
00000000
00031000
00100000
00001000
00000000
00010000
00000000
,
02000000
00000000
00000000
13000000
01000000
10000000
01000000
00000000
,
00100000
00000000
00100000
00000000
00020000
00000000
00000000
01030000
,
00100000
00000000
01000000
00010000
01000000
00000000
00200000
00000000
,
00000000
00000000
10300000
01000000
00100000
00000000
00001000
00000000
,
00020000
00000000
00000000
00030100
00010000
00000100
00010000
00000000
,
00000010
00000000
00000010
00000000
00000200
00000000
00000000
00000301
,
00000010
00000000
00000100
00001000
00000001
00000000
00000200
00000000
,
00000310
00000000
00001000
00000001
00001000
00000000
00000100
00000000
,
00020000
00000000
00000000
00031000
00010000
00001000
00010000
00000000
,
00001000
00000000
00001000
00000000
00000200
00000000
00000000
00000301
,
00000010
00000000
00000100
00010000
00001000
00000000
00100000
00000000
,
00010000
10000000
00010000
10000000
00100000
01000000
00100000
00000000
,
20010000
32000000
03200000
00310000
,
01000000
00000000
00100000
10000000
00100000
00000000
10000000
00000000
,
01000000
00100000
00001000
00010000
,
00000100
00000000
00001000
00000000
00000100
00000010
00000001
00000010
,
00000200
00000302
00000203
00001300
,
00000001
00000000
00000010
00000100
00000010
00000000
00000001
00000000
,
00001000
00000100
00010000
00001000
,
00100000
00000000
01000000
00000000
00100000
00010000
10000000
00010000
,
02000000
03200000
20300000
30010000
,
10000000
01000000
00000000
00100000
00010000
10000000
00010000
00000000
,
01000000
00000000
00100000
00000000
10000000
00000000
00010000
00100000
,
00010000
00000000
01000000
00000000
00001000
00010000
00000100
00001000
,
00000002
00000000
00000023
00000000
00002030
00000000
00003010
00000001
,
00000100
00000000
00000010
00001000
00000001
00000000
00001000
00000000
,
00000100
00000010
00000100
00001000
,
00000100
00000000
00010000
00000000
00001000
00100000
00001000
00010000
,
00002000
00000000
00000000
00000000
01003000
00000000
00100000
01000000
,
00100000
00000000
10000000
00000000
00010000
10000000
01000000
00000000
,
00100000
00010000
00100000
01000000
,
10000000
00000000
00100000
00000000
01000000
00000000
00001000
00010000
,
00000020
00000000
00000000
00000000
00010030
00000000
00000100
00001000
,
00000100
00000000
00000010
00000000
00000001
00000100
00000001
00000000
,
00001000
00000100
00000010
00000100
,
00001000
00000000
00000100
00000000
00010000
00001000
00100000
00001000
,
00020000
00000000
00000000
00000000
01030000
00000000
00100000
00010000
,
10000000
00000000
00100000
00000000
01000000
00010000
00100000
00000000
,
01000000
10000000
00010000
00100000
,
00001000
00000000
00010000
00000000
00000100
00001000
00000100
00000001
,
00000200
00000000
00000000
00000000
00001300
00000000
00000010
00000100
,
00000001
00000000
00000010
00000000
00000100
00010000
00001000
00000000
,
01000000
00001000
00100000
00010000
,
01000000
00000000
01010000
00000000
10000000
01000000
00100000
00010000
;

//---------------dance-double - ----------------
#NOTES:
     dance-double:
     :
     Easy:
     4:
     0.312593,0.321781,0.074681,0.104553,0.000000,269.000000,10.000000,14.000000,0.000000,0.000000,0.000000,0.312593,0.321781,0.074681,0.104553,0.000000,269.000000,10.000000,14.000000,0.000000,0.000000,0.000000:
00000000
00000000
00000000
00000000
,
00000000
00000000
00000000
00000000
,
00000000
00000000
00000000
00000000
,
00000000
00000000
00000000
00000000
,
00000000
00000000
00000000
00000000
,
00000000
00000000
00000000
00000000
,
00000000
00000000
00000000
00000000
,
00000000
00000000
00000000
00000000
,
00000001
00000000
00000000
00000000
,
00000010
00000000
00000000
00000000
,
00000100
00000000
00000000
00000000
,
00001000
00000000
00000000
00000000
,
00010000
00000000
00000000
00000000
,
00100000
00000000
00000000
00000000
,
02000000
00000000
00000000
00000000
,
20000000
00000000
00000000
33000000
,
10010000
00000000
00010000
00000000
,
00100000
00001000
00010000
00000000
,
00000100
00000000
00001000
00000000
,
00000010
00000100
00000001
00000010
,
00000100
00000000
00001000
00000000
,
00000100
00010000
00001000
00000000
,
00100000
00000000
00010000
00000000
,
10000000
01000000
00100000
00000000
,
00010000
10000000
00010000
10000000
,
01000000
00100000
01000000
00100000
,
00010000
00100000
00010000
00100000
,
00001000
00010000
00001000
00010000
,
00000100
00001000
00000100
00001000
,
00000010
00000100
00000010
00000100
,
00000001
00000010
00000100
00001000
,
00000100
00010100
00000000
00011000
,
00101000
00001000
00000000
00100000
,
00010000
10000000
00000000
00100000
,
01000000
00010000
00000000
10000000
,
01000000
00100000
00000000
00001000
,
00011000
00010000
00000000
00000100
,
00000010
00000001
00000000
00001000
,
00000010
00000100
00000000
00000001
,
00000010
00000100
00000000
00001000
,
00001100
00000100
00000000
00010000
,
00001000
00100000
00000000
00010000
,
01000000
00010000
00000000
00100000
,
01000000
10000000
00000000
00010000
,
01010000
01000000
00000000
00100000
,
10000000
00010000
00000000
00100000
,
00001000
00010000
00000000
00000100
,
00000010
00000001
00001000
00000001
,
00000200
00000000
00000310
00001000
,
00000001
00000001
00000020
00000000
,
00000130
00001000
00000100
00010000
,
00000000
00001000
00100000
00010000
,
02000000
00000000
03100000
10000000
,
00010000
00010000
00200000
00000000
,
01300000
10000000
00010000
00100000
,
00000000
00001000
00010000
00000010
,
00002010
00000000
00003001
00000100
,
00000001
00000001
00000020
00000000
,
00000031
00001000
00000100
00010000
,
00000000
00001000
00010000
00100000
,
20000000
00000000
30010000
01000000
,
00100000
00100000
02000000
00000000
,
03010000
00100000
01000000
10000000
,
01000000
00100000
00001000
00011000
,
00010000
00010000
00000100
00000100
,
00000010
00000001
00000000
00001000
,
00000001
00000100
00000010
00000100
,
00000001
00001000
00000100
00001000
,
00000100
00000100
00010000
00010000
,
00001000
00100000
00000000
00010000
,
10000000
01000000
00010000
01000000
,
10000000
00100000
01000000
00010000
,
00100000
00100000
00010000
00010000
,
00001000
00000100
00000000
00000010
,
00000001
00001000
00000001
00000010
,
00000100
00001000
00000100
00000010
,
00000100
00000100
00001000
00001000
,
00000100
00010000
00000000
00001000
,
00100000
00010000
00100000
00010000
,
10000000
01000000
00100000
00010000
,
20000000
00000000
30100000
01000000
,
00010000
00000000
00100000
00000000
,
00001000
00000000
00010000
00000000
,
00000100
00001000
00000100
00000010
,
00000002
00000000
00001003
00000000
,
00000010
00000100
00000010
00000000
,
00001000
00000000
00000100
00000000
,
00010000
00001000
00100000
01000000
,
20000000
00000000
30100000
00000000
,
10000000
00010000
10000000
00000000
,
01000000
00000000
00010000
00000000
,
00001000
00000100
00000001
00001000
,
00000002
00000000
00000013
00000000
,
00000100
00010000
00000100
00000010
,
00000001
00001000
00000100
00001000
,
00000010
00001000
00010000
00011000
;
