#VERSION:0.81;
#TITLE:SQUAREDANCE;
#SUBTITLE:;
#ARTIST:Kitsune²;
#TITLETRANSLIT:;
#SUBTITLETRANSLIT:;
#ARTISTTRANSLIT:Kitsune2;
#GENRE:Chiptune;
#ORIGIN:;
#CREDIT:;
#BANNER:SQUAREDANCE-bn.png;
#BACKGROUND:SQUAREDANCE-bg.png;
#PREVIEWVID:;
#JACKET:SQUAREDANCE-jk.png;
#CDIMAGE:;
#DISCIMAGE:;
#LYRICSPATH:;
#CDTITLE:PROJECT GOLDENROD-cdtitle.png;
#MUSIC:SQUAREDANCE.mp3;
#OFFSET:-0.100000;
#SAMPLESTART:32.035000;
#SAMPLELENGTH:10.698000;
#SELECTABLE:YES;
#BPMS:0.000=180.140;
#STOPS:224.000=2.165,
224.500=0.167;
#DELAYS:;
#WARPS:;
#TIMESIGNATURES:0.000=4=4,
224.000=1=4,
225.000=4=4;
#TICKCOUNTS:0.000=4;
#COMBOS:0.000=1;
#SPEEDS:0.000=1.000=0.000=0;
#SCROLLS:0.000=1.000;
#FAKES:;
#LABELS:0.000=Song Start;
#BGCHANGES:;
#KEYSOUNDS:;
#ATTACKS:
;

//---------------dance-single - ----------------
#NOTEDATA:;
#CHARTNAME:;
#STEPSTYPE:dance-single;
#DESCRIPTION:;
#CHARTSTYLE:;
#DIFFICULTY:Hard;
#METER:9;
#RADARVALUES:0.608559,0.706552,0.173033,0.313108,0.313108,458.000000,21.000000,38.000000,0.000000,0.000000,0.000000,0.000000,0.000000,0.608559,0.706552,0.173033,0.313108,0.313108,458.000000,21.000000,38.000000,0.000000,0.000000,0.000000,0.000000,0.000000;
#CREDIT:DJ OMiY;
#NOTES:
0000
0000
0000
0000
,
0000
0000
0000
0000
,
0000
0000
0000
0000
,
0000
0000
0000
0000
,
0000
0000
0000
0000
,
0000
0000
0000
0000
,
0000
0000
0000
0000
,
0000
0000
0000
0000
,
1000
0100
0000
0000
0010
0001
0000
0000
,
0001
0100
0000
0000
0010
1000
0000
0000
,
0100
0010
0000
0000
0001
0100
0000
0000
,
0010
1000
0000
0000
1000
0100
0000
0000
,
0010
0001
0000
0000
1000
0001
0000
0000
,
0001
0100
0000
0000
0010
1000
0000
0000
,
0100
0010
0000
0000
0001
0010
0000
0000
,
0100
1000
0000
0000
1000
0001
0000
0000
,
0020
0200
0030
0300
2000
0002
3000
0003
,
0200
0002
0300
0003
0020
2000
0030
3000
,
0020
0002
0030
0003
0002
0200
0003
0300
,
0020
2000
0030
3000
0002
2000
0003
3000
,
0200
0020
0300
0030
0002
0020
0003
0030
,
0200
2000
0300
3000
0020
0200
0030
0300
,
0002
0200
0003
0300
0020
2000
0030
3000
,
2000
0002
3000
0003
1000
0100
0110
0000
,
1001
1000
0010
0100
0001
0100
0010
1000
,
0100
0010
0001
0010
0100
1000
0010
0100
,
0010
1000
0001
0010
0001
1000
0100
0010
,
0001
0010
0100
1000
0010
0100
0001
0000
,
0110
0010
1000
0001
0010
0100
0010
0001
,
1000
0001
0100
0010
1000
0001
1000
0100
,
0010
0100
1000
0001
0010
0100
0010
0001
,
0100
0010
1000
0001
0010
0001
1000
0000
,
1100
1000
0001
0010
0100
0010
0001
1000
,
0010
1000
0001
0100
1000
0100
0001
1000
,
0100
1000
0010
0100
0001
1000
0010
1000
,
0100
0010
0001
1000
0100
1000
0001
0000
,
0011
0001
0100
0010
1000
0001
0100
0001
,
0010
0100
1000
0100
0010
0001
1000
0010
,
0100
1000
0100
0010
0100
0001
1000
0010
,
1000
0100
0010
0001
1000
0010
0100
0000
,
0110
0000
0000
0001
0000
0000
1000
0000
0100
0000
0000
1000
0000
0000
0001
0000
,
0010
0000
0000
0100
0000
0000
1000
0000
0010
0000
0000
0100
0000
0000
0010
0000
,
0001
0000
0000
0010
0000
0000
1000
0000
0001
0000
0000
0010
0000
0000
0100
0000
,
1000
0000
0000
0001
0000
0000
0010
0000
0001
0000
0000
0100
0000
0000
0001
0000
,
1000
0000
0000
0100
0000
0000
0010
0000
0001
0000
0000
1000
0000
0000
0001
0000
,
0100
0000
0000
0010
0000
0000
0100
0000
0001
0000
0000
0010
0000
0000
0100
0000
,
1000
0000
0000
0001
0000
0000
0100
0000
0010
0000
0000
1000
0000
0000
0001
0000
,
0100
0000
0000
0010
0000
0000
1000
0000
0010
0000
0000
0100
0000
0000
0001
0000
,
1000
0000
0100
1000
0100
0000
1000
0000
0001
0000
0100
0001
0100
0000
0001
0000
,
0010
0000
0100
0010
0100
0000
0010
0000
0100
0000
1000
0100
1000
0000
0100
0000
,
1000
0000
0001
1000
0001
0000
1000
0000
0010
0000
1000
0010
1000
0000
0001
0000
,
0100
0000
0010
0100
0010
0000
0100
0000
0001
0000
1000
0001
1000
0000
0001
0000
,
1000
0000
0000
1100
0000
0000
0100
0000
0010
0000
0000
0011
0000
0000
0001
0000
,
0100
0000
0000
0110
0000
0000
0010
0000
1000
0000
0000
1001
0000
0000
0001
0000
,
1000
0000
0000
1100
0000
0000
0100
0000
0010
0000
0000
0011
0000
0000
0001
0000
,
1000
0000
0000
1001
0000
0000
1000
0000
0001
0000
1000
0000
0100
0000
0000
0000
,
1001
0000
0000
0101
0000
0000
1100
0000
0000
0000
1000
0000
0100
0000
0000
0000
0000
0000
0010
0000
0000
0000
0001
0000
,
0100
0000
0000
0010
0000
1000
0001
0000
0000
0010
0000
0001
,
0010
0000
0000
0100
0000
1000
0010
0000
0000
0100
0000
0001
,
1000
0000
0000
0010
0000
1000
0100
0000
0000
0010
0000
0001
,
0100
0000
0000
0001
0000
0010
0100
0000
0000
1000
0000
0100
,
0010
0000
0000
0001
0000
0010
0100
0000
0000
1000
0000
0100
,
0010
0000
0000
1001
0000
1000
0100
0000
0100
0010
0000
0010
,
0001
0000
0000
1001
0000
0001
0100
0000
0100
0010
0000
0010
,
1000
0000
0000
0001
0000
0100
0001
0000
0001
1000
0000
1000
,
0010
0000
0000
0100
0000
0010
1000
0000
1000
0001
0000
0001
,
0100
0000
0000
0010
0000
1000
0100
0000
0010
0001
0000
0100
,
0010
0000
0000
1000
0000
0001
0010
0000
0100
1000
0000
0010
,
0100
0000
0000
0001
0000
1000
0001
0000
0010
0100
0000
1000
,
0001
0000
0000
0100
0000
0010
1000
0000
1000
0010
0000
0100
,
0001
1002
0000
0000
,
0000
0200
0000
0003
,
0000
0020
0000
0300
,
0000
2000
0000
0030
,
0000
0200
0000
3000
,
0000
0002
0000
0300
,
0000
0020
0000
0003
,
0000
2000
0000
3030
,
1001
0000
0000
0000
0010
0000
0000
0100
0000
0000
0010
0000
1000
0000
0001
0000
,
0010
0000
0100
0000
1000
0000
0000
0010
0000
0000
0100
0000
0001
0000
1000
0000
,
0100
0000
0010
0000
0001
0000
0000
0100
0000
0000
0001
0000
0010
0000
0100
0000
,
1000
0000
0001
0000
1000
0000
0000
0010
0000
0000
0100
0000
0001
0000
1000
0000
,
0010
0000
0100
0000
0010
0000
0000
1000
0000
0000
0001
0000
0010
0000
0100
0000
,
0010
0000
0001
0000
1000
0000
0000
0010
0000
0000
0100
0000
0010
0000
1000
0000
,
0010
0000
0100
0000
0001
0000
0000
0010
0000
0000
0100
0000
1000
0000
0001
0000
,
0010
0000
0001
0000
0101
0000
0000
0010
0000
0000
1000
0001
0100
0000
0000
0000
;

//---------------dance-single - ----------------
#NOTEDATA:;
#CHARTNAME:;
#STEPSTYPE:dance-single;
#DESCRIPTION:;
#CHARTSTYLE:;
#DIFFICULTY:Medium;
#METER:7;
#RADARVALUES:0.530871,0.565242,0.189513,0.411984,0.140074,378.000000,23.000000,50.000000,0.000000,0.000000,0.000000,0.000000,0.000000,0.530871,0.565242,0.189513,0.411984,0.140074,378.000000,23.000000,50.000000,0.000000,0.000000,0.000000,0.000000,0.000000;
#CREDIT:DJ OMiY;
#NOTES:
// measure 0
0000
0000
0000
0000
,  // measure 1
0000
0000
0000
0000
,  // measure 2
0000
0000
0000
0000
,  // measure 3
0000
0000
0000
0000
,  // measure 4
0000
0000
0000
0000
,  // measure 5
0000
0000
0000
0000
,  // measure 6
0000
0000
0000
0000
,  // measure 7
0000
0000
0000
0000
,  // measure 8
1000
0100
0000
0000
1000
0100
0000
0000
,  // measure 9
0010
0001
0000
0000
0010
0001
0000
0000
,  // measure 10
0001
0100
0000
0000
0001
0100
0000
0000
,  // measure 11
0010
1000
0000
0000
0010
1000
0000
0000
,  // measure 12
0001
1000
0000
0000
0001
1000
0000
0000
,  // measure 13
0010
0100
0000
0000
0010
0100
0000
0000
,  // measure 14
0001
0100
0000
0000
0001
0100
0000
0000
,  // measure 15
0001
0010
0000
0000
0001
0010
0000
0000
,  // measure 16
0020
0002
0030
0003
0020
0002
0030
0003
,  // measure 17
0200
0002
0300
0003
0200
0002
0300
0003
,  // measure 18
0200
0020
0300
0030
0200
0020
0300
0030
,  // measure 19
2000
0002
3000
0003
2000
0002
3000
0003
,  // measure 20
2000
0200
3000
0300
2000
0200
3000
0300
,  // measure 21
0020
0002
0030
0003
0020
0002
0030
0003
,  // measure 22
2000
0020
3000
0030
2000
0020
3000
0030
,  // measure 23
2000
0002
3000
0003
1000
0001
0100
0000
,  // measure 24
0110
0100
0001
1000
,  // measure 25
1100
0010
0001
1000
,  // measure 26
0101
0001
1000
0010
,  // measure 27
1010
0000
1000
0001
0010
0001
0100
0000
,  // measure 28
1001
0010
0001
1000
,  // measure 29
1100
1000
0001
0100
,  // measure 30
1001
1000
0001
0010
,  // measure 31
0110
0000
0100
1000
0100
0010
0001
0000
,  // measure 32
0110
0000
0001
1000
0001
0010
0100
0000
,  // measure 33
0100
0000
1000
0010
0100
0010
1000
0000
,  // measure 34
0001
0000
0001
0010
0001
1000
0001
0000
,  // measure 35
1000
0000
1000
0001
0010
0100
1000
0000
,  // measure 36
0100
0000
1000
0010
1000
0001
0100
0000
,  // measure 37
0001
0000
0010
0001
0100
0001
1000
0000
,  // measure 38
0010
0000
1000
0010
0100
0001
1000
0000
,  // measure 39
0001
0000
0001
1000
0100
0010
0002
0000
,  // measure 40
1003
0000
0000
0100
0000
0000
1000
0000
0001
0000
0000
0100
0000
0000
0001
0000
,  // measure 41
0010
0110
0100
0110
,  // measure 42
0100
0000
0000
1000
0000
0000
0100
0000
0010
0000
0000
0001
0000
0000
0010
0000
,  // measure 43
0001
1001
1000
1001
,  // measure 44
1000
0000
0000
0100
0000
0000
1000
0000
0001
0000
0000
0010
0000
0000
0001
0000
,  // measure 45
0100
0101
0001
0101
,  // measure 46
0001
0000
0000
1000
0000
0000
0001
0000
0100
0000
0000
0010
0000
0000
0100
0000
,  // measure 47
0010
1010
1000
1010
,  // measure 48
1000
0100
0010
0000
0001
0100
0010
0000
,  // measure 49
1000
0001
1000
0000
0001
0100
0010
0000
,  // measure 50
1000
0001
0100
0000
0010
1000
0010
0000
,  // measure 51
0100
0001
0010
0000
0100
1000
0001
0000
,  // measure 52
0010
0100
1000
0000
0010
1000
0001
0000
,  // measure 53
0010
0001
0100
0000
0010
1000
0100
0000
,  // measure 54
0010
0001
0010
0000
0001
1000
0010
0000
,  // measure 55
1000
0010
0100
0000
0001
1000
0100
0000
,  // measure 56
1001
0010
1001
0000
0001
0000
0100
0000
,  // measure 57
0100
0000
0000
0010
0000
1000
0001
0000
0000
0001
0000
1000
,  // measure 58
0010
1000
1000
0100
,  // measure 59
0100
0000
0000
0010
0000
0100
1000
0000
0000
1000
0000
0100
,  // measure 60
0010
0001
0001
1000
,  // measure 61
1000
0000
0000
0001
0000
0100
0010
0000
0000
0010
0000
0100
,  // measure 62
0001
0000
0000
1000
0000
0010
0200
0000
0000
0301
0000
0010
,  // measure 63
0002
0000
0000
1003
0000
0100
2000
0000
0000
3010
0000
0100
,  // measure 64
0020
0000
0000
1030
0000
0001
2000
0000
0000
3001
0000
0100
,  // measure 65
0002
0000
0000
0013
0000
0100
0020
0000
0000
0130
0000
1000
,  // measure 66
0200
0000
0000
1300
0000
0001
0020
0000
0000
0031
0000
1000
,  // measure 67
0200
0000
0000
1300
0000
0001
0200
0000
0000
0301
0000
1000
,  // measure 68
0020
0000
0000
1030
0000
0001
0020
0000
0000
0031
0000
0010
,  // measure 69
0200
0000
0000
1300
0000
0100
2000
0000
0000
3010
0000
0100
,  // measure 70
0001
1001
0000
1000
,  // measure 71
0000
0100
0000
0100
,  // measure 72
0000
0010
0000
0010
,  // measure 73
0000
0001
0000
0001
,  // measure 74
0000
1000
0000
1000
,  // measure 75
0000
0010
0000
0010
,  // measure 76
0000
0100
0000
0100
,  // measure 77
0000
0000
0001
0000
0000
0000
1000
0001
,  // measure 78
1000
0000
1010
0000
1000
0001
1000
0000
,  // measure 79
0010
0100
0001
0000
0010
0100
1000
0000
,  // measure 80
0100
1000
0001
0000
0010
0001
0100
0000
,  // measure 81
0010
1000
0002
0000
0023
0000
0230
0000
,  // measure 82
2300
0000
0000
0000
3010
0000
0000
0100
0000
0000
0010
0000
1000
0000
0000
0001
,  // measure 83
0000
1000
0001
0000
0011
0000
0010
0100
,  // measure 84
1000
0000
0000
0000
0010
0000
0000
0100
0000
0000
0001
0000
0100
0000
0000
0010
,  // measure 85
0000
1000
0100
1000
0001
0000
1001
0000
;

//---------------dance-single - ----------------
#NOTEDATA:;
#CHARTNAME:;
#STEPSTYPE:dance-single;
#DESCRIPTION:;
#CHARTSTYLE:;
#DIFFICULTY:Easy;
#METER:5;
#RADARVALUES:0.387265,0.494587,0.123595,0.321347,0.000000,275.000000,15.000000,39.000000,0.000000,0.000000,0.000000,0.000000,0.000000,0.387265,0.494587,0.123595,0.321347,0.000000,275.000000,15.000000,39.000000,0.000000,0.000000,0.000000,0.000000,0.000000;
#CREDIT:DJ OMiY;
#NOTES:
0000
0000
0000
0000
,
0000
0000
0000
0000
,
0000
0000
0000
0000
,
0000
0000
0000
0000
,
0000
0000
0000
0000
,
0000
0000
0000
0000
,
0000
0000
0000
0000
,
0000
0000
0000
0000
,
1000
0000
0100
0000
,
0010
0000
0001
0000
,
0100
0000
0001
0000
,
1000
0000
0100
0000
,
0010
0000
0001
0000
,
0010
0000
1000
0000
,
0010
0000
0001
0000
,
0100
0000
0001
0000
,
2000
0000
3002
0000
,
0203
0000
0320
0000
,
2030
0000
3200
0000
,
0302
0000
0203
0000
,
2300
0000
3020
0000
,
0230
0000
0302
0000
,
0023
0000
0230
0000
,
2300
0000
3001
1001
,
0110
0010
1000
1000
,
0100
0100
0010
0001
,
0010
0010
0100
0100
,
1000
0000
1000
0000
0001
0000
0100
0001
,
0100
0100
0001
0001
,
1000
1000
0010
0100
,
0001
0001
1000
1000
,
0100
0000
0100
0000
1000
0000
0010
0100
,
0010
0010
1000
1000
,
0001
0001
0010
0010
,
1000
1000
0010
0010
,
0001
0000
0001
0000
1000
0000
0001
0100
,
0001
0001
1000
1000
,
0100
0100
0010
0010
,
0100
0100
1000
1000
,
0001
0001
0100
1001
,
0010
1000
0001
0100
,
0001
0010
0100
1000
,
0010
0100
0001
1000
,
0100
0000
1000
0010
0100
0000
0001
0010
,
0100
1000
0100
1000
,
0001
0010
0001
0100
,
0010
1000
0001
0010
,
0001
0000
1000
0100
0010
0000
0100
0010
,
0002
0013
0200
1300
,
0020
0130
0002
1003
,
0010
0100
0001
1000
,
0010
0100
0001
0000
1000
0100
1000
0000
,
2000
3010
0200
0301
,
0020
0130
2000
3001
,
0010
0001
1000
0010
,
0100
0001
1000
0010
0200
0000
0301
0000
,
0110
1001
0000
1010
,
0000
0001
0100
0010
,
1000
1100
0000
0011
,
0000
0001
0010
0100
,
1000
0110
0000
0101
,
0000
0010
1000
0001
,
1000
1020
0100
2030
,
0001
3020
1000
0230
,
0001
0302
0010
2003
,
0100
3020
0100
1030
,
1002
0023
0100
0032
,
0010
0203
1000
0320
,
0100
2030
0001
3200
,
0010
2300
0100
3001
,
1001
0010
0000
0010
,
0000
1000
0000
1000
,
0000
0001
0000
0001
,
0000
0100
0000
0100
,
0000
0001
0000
0001
,
0000
0010
0000
0010
,
0000
0100
0000
0100
,
0000
1000
0000
1000
,
1001
0101
0001
1000
,
0100
1000
0010
0100
,
0001
1000
0100
0010
,
0001
0000
1000
0001
0100
0000
0010
1000
,
0001
0010
0100
1000
,
0001
0100
0010
0100
,
0001
1000
0100
0010
,
0001
0000
1000
0100
0010
0100
1000
0000
;

//---------------dance-single - ----------------
#NOTEDATA:;
#CHARTNAME:;
#STEPSTYPE:dance-single;
#DESCRIPTION:;
#CHARTSTYLE:;
#DIFFICULTY:Beginner;
#METER:2;
#RADARVALUES:0.164794,0.176638,0.082397,0.222471,0.000000,103.000000,10.000000,27.000000,0.000000,0.000000,0.000000,0.000000,0.000000,0.164794,0.176638,0.082397,0.222471,0.000000,103.000000,10.000000,27.000000,0.000000,0.000000,0.000000,0.000000,0.000000;
#CREDIT:DJ OMiY;
#NOTES:
0000
0000
0000
0000
,
0000
0000
0000
0000
,
0000
0000
0000
0000
,
0000
0000
0000
0000
,
0000
0000
0000
0000
,
0000
0000
0000
0000
,
0000
0000
0000
0000
,
0000
0000
0000
0000
,
2000
0000
3000
0000
,
0200
0000
0300
0000
,
0020
0000
0030
0000
,
0002
0000
0003
0000
,
0200
0000
0300
0000
,
0020
0000
0030
0000
,
2000
0000
3000
0000
,
0002
0000
0003
0000
,
0100
0000
0100
0000
,
0100
0000
0100
0000
,
0100
0000
0100
0000
,
0200
0000
0300
0000
,
0010
0000
0010
0000
,
0010
0000
0010
0000
,
0010
0000
0010
0000
,
0020
0000
0030
0000
,
1001
0000
1000
0000
,
0002
0000
0003
0000
,
0010
0000
0001
0000
,
0020
0000
0030
0000
,
0100
0000
1000
0000
,
0200
0000
0300
0000
,
1000
0000
1000
0000
,
1000
0000
1000
0000
,
1000
0000
0010
0000
,
0200
0000
0300
0000
,
0001
0000
0010
0000
,
0200
0000
0300
0000
,
0010
0000
0001
0000
,
2000
0000
3000
0000
,
0010
0000
0100
0000
,
0010
0000
0100
0000
,
0110
0000
0000
0000
,
1001
0000
0000
0000
,
0110
0000
0000
0000
,
1001
0000
0000
0000
,
1100
0000
0000
0000
,
0101
0000
0000
0000
,
1100
0000
0000
0000
,
0101
0000
0000
0000
,
1000
0000
1000
0000
,
0001
0000
0001
0000
,
1000
0000
1000
0000
,
0001
0000
0000
0000
,
0100
0000
0100
0000
,
0010
0000
0010
0000
,
0100
0000
0100
0000
,
0010
0000
0010
0000
,
0100
0200
0000
0300
,
0000
0020
0000
0030
,
0000
2000
0000
3000
,
0000
0200
0000
0300
,
0000
0020
0000
0030
,
0000
0002
0000
0003
,
0000
0200
0000
0000
,
0000
0300
0000
0000
,
0000
0002
0000
0000
,
0000
0003
0000
0000
,
0000
0020
0000
0000
,
0000
0030
0000
0000
,
0000
0200
0000
0000
,
0000
0300
0000
0000
,
0000
1001
0000
0000
,
0000
0000
0000
0000
,
0000
0100
0000
0000
,
0000
0000
0000
0000
,
0000
0010
0000
0000
,
0000
0000
0000
0000
,
0000
1000
0000
0000
,
0000
0000
0000
0001
,
0001
0001
0000
1000
,
0000
0001
0000
1000
,
0000
0001
0000
1000
,
0000
0020
0000
0030
,
0000
0100
0000
0010
,
0000
0100
0000
0010
,
0000
0100
0000
0010
,
0000
1000
0000
0001
;

//---------------dance-double - ----------------
#NOTEDATA:;
#CHARTNAME:;
#STEPSTYPE:dance-double;
#DESCRIPTION:;
#CHARTSTYLE:;
#DIFFICULTY:Hard;
#METER:9;
#RADARVALUES:0.640341,0.706552,0.197752,0.362546,0.346066,476.000000,24.000000,44.000000,0.000000,0.000000,0.000000,0.000000,0.000000,0.640341,0.706552,0.197752,0.362546,0.346066,476.000000,24.000000,44.000000,0.000000,0.000000,0.000000,0.000000,0.000000;
#CREDIT:DJ OMiY;
#NOTES:
00000000
00000000
00000000
00000000
,
00000000
00000000
00000000
00000000
,
00000000
00000000
00000000
00000000
,
00000000
00000000
00000000
00000000
,
00000000
00000000
00000000
00000000
,
00000000
00000000
00000000
00000000
,
00000000
00000000
00000000
00000000
,
00000000
00000000
00000000
00000000
,
00000010
00001000
00000000
00000000
00010000
01000000
00000000
00000000
,
00100000
10000000
00000000
00000000
10000000
01000000
00000000
00000000
,
01000000
00010000
00000000
00000000
00010000
00001000
00000000
00000000
,
00000100
00000001
00000000
00000000
00000001
00000010
00000000
00000000
,
00000100
00001000
00000000
00000000
00010000
01000000
00000000
00000000
,
00100000
01000000
00000000
00000000
00010000
10000000
00000000
00000000
,
01000000
00010000
00000000
00000000
00001000
00000010
00000000
00000000
,
00000001
00000100
00000000
00000000
00000010
00001000
00000000
00000000
,
00020000
02000000
00030000
03000000
20000000
02000000
30000000
03000000
,
00020000
00002000
00030000
00003000
00000200
00000002
00000300
00000003
,
00000200
00020000
00000300
00030000
00002000
02000000
00003000
03000000
,
20000000
00200000
30000000
00300000
00020000
02000000
00030000
03000000
,
00200000
20000000
00300000
30000000
02000000
00200000
03000000
00300000
,
00020000
00002000
00030000
00003000
00000020
00000200
00000030
00000300
,
00000002
00002000
00000003
00003000
00000020
00020000
00000030
00030000
,
00002000
00200000
00003000
00300000
00010000
00100000
00101000
00000000
,
00011000
00001000
00100000
00010000
10000000
01000000
00100000
01000000
,
10000000
00100000
01000000
00010000
10000000
01000000
00100000
00010000
,
01000000
00010000
01000000
00100000
01000000
10000000
01000000
00100000
,
01000000
00010000
01000000
10000000
01000000
00100000
01000000
00000000
,
01010000
00010000
00100000
00001000
00010000
00000100
00000010
00000100
,
00001000
00000001
00000100
00000010
00000100
00000001
00001000
00000001
,
00000010
00000100
00000010
00001000
00000010
00000001
00000010
00000100
,
00000010
00000001
00000010
00000100
00000010
00001000
00000010
00000000
,
00000011
00000001
00001000
00000100
00010000
00001000
00100000
01000000
,
10000000
00100000
01000000
00010000
10000000
01000000
00100000
00001000
,
00010000
00001000
00010000
00000100
00010000
00001000
00010000
00000010
,
00010000
00000100
00010000
00000010
00010000
00001000
00010000
00000000
,
00011000
00010000
00000100
00000010
00000100
00001000
00000010
00000100
,
00000001
00000100
00000010
00001000
00000001
00000010
00000100
00010000
,
00001000
00100000
00001000
00010000
00001000
01000000
00001000
00010000
,
00001000
01000000
00001000
00100000
00001000
00010000
00001000
00000000
,
00011000
00000000
00000000
00010000
00000000
00000000
00001000
00000000
00100000
00000000
00000000
00010000
00000000
00000000
10000000
00000000
,
01000000
00000000
00000000
00010000
00000000
00000000
00001000
00000000
00000010
00000000
00000000
00000001
00000000
00000000
00000100
00000000
,
00000010
00000000
00000000
00010000
00000000
00000000
00000100
00000000
00001000
00000000
00000000
00010000
00000000
00000000
01000000
00000000
,
00100000
00000000
00000000
10000000
00000000
00000000
00010000
00000000
00100000
00000000
00000000
01000000
00000000
00000000
00100000
00000000
,
00010000
00000000
00000000
10000000
00000000
00000000
00100000
00000000
00010000
00000000
00000000
00100000
00000000
00000000
01000000
00000000
,
00001000
00000000
00000000
00010000
00000000
00000000
00000100
00000000
00000010
00000000
00000000
00000001
00000000
00000000
00001000
00000000
,
00000100
00000000
00000000
00000010
00000000
00000000
00000100
00000000
00010000
00000000
00000000
00001000
00000000
00000000
00100000
00000000
,
01000000
00000000
00000000
00100000
00000000
00000000
00010000
00000000
10000000
00000000
00000000
00100000
00000000
00000000
01000000
00000000
,
00010000
00000000
00100000
00010000
00100000
00000000
00010000
00000000
10000000
00000000
01000000
10000000
01000000
00000000
10000000
00000000
,
00100000
00000000
01000000
00100000
01000000
00000000
00100000
00000000
01000000
00000000
00010000
01000000
00010000
00000000
01000000
00000000
,
00001000
00000000
00010000
00001000
00010000
00000000
00001000
00000000
00000100
00000000
00000010
00000100
00000010
00000000
00000100
00000000
,
00000001
00000000
00001000
00000001
00001000
00000000
00000001
00000000
00000010
00000000
00000001
00000010
00000001
00000000
00000010
00000000
,
00000100
00000000
00000000
00001000
00000000
00000000
00000100
00000000
00000010
00000000
00000000
00000001
00000000
00000000
00001000
00000000
,
00000100
00000000
00000000
00010000
00000000
00000000
00001000
00000000
00010000
00000000
00000000
00100000
00000000
00000000
01000000
00000000
,
00010000
00000000
00000000
10010000
00000000
00000000
10000000
00000000
00100000
00000000
00000000
01100000
00000000
00000000
00010000
00000000
,
00100000
00000000
00000000
00101000
00000000
00000000
00001000
00000000
00010000
00000000
00000100
00000000
00000010
00000000
00000000
00000000
,
00001001
00000000
00000000
00011000
00000000
00000000
10010000
00000000
00000000
00000000
00010000
00000000
01000000
00000000
00000000
00000000
00000000
00000000
00100000
00000000
00000000
00000000
10000000
00000000
,
01000000
00000000
00000000
00100000
00000000
00001000
00010000
00000000
00000000
00000100
00000000
00000010
,
00000001
00000000
00000000
00001000
00000000
00000001
00000100
00000000
00000000
00000010
00000000
00010000
,
00001000
00000000
00000000
00100000
00000000
00010000
01000000
00000000
00000000
00100000
00000000
10000000
,
01000000
00000000
00000000
00100000
00000000
00001000
00010000
00000000
00000000
00000100
00000000
00010000
,
00001000
00000000
00000000
00100000
00000000
00001000
00010000
00000000
00000000
00000100
00000000
00010000
,
00001000
00000000
00000000
00100000
00000000
00010000
01000000
00000000
01000000
00100000
00000000
00100000
,
10000000
00000000
00000000
01000000
00000000
00100000
00001000
00000000
00001000
00010000
00000000
00010000
,
00000100
00000000
00000000
00000010
00000000
00000001
00001000
00000000
00001000
00000001
00000000
00000001
,
00000100
00000000
00000000
00000010
00000000
00010000
00000100
00000000
00000100
00010000
00000000
00010000
,
00001000
00000000
00000000
00101000
00000000
00100000
00010000
00000000
00010000
10000000
00000000
10000000
,
00100000
00000000
00000000
01000000
00000000
00010000
00100000
00000000
00100000
00010000
00000000
00010000
,
10000000
00000000
00000000
01000000
00000000
00100000
00001000
00000000
00001000
00010000
00000000
00010000
,
00000010
00000000
00000000
00000100
00000000
00000100
00000001
00000000
00000001
00001000
00000000
00001000
,
00000100
00000000
00000000
00000000
00010100
00000000
00000000
00020000
00000000
00000000
00002000
00000000
00000000
00000000
00000000
00000000
,
00033000
00000000
00000000
00000000
00101000
00000000
00000000
00200000
00000000
00000000
02000000
00000000
00000000
00000000
00000000
00000000
,
03300000
00000000
00000000
00000000
11000000
00000000
00000000
20000000
00000000
00000000
00020000
00000000
00000000
00000000
00000000
00000000
,
30030000
00000000
00000000
00000000
00110000
00000000
00000000
00200000
00000000
00000000
00002000
00000000
00000000
00000000
00000000
00000000
,
00303000
00000000
00000000
00000000
00011000
00000000
00000000
00002000
00000000
00000000
00000200
00000000
00000000
00000000
00000000
00000000
,
00003300
00000000
00000000
00000000
00000101
00000000
00000000
00000002
00000000
00000000
00000020
00000000
00000000
00000000
00000000
00000000
,
00000033
00000000
00000000
00000000
00001100
00000000
00000000
00000200
00000000
00000000
00020000
00000000
00000000
00000000
00000000
00000000
,
00030300
00000000
00000000
00000000
00011000
00000000
00000000
00010000
00000000
00000000
00001000
00000000
00100000
00000000
00010000
00000000
,
10010000
00000000
00000000
00000000
10100000
00000000
00000000
10000000
00000000
00000000
00010000
00000000
00100000
00000000
00001000
00000000
,
00010000
00000000
00000010
00000000
00000100
00000000
00000000
00001000
00000000
00000000
00000100
00000000
00000001
00000000
00000010
00000000
,
00000100
00000000
00001000
00000000
00000010
00000000
00000000
00010000
00000000
00000000
00001000
00000000
00100000
00000000
01000000
00000000
,
00100000
00000000
00010000
00000000
10000000
00000000
00000000
01000000
00000000
00000000
10000000
00000000
00010000
00000000
01000000
00000000
,
00010000
00000000
00100000
00000000
00001000
00000000
00000000
00010000
00000000
00000000
00000100
00000000
00000010
00000000
00000100
00000000
,
00001000
00000000
00000100
00000000
00000010
00000000
00000000
00000001
00000000
00000000
00001000
00000000
00000100
00000000
00010000
00000000
,
00001000
00000000
00100000
00000000
01000000
00000000
00000000
10000000
00000000
00000000
00010000
00000000
00100000
00000000
00001000
00000000
,
00010000
00000000
00000100
00000000
00001000
00000000
00000000
00001010
00000000
00000000
00000001
00000010
00000100
00000000
00000000
00000000
;

//---------------dance-double - ----------------
#NOTEDATA:;
#CHARTNAME:;
#STEPSTYPE:dance-double;
#DESCRIPTION:;
#CHARTSTYLE:;
#DIFFICULTY:Medium;
#METER:7;
#RADARVALUES:0.484964,0.565242,0.140074,0.354306,0.082397,352.000000,17.000000,43.000000,0.000000,0.000000,0.000000,0.000000,0.000000,0.484964,0.565242,0.140074,0.354306,0.082397,352.000000,17.000000,43.000000,0.000000,0.000000,0.000000,0.000000,0.000000;
#CREDIT:DJ OMiY;
#NOTES:
00000000
00000000
00000000
00000000
,
00000000
00000000
00000000
00000000
,
00000000
00000000
00000000
00000000
,
00000000
00000000
00000000
00000000
,
00000000
00000000
00000000
00000000
,
00000000
00000000
00000000
00000000
,
00000000
00000000
00000000
00000000
,
00000000
00000000
00000000
00000000
,
00100000
00001000
00000000
00000000
00100000
00001000
00000000
00000000
,
01000000
00010000
00000000
00000000
01000000
00010000
00000000
00000000
,
10000000
01000000
00000000
00000000
10000000
01000000
00000000
00000000
,
00100000
00010000
00000000
00000000
00100000
00010000
00000000
00000000
,
00001000
00000010
00000000
00000000
00001000
00000010
00000000
00000000
,
00000100
00000001
00000000
00000000
00000100
00000001
00000000
00000000
,
00000010
00000001
00000000
00000000
00000010
00000001
00000000
00000000
,
00001000
00000100
00000000
00000000
00001000
00000100
00000000
00000000
,
00000200
00020000
00000300
00030000
00000200
00020000
00000300
00030000
,
00002000
00200000
00003000
00300000
00002000
00200000
00003000
00300000
,
00020000
20000000
00030000
30000000
00020000
20000000
00030000
30000000
,
02000000
00200000
03000000
00300000
02000000
00200000
03000000
00300000
,
00002000
00020000
00003000
00030000
00002000
00020000
00003000
00030000
,
00000200
00000020
00000300
00000030
00000200
00000020
00000300
00000030
,
00000002
00000200
00000003
00000300
00000002
00000200
00000003
00000300
,
00000020
00002000
00000030
00003000
00000010
00001000
00000001
00000000
,
00001001
00000010
00001000
00000001
,
00000010
00000100
00001000
00000010
,
00010000
00001000
00010000
00000000
00001000
00100000
00001000
00000000
,
00100000
00010000
00100000
00000000
00010000
10000000
00010000
00000000
,
10000000
01000000
00100000
01000000
,
10000000
00010000
00100000
00001000
,
00010000
00000100
00010000
00000000
00000010
00001000
00000010
00000000
,
00001000
00000100
00001000
00000000
00000001
00000100
00000001
00000000
,
00001001
00001000
00000100
00010000
,
00001000
00010000
01000000
10000000
,
00010000
00100000
00010000
00000000
01000000
00100000
01000000
00000000
,
00100000
10000000
00100000
00000000
10000000
01000000
10000000
00000000
,
01000000
00010000
00001000
00010000
,
00001000
00000010
00000001
00001000
,
00000010
00000100
00000010
00000000
00001000
00000001
00001000
00000000
,
00000001
00000010
00000001
00000000
00001000
00000100
00001000
00000000
,
00000100
00000000
00000000
00010000
00000000
00000000
00001000
00000000
00010000
00000000
00000000
00001000
00000000
00000000
00100000
00000000
,
00010000
10010000
10000000
10010000
,
10000000
00000000
00000000
00100000
00000000
00000000
01000000
00000000
00100000
00000000
00000000
01000000
00000000
00000000
00001000
00000000
,
00010000
00011000
00001000
00011000
,
00010000
00000000
00000000
00000100
00000000
00000000
00001000
00000000
00000001
00000000
00000000
00000100
00000000
00000000
00000001
00000000
,
00000010
00000011
00000001
00000011
,
00000010
00000000
00000000
00000100
00000000
00000000
00000010
00000000
00000001
00000000
00000000
00001000
00000000
00000000
00000010
00000000
,
00001000
00001100
00000100
00001100
,
00000100
00010000
00001000
00100000
,
00001000
00100000
00010000
10000000
,
00100000
10000000
00100000
10000000
00100000
00000000
01010000
00000000
,
00010000
00100000
00010000
00100000
00010000
00000000
00101000
00000000
,
00010000
00000100
00001000
00000010
,
00001000
00000100
00010000
00000100
,
00001000
00000001
00001000
00000001
00001000
00000000
00001010
00000000
,
00000100
00000010
00000100
00000010
00000100
00000000
00001001
00000000
,
00000200
00010300
00011000
00000000
00010000
00000000
00001000
00000000
,
00100000
00010000
10000000
00100000
,
01000000
00010000
00100000
00001000
,
00010000
00000100
00000010
00000100
,
00001000
00000000
00000000
00000001
00000000
00000010
00000001
00000000
00000000
00001000
00000000
00000100
,
00001000
00000000
00000000
00000010
00000000
00000100
00000010
00000000
00000000
00001000
00000000
00000001
,
00001000
00000100
00010000
00001000
,
00100000
01000000
10000000
00010000
,
01000000
00000000
00000000
00100000
00000000
10000000
00100000
00000000
00000000
01000000
00000000
00010000
,
01000000
00000000
00000000
00010000
00000000
00100000
00010000
00000000
00000000
10000000
00000000
01000000
,
10000000
00010000
00100000
00010000
,
01000000
00001000
00010000
00000100
,
00000010
00000000
00000000
00000001
00000000
00001000
00000010
00000000
00000000
00001000
00000000
00000001
,
00000010
00000000
00000000
00000100
00000000
00001000
00000100
00000000
00000000
00010000
00000000
00000100
,
00010000
00012000
00000000
00100000
,
00000000
00203000
00000000
00010000
,
00000000
00320000
00000000
10000000
,
00000000
20030000
00000000
01000000
,
00000000
32000000
00000000
00100000
,
00000000
03200000
00000000
00001000
,
00000000
00302000
00000000
00010000
,
00000000
00000000
00023000
00000000
00000000
00000000
00030100
00001000
,
00000001
00000000
00001001
00000000
00001000
00000000
00000010
00000100
,
00000001
00000000
00001000
00000000
00000010
00000000
00001000
00000100
,
00010000
00000000
00001000
00000000
00100000
00000000
00010000
10000000
,
00010000
02000000
03200000
20300000
,
32000000
00000000
03100000
00000000
00001000
00000000
00010000
00000100
,
00010000
00000000
00001000
00000000
00000100
00000000
00000010
00000100
,
00000010
00000000
00001000
00000000
00000001
00000000
00001000
00000100
,
00010000
00000000
00001000
00100000
00010000
10000000
00100000
00000000
;

//---------------dance-double - ----------------
#NOTEDATA:;
#CHARTNAME:;
#STEPSTYPE:dance-double;
#DESCRIPTION:;
#CHARTSTYLE:;
#DIFFICULTY:Easy;
#METER:5;
#RADARVALUES:0.382556,0.494587,0.057678,0.362546,0.000000,274.000000,7.000000,44.000000,0.000000,0.000000,0.000000,0.000000,0.000000,0.382556,0.494587,0.057678,0.362546,0.000000,274.000000,7.000000,44.000000,0.000000,0.000000,0.000000,0.000000,0.000000;
#CREDIT:DJ OMiY;
#NOTES:
00000000
00000000
00000000
00000000
,
00000000
00000000
00000000
00000000
,
00000000
00000000
00000000
00000000
,
00000000
00000000
00000000
00000000
,
00000000
00000000
00000000
00000000
,
00000000
00000000
00000000
00000000
,
00000000
00000000
00000000
00000000
,
00000000
00000000
00000000
00000000
,
00001000
00000000
00010000
00000000
,
00000100
00000000
00000010
00000000
,
00000001
00000000
00000010
00000000
,
00001000
00000000
00010000
00000000
,
00001000
00000000
00100000
00000000
,
01000000
00000000
10000000
00000000
,
00010000
00000000
01000000
00000000
,
10000000
00000000
01000000
00000000
,
00020000
00000000
00230000
00000000
,
02300000
00000000
23000000
00000000
,
30020000
00000000
00230000
00000000
,
00302000
00000000
00023000
00000000
,
00030200
00000000
00000320
00000000
,
00000032
00000000
00000203
00000000
,
00002300
00000000
00023000
00000000
,
02030000
00000000
13000000
10010000
,
00010000
00100000
00010000
00100000
,
00001000
00010000
00001000
00010000
,
00000100
00000010
00000001
00000010
,
00000100
00000010
00000001
00000010
,
00000100
00001000
00000100
00001000
,
00000010
00000100
00000010
00000100
,
00000010
00010000
00001000
00010000
,
00000010
00010000
00001000
00010000
,
00001000
00100000
00001000
00100000
,
00010000
10000000
00010000
10000000
,
00100000
01000000
00010000
01000000
,
00100000
01000000
00010000
01000000
,
00100000
10000000
00100000
10000000
,
00010000
01000000
00010000
01000000
,
00001000
00010000
00000100
00010000
,
00001000
00010000
00000100
00001100
,
00001000
00000000
00000010
00001000
00000002
00000000
00000103
00000000
,
00000010
00000000
00010000
00001000
00020000
00000000
00130000
00000000
,
10000000
00000000
00100000
01000000
00200000
00000000
10300000
00000000
,
00020000
00230000
00302000
00023000
,
00030100
00000000
00001000
00000010
00002000
00000000
00003001
00000000
,
00000100
00000000
00000010
00001000
00000020
00000000
00000130
00000000
,
00000001
00000000
00001000
00000100
00002000
00000000
00003100
00000000
,
00010000
00010000
00001000
00001000
,
00100000
00010000
01000000
10000000
,
01000000
00010000
10000000
01000000
,
00100000
00001000
00010000
00000100
,
00000010
00000000
00000001
00000000
00001000
00000000
00000010
00000100
,
00000010
00001000
00000001
00000010
,
00001000
00000010
00000001
00000100
,
00000010
00010000
00001000
00100000
,
01000000
00100000
00010000
10010000
,
00100000
01100000
00100000
10000000
,
10000000
01000000
01000000
00100000
,
00010000
00100000
00100000
00001000
,
00001000
00010000
00010000
00000010
,
00001000
00000001
00000001
00000100
,
00000100
00001000
00001000
00000100
,
00000001
00000020
00000100
00000230
,
00001000
00002300
00000100
00003200
,
00010000
00020300
00001000
00032000
,
00100000
00203000
00010000
00320000
,
10000000
20030000
01000000
32000000
,
00100000
03200000
00001000
00302000
,
00010000
00023000
00000100
00030200
,
00000010
00000320
00000001
00000031
,
00001001
00000010
00000000
00000010
,
00000000
00001000
00000000
00001000
,
00000000
00000100
00000000
00000100
,
00000000
00010000
00000000
00010000
,
00000000
00001000
00000000
00001000
,
00000000
00100000
00000000
00100000
,
00000000
01000000
00000000
01000000
,
00000000
00000000
10000000
00000000
00000000
00000000
00100000
01000000
,
00100000
10010000
00010000
10000000
,
00100000
01000000
00001000
00100000
,
00001000
00010000
00000100
00000010
,
00000001
00000020
00000230
00002300
,
00003002
00000103
00000010
00001000
,
00000100
00010000
00001000
00100000
,
00010000
01000000
00100000
10000000
,
01000000
00100000
00001000
00011000
;
