#VERSION:0.81;
#TITLE:ROOFTOP RUN;
#SUBTITLE:;
#ARTIST:Tomoya Ohtani;
#TITLETRANSLIT:;
#SUBTITLETRANSLIT:;
#ARTISTTRANSLIT:;
#GENRE:Orchestra Dance;
#ORIGIN:;
#CREDIT:;
#BANNER:ROOFTOP RUN-bn.png;
#BACKGROUND:ROOFTOP RUN-bg.png;
#PREVIEWVID:;
#JACKET:ROOFTOP RUN-jk.png;
#CDIMAGE:;
#DISCIMAGE:;
#LYRICSPATH:;
#CDTITLE:;
#MUSIC:ROOFTOP RUN.mp3;
#OFFSET:-0.420000;
#SAMPLESTART:13.031579;
#SAMPLELENGTH:12.651580;
#SELECTABLE:YES;
#BPMS:0.000=152.000,
260.000=184.000,
312.000=152.000;
#STOPS:;
#DELAYS:;
#WARPS:;
#TIMESIGNATURES:0.000=4=4;
#TICKCOUNTS:0.000=4;
#COMBOS:0.000=1;
#SPEEDS:0.000=1.000=0.000=0;
#SCROLLS:0.000=1.000;
#FAKES:;
#LABELS:0.000=Song Start;
#BGCHANGES:;
#KEYSOUNDS:;
#ATTACKS:
;

//---------------dance-single - ----------------
#NOTEDATA:;
#CHARTNAME:;
#STEPSTYPE:dance-single;
#DESCRIPTION:;
#CHARTSTYLE:;
#DIFFICULTY:Hard;
#METER:8;
#RADARVALUES:0.558162,0.532779,0.197472,0.232735,0.126947,493.000000,28.000000,33.000000,0.000000,0.000000,0.000000,0.000000,0.000000,0.558162,0.532779,0.197472,0.232735,0.126947,493.000000,28.000000,33.000000,0.000000,0.000000,0.000000,0.000000,0.000000;
#CREDIT:DJ OMiY;
#NOTES:
0000
0000
0000
0000
,
0000
0000
0000
0000
,
0000
0000
0000
0000
,
0000
0000
0000
0000
,
1000
0100
0010
0001
,
0100
0000
0010
0000
1000
0001
0010
0100
,
1000
0001
0100
0010
,
1100
0000
0000
0110
0000
0000
0011
0000
1000
0000
0010
0000
0100
0001
1000
0001
,
0010
0010
0000
0000
0001
0001
0000
0000
,
1000
0000
1000
0000
0000
0000
0000
0000
0010
0000
1000
0000
0100
1000
0100
1000
,
0001
0001
0000
0001
1000
1000
0000
1000
,
0100
0010
0001
1000
0010
0000
0100
0010
,
1000
1000
0000
0000
0001
0001
0000
0000
,
0010
0000
0010
0000
0000
0000
0000
0000
0001
0000
1000
0000
0001
0010
0001
0010
,
0100
0100
0000
0100
0010
0010
0000
0010
,
0001
0001
1000
0001
0100
0001
0100
0010
,
2000
0000
3001
0100
0020
0000
1030
0001
,
0100
0010
0100
0002
0000
0013
0001
1000
,
0100
0110
0001
1001
,
0010
0000
0000
1010
0000
0000
0012
0000
0000
0000
1003
0000
0100
0000
0010
0000
,
0001
0100
0001
0100
0010
1000
0010
1000
,
0100
0010
0001
2000
0000
3010
0100
0001
,
1000
0110
0001
0110
,
1000
0000
0000
1100
0000
0000
0201
0000
0000
0000
0310
0000
0100
0010
1000
0010
,
0100
0001
0100
0010
0100
0001
0100
0010
,
1000
0100
1000
0001
1000
0100
0010
0001
,
1000
0100
1100
0000
0001
0100
0101
0000
,
0010
0000
1000
0100
0000
0100
0010
0000
0001
0000
0100
0000
0001
0000
1000
0000
,
0001
0010
0001
0100
0001
0010
0001
0100
,
0010
1000
0010
0100
0010
1000
0001
0010
,
0100
1000
1100
0000
0001
0010
0011
0000
,
1000
0000
0001
0010
0000
0010
0100
0000
1000
0000
0001
0000
0100
0000
0010
0000
,
1000
0100
0010
0002
0000
0000
0000
0103
,
0001
0010
0100
2000
0000
0000
0000
3010
,
1000
0001
0100
0020
0000
0000
0000
0130
,
0001
1000
0010
0200
0000
0000
0310
0000
,
1000
0100
0010
0002
0100
0000
0103
0001
,
1000
0001
1000
0200
0010
0000
0310
0100
,
1000
0000
0000
0001
0000
0000
0100
0000
0010
0000
0000
1000
0000
0000
0001
0000
,
0010
0000
0000
0001
0000
0000
1000
0000
0100
0000
0000
1000
0000
0000
0010
0000
,
0100
0101
0010
1010
,
0001
0001
0000
0000
0100
0100
0000
0000
,
0010
0000
0010
0000
0000
0000
0000
0000
1000
0000
0001
0000
1000
0010
1000
0010
,
0100
0100
0000
0100
0001
0001
0000
0001
,
1000
0100
0010
0001
0100
0000
0010
1000
,
0100
0100
0000
0000
1000
1000
0000
0000
,
0010
0000
0010
0000
0000
0000
0000
0000
0100
0000
0001
0000
0010
0001
0010
0001
,
1000
1000
0000
1000
0001
0001
0000
0001
,
0010
0001
0100
0010
1000
0000
0001
0000
,
0200
0000
1000
0000
0301
0100
0001
1000
,
0200
0000
0001
0000
1300
0100
0010
0001
,
1000
0101
0001
1100
,
1000
0001
0010
0200
0000
0000
1300
0000
,
0020
0000
0001
0000
1030
0010
0100
0001
,
0200
0000
1000
0000
0301
0010
0100
1000
,
0001
1010
1000
0011
,
1000
0001
0010
0200
0000
0000
0310
0000
,
0001
0000
0000
0010
0000
0000
0001
0000
0000
0000
1000
0000
0100
0000
0000
0000
,
1000
0000
0000
0010
0000
0000
1000
0000
0000
0000
0001
0000
0100
0000
0000
0000
,
0010
0000
0000
1000
0000
0000
0001
0000
0000
0000
0010
0000
0100
0000
0000
0000
,
1000
0000
0000
0001
0000
0000
0001
0000
0200
0000
0000
0000
0310
0000
0000
0000
,
1000
0000
0000
0001
0000
0000
0100
0000
0000
0000
0010
0000
0100
0000
0001
0000
,
0010
0000
0000
0100
0000
0000
0010
0000
0000
0000
0001
0000
1000
0000
0100
0000
,
1000
0000
0000
0010
0000
0000
1000
0000
0000
0000
0001
0000
0010
0000
0100
0000
,
1000
0000
0000
0010
0000
0000
0100
0000
0110
0000
0000
0000
0000
0000
0000
0000
,
0002
0000
0000
0000
1003
0001
1000
0001
,
0200
0010
0320
1000
,
2030
0000
3001
0100
0000
0100
0001
1000
,
0001
0011
1000
1010
,
0001
0000
0000
0001
0000
0000
0200
0000
0000
0000
0310
0000
0100
0000
0010
0000
,
2000
0100
3200
0010
,
0320
0000
0031
1000
0000
1000
0100
1000
,
0010
1000
0000
0001
0100
0001
0000
1000
,
0001
1000
0010
0200
0000
0000
0310
0000
,
1000
0100
0001
0100
,
1000
0001
0100
1000
,
0100
0001
0000
1000
0100
1000
0000
0010
,
0100
0010
1000
0002
0000
0000
0000
0000
,
0103
0010
0100
0001
1000
0000
0001
0000
,
1000
0100
0010
0100
1000
0000
0010
0000
,
0100
0001
1000
0001
0010
0000
0001
0000
,
0100
0010
1000
0100
0010
0000
1001
0000
,
0010
0100
0001
1000
0100
0000
1000
0000
,
0001
0010
0100
1000
0001
0000
0100
0000
,
0010
0000
0000
1000
0000
0000
0001
0000
0100
0000
0000
0001
0000
0000
1000
0000
,
0100
0000
0000
0010
0000
0000
0001
0000
1000
0000
0000
0100
0000
0000
1000
0000
,
0010
0110
1010
0101
,
1000
0002
0023
0230
,
1300
0100
0001
0200
0000
0000
0000
0300
;

//---------------dance-single - ----------------
#NOTEDATA:;
#CHARTNAME:;
#STEPSTYPE:dance-single;
#DESCRIPTION:;
#CHARTSTYLE:;
#DIFFICULTY:Medium;
#METER:5;
#RADARVALUES:0.406027,0.501439,0.063473,0.331471,0.024684,347.000000,9.000000,47.000000,0.000000,0.000000,0.000000,0.000000,0.000000,0.406027,0.501439,0.063473,0.331471,0.024684,347.000000,9.000000,47.000000,0.000000,0.000000,0.000000,0.000000,0.000000;
#CREDIT:DJ OMiY;
#NOTES:
0000
0000
0000
0000
,
0000
0000
0000
0000
,
0000
0000
0000
0000
,
0000
0000
0000
0000
,
0001
0100
0000
0001
,
1000
0100
0000
1000
,
0001
0001
0100
0100
,
0010
0000
0000
0010
0000
0000
0010
0000
0000
0000
0000
0000
1000
0000
0000
0000
,
0100
0010
0000
0000
0001
1000
0000
0000
,
0100
0010
0000
0000
0001
1000
0001
0000
,
0100
0010
1000
0001
,
0010
0100
0010
0100
0000
0000
1000
0000
,
0001
0100
0000
0000
0010
1000
0000
0000
,
0001
0100
0000
0000
0001
1000
0001
0000
,
1000
0100
0001
0100
,
1000
0010
1000
0010
0000
0000
0100
0000
,
0002
0100
0203
0010
,
0310
0000
1000
0001
0000
0001
1000
0000
,
0020
0230
0302
2003
,
3100
0000
0000
0010
0000
0000
0001
0000
0000
0000
0000
0000
1000
0000
0010
0000
,
2000
0001
3002
0010
,
0013
0000
0100
1000
0000
1000
0100
0000
,
0020
0230
2300
3002
,
0103
0000
0000
0010
0000
0000
1000
0000
0000
0000
0000
0000
0001
0000
0000
0000
,
0100
0010
1000
0001
,
1000
0000
0100
0010
0000
0001
0100
0000
,
0020
2030
3002
0203
,
0301
0000
0000
1000
0000
0000
0010
0000
0000
0000
0000
0000
1000
0000
0100
0000
,
0010
0001
1000
0100
,
1000
0000
0010
0100
0000
0001
1000
0000
,
0020
2030
3200
0320
,
0031
0000
0000
0010
0000
0000
0100
0000
0000
0000
0000
0000
1000
0000
0000
0000
,
0020
0000
0000
0130
0000
0000
0001
1000
,
0200
0000
0000
0310
0000
0000
0001
0000
,
2000
0000
0000
3010
0000
0000
0100
0001
,
0020
0000
0000
0130
0000
0000
1001
0000
,
0010
1000
0010
0200
0000
0300
0000
0000
,
0001
1000
0001
0020
0000
0030
0000
0000
,
0002
0203
2300
3020
,
0032
0203
2300
3200
,
0301
0101
1000
1100
,
0010
0001
0000
0000
1000
0010
0000
0000
,
0100
0001
0000
0000
1000
0001
1000
0000
,
0010
0100
0001
1000
,
0001
0100
0001
0100
0000
0000
0000
0000
,
0010
1000
0000
0000
0001
0010
0000
0000
,
0100
1000
0000
0000
0010
0100
0010
0000
,
1000
0100
0010
0001
,
0100
0010
0100
0010
0000
0000
0000
0000
,
1000
0000
1000
0000
0001
0100
0001
0000
,
0010
0000
0010
0000
0100
1000
0100
0000
,
1000
0010
0100
0001
,
1000
0000
0100
0010
0000
0001
1000
0000
,
0010
0000
0010
0000
0100
0001
0100
0000
,
0010
0000
0010
0000
1000
0100
1000
0000
,
0001
0010
0100
1000
,
0001
0000
0100
0010
0000
1000
0001
0000
,
0100
0001
1000
0100
,
0010
0100
1000
0001
,
0100
0010
1000
0100
,
0010
0000
0000
0001
0000
0000
0010
0000
0100
0000
0000
0000
1001
0000
0000
0000
,
0010
1000
0001
0100
,
1000
0100
0001
0010
,
0100
1000
0001
1000
,
0100
0000
0000
1000
0000
0000
0001
0000
0100
0000
0000
0000
0000
0000
0000
0000
,
0020
0000
0000
0000
,
1030
1000
0100
0100
,
0010
0010
0001
0001
,
0100
0010
1000
0001
,
0020
0000
0000
0230
0000
0000
1300
0000
,
0001
0100
0001
0100
,
0010
1000
0010
1000
,
0100
0010
0001
1000
,
0010
0000
0000
0110
0000
0000
1000
0000
,
0100
1000
0001
0100
,
0010
1000
0100
0010
,
0001
1000
0001
1000
,
0010
0000
0000
2001
0000
0000
0000
0000
,
3100
0000
0100
0010
0000
0000
0000
0000
,
0001
0000
0001
0100
0000
0000
0000
0000
,
0010
0000
1000
0010
0000
0000
0000
0000
,
0100
0000
0001
1000
0100
0000
1000
0000
,
0010
0100
0010
0100
0000
0000
0000
0000
,
0001
0010
0001
0010
0000
0000
0100
0000
,
2000
3200
0302
0023
,
2030
3200
0302
0203
,
1300
1010
0011
1001
,
0010
0100
0001
0100
,
0001
1000
0001
0020
0000
0000
0000
0030
;

//---------------dance-single - ----------------
#NOTEDATA:;
#CHARTNAME:;
#STEPSTYPE:dance-single;
#DESCRIPTION:;
#CHARTSTYLE:;
#DIFFICULTY:Easy;
#METER:4;
#RADARVALUES:0.352629,0.438759,0.176315,0.359682,0.000000,274.000000,25.000000,51.000000,0.000000,0.000000,0.000000,0.000000,0.000000,0.352629,0.438759,0.176315,0.359682,0.000000,274.000000,25.000000,51.000000,0.000000,0.000000,0.000000,0.000000,0.000000;
#CREDIT:DJ OMiY;
#NOTES:
0000
0000
0000
0000
,
0000
0000
0000
0000
,
0000
0000
0000
0000
,
0000
0000
0000
0000
,
0001
0000
0001
0000
,
1000
0000
1000
0100
,
0010
0010
0010
0010
,
0001
1000
0010
0100
,
0102
0013
2100
3010
,
0102
0013
0001
1000
,
0020
0130
0002
1003
,
0100
0100
1000
0001
,
2010
3100
0012
0103
,
2010
3100
1000
0001
,
0020
0031
2000
3100
,
1000
0010
0010
0100
,
0002
0000
1003
0001
,
0200
0000
0310
1000
,
0100
0010
0001
1000
,
0010
1000
0001
0110
,
1000
0100
0010
0001
,
1000
0010
0100
0010
,
1000
0001
0010
0100
,
1000
0001
1000
0101
,
0020
1000
0100
1030
,
0002
0010
1000
0013
,
0001
1000
0100
0010
,
0001
1000
0010
1001
,
0200
0001
0010
0301
,
2000
0100
0010
3100
,
1000
0001
0100
0010
,
1000
0001
1000
0110
,
0001
0010
0001
0000
,
1000
0010
0100
0000
,
0001
1000
0100
0000
,
0010
0100
1000
0000
,
0010
0100
0001
0000
,
0010
0100
1000
0000
,
0020
0000
2030
0000
,
3002
0000
0023
0000
,
0031
0010
0100
1000
,
2100
3010
0102
0013
,
2100
3010
0001
0100
,
0020
1030
0002
0103
,
0010
1000
0001
1000
,
0102
0013
2100
3010
,
0102
0013
1000
0001
,
0200
0310
2000
3001
,
0010
0100
1000
0001
,
0200
0000
0000
0310
,
2000
0000
0000
3100
,
0010
0001
0010
0100
,
1000
0000
0101
1100
,
0020
0000
0000
0130
,
0002
0000
0000
1003
,
0100
0100
1000
0001
,
0100
0000
0011
1010
,
0200
0000
0302
0000
,
2003
0000
3200
0000
,
0310
0100
1000
0000
,
0001
0010
0100
0000
,
2000
0000
3002
0000
,
0203
0000
0320
0000
,
1030
0001
0100
0000
,
0010
1000
0001
0000
,
2002
0000
0000
3003
,
0100
0000
0001
0000
,
1000
0000
0010
0000
,
0100
0001
0100
0010
,
1000
0000
1001
0000
,
0100
0000
1000
0000
,
0001
0000
0010
0000
,
0001
0010
0100
1000
,
0001
0000
0110
0000
,
1000
0000
0010
0000
,
0100
0000
0001
0000
,
1000
0001
0100
0010
,
0200
0000
0000
0300
,
0001
0000
0100
0010
,
1000
0000
0100
0010
,
0001
0000
1000
0010
,
0100
0000
0011
1100
,
0010
0100
0001
1000
,
0100
0010
0100
1000
,
0010
0100
0001
1000
,
0100
1000
0001
0100
,
0020
2030
3002
0203
,
0301
0000
0010
0001
,
2000
0000
0000
0200
0000
0000
0000
3300
;

//---------------dance-single - ----------------
#NOTEDATA:;
#CHARTNAME:;
#STEPSTYPE:dance-single;
#DESCRIPTION:;
#CHARTSTYLE:;
#DIFFICULTY:Beginner;
#METER:2;
#RADARVALUES:0.152134,0.249309,0.063473,0.211578,0.000000,112.000000,9.000000,30.000000,0.000000,0.000000,0.000000,0.000000,0.000000,0.152134,0.249309,0.063473,0.211578,0.000000,112.000000,9.000000,30.000000,0.000000,0.000000,0.000000,0.000000,0.000000;
#CREDIT:DJ OMiY;
#NOTES:
0000
0000
0000
0000
,
0000
0000
0000
0000
,
0000
0000
0000
0000
,
0000
0000
0000
0000
,
0200
0000
0000
0000
,
0000
0000
0300
0000
,
0001
0000
1000
0000
,
0002
0000
0003
0000
,
0100
0000
0000
0000
,
0010
0000
1000
0000
,
0001
0000
0000
0000
,
1000
0000
0100
0000
,
0010
0000
0000
0000
,
0001
0000
1000
0000
,
0010
0000
0000
0000
,
0200
0000
0300
0000
,
0010
0000
0000
0000
,
0010
0000
0000
1000
,
1000
0000
0000
0000
,
0001
0000
0100
0000
,
0001
0000
0000
0000
,
1000
0000
0000
0010
,
0010
0000
0000
0000
,
0100
0000
0000
0000
,
1001
0000
0000
0000
,
0110
0000
0000
0000
,
1001
0000
0110
0000
,
1001
0000
0000
0000
,
0010
0000
0100
0000
,
0010
0000
0100
0000
,
0001
0000
1000
0000
,
0001
0000
0000
0000
,
2000
0000
0000
3000
0000
0000
0000
0000
,
0020
0000
0000
0030
0000
0000
0000
0000
,
0200
0000
0000
0300
0000
0000
0000
0000
,
0002
0000
0000
0003
0000
0000
0000
0000
,
0220
0000
0000
0330
0000
0000
0000
0000
,
2002
0000
0000
3003
0000
0000
0000
0000
,
0010
0000
0010
0000
,
0100
0000
0100
0000
,
0001
0001
0001
0001
,
0001
0000
1000
0000
,
0001
0000
0100
0000
,
0001
0000
1000
0000
,
2000
0000
3000
0000
,
0010
0000
0100
0000
,
0010
0000
0100
0000
,
0001
0000
1000
0000
,
0002
0000
0003
0000
,
0100
0000
0000
0010
,
0010
0000
0000
1000
,
1000
0000
0000
0000
,
0200
0000
0000
0300
0000
0000
0000
0000
,
0010
0000
0000
0001
,
0001
0000
0000
0100
,
0100
0000
0000
0000
,
0020
0000
0000
0030
0000
0000
0000
0000
,
2000
0000
0000
0000
,
3000
0000
0000
0000
,
0002
0000
0000
0000
,
0003
0000
0000
0000
,
0200
0000
0000
0000
,
0300
0000
0000
0000
,
0020
0000
0000
0000
,
0030
0000
0000
0000
,
0000
0000
0000
0000
,
1000
0000
0000
0000
,
0100
0000
0000
0000
,
0010
0000
0000
0000
,
0001
0000
0000
0000
,
0100
0000
0000
0000
,
0010
0000
0000
0000
,
1000
0000
0001
0000
,
0010
0000
0000
0000
,
0001
0000
0000
0000
,
0010
0000
0000
0000
,
0100
0000
1000
0000
,
0200
0000
0300
0000
,
2000
0000
0000
3000
0000
0000
0000
0000
,
0020
0000
0000
0030
0000
0000
0000
0000
,
0200
0000
0000
0300
0000
0000
0000
0000
,
0002
0000
0000
0003
0000
0000
0000
0000
,
0220
0000
0000
0330
0000
0000
0000
0000
,
2002
0000
0000
3003
0000
0000
0000
0000
,
1000
0000
1000
0000
,
0001
0000
0001
0000
,
0100
0100
0100
0100
,
0200
0000
0300
0000
,
0020
0000
0000
0030
0000
0000
0000
0000
;

//---------------dance-double - ----------------
#NOTEDATA:;
#CHARTNAME:;
#STEPSTYPE:dance-double;
#DESCRIPTION:;
#CHARTSTYLE:;
#DIFFICULTY:Hard;
#METER:8;
#RADARVALUES:0.557154,0.595458,0.176315,0.253893,0.133999,492.000000,25.000000,36.000000,0.000000,0.000000,0.000000,0.000000,0.000000,0.557154,0.595458,0.176315,0.253893,0.133999,492.000000,25.000000,36.000000,0.000000,0.000000,0.000000,0.000000,0.000000;
#CREDIT:DJ OMiY;
#NOTES:
// measure 0
00000000
00000000
00000000
00000000
,  // measure 1
00000000
00000000
00000000
00000000
,  // measure 2
00000000
00000000
00000000
00000000
,  // measure 3
00000000
00000000
00000000
00000000
,  // measure 4
00000001
00000100
00000010
00001000
,  // measure 5
00000100
00000000
00010000
00000000
00001000
00100000
01000000
10000000
,  // measure 6
00020000
02030000
03200000
10300000
,  // measure 7
11000000
00000000
00000000
01010000
00000000
00000000
00011000
00000000
00001000
00000000
00010000
00000000
00000100
00001000
00000001
00001000
,  // measure 8
00000100
00000100
00000000
00000000
00000010
00000010
00000000
00000000
,  // measure 9
00000001
00000000
00000001
00000000
00000000
00000000
00000000
00000000
00001000
00000000
00001000
00000000
00000100
00010000
00000100
00010000
,  // measure 10
00001000
00001000
00000000
00001000
00100000
00100000
00000000
00100000
,  // measure 11
00010000
10000000
00010000
01000000
00100000
00000000
00100000
00000000
,  // measure 12
10000000
10000000
00000000
00000000
01000000
01000000
00000000
00000000
,  // measure 13
00010000
00000000
00010000
00000000
00000000
00000000
00000000
00000000
01000000
00000000
01000000
00000000
00100000
00001000
00100000
00001000
,  // measure 14
00010000
00010000
00000000
00010000
00000100
00000100
00000000
00000100
,  // measure 15
00000010
00000001
00001000
00000001
00000100
00000000
00000100
00000000
,  // measure 16
00000010
00001000
00000100
00000000
00000010
00000001
00000100
00000000
,  // measure 17
00000010
00000000
00000010
00001000
00000000
00001000
00000100
00010000
,  // measure 18
00001000
00101000
00011000
00010100
,  // measure 19
00000010
00000000
00000000
00000100
00000000
00000000
00001000
00000000
00000000
00000000
00010000
00000000
00010000
00000000
00001000
00000000
,  // measure 20
00100000
00010000
01000000
00000000
00100000
10000000
01000000
00000000
,  // measure 21
00100000
00000000
00100000
00010000
00000000
00010000
10000000
01000000
,  // measure 22
00100000
11000000
01010000
11000000
,  // measure 23
00100000
00000000
00000000
00001000
00000000
00000000
00010000
00000000
00001000
00000000
00010000
00000000
00000010
00001000
00000100
00010000
,  // measure 24
00001000
00010000
00000100
00001000
00000100
00000010
00000001
00000100
,  // measure 25
00000010
00000100
00000001
00002000
00000000
00003100
00001000
00000010
,  // measure 26
00000100
00000101
00000110
00001010
,  // measure 27
00001000
00000000
00000100
00010000
00000000
00010000
00001000
00000000
00100000
00000000
00010000
00000000
01000000
00000000
00100000
00000000
,  // measure 28
10000000
01000000
10000000
01000000
00100000
00010000
01000000
00010000
,  // measure 29
00100000
01000000
10000000
00020000
00000000
00130000
00010000
01000000
,  // measure 30
00100000
10100000
01100000
01010000
,  // measure 31
00100000
00000000
00100000
00001000
00000000
00001000
00010000
00000000
00000100
00000000
00001000
00000000
00000010
00001000
00000001
00001000
,  // measure 32
00000100
00010000
00001000
00200000
00000000
00300000
00010000
10000000
,  // measure 33
01000000
00100000
01000000
20000000
00000000
30000000
00100000
01000000
,  // measure 34
00001000
00010000
00000100
00000020
00000000
00000030
00000001
00000100
,  // measure 35
00000010
00001000
00000001
00000020
00000000
00000030
00000100
00000000
,  // measure 36
00001000
00000100
00010000
00002000
00010000
00000000
00013000
00001000
,  // measure 37
00100000
00010000
01000000
00200000
10000000
00000000
10300000
00010000
,  // measure 38
10000000
00000000
00000000
00100000
00000000
00000000
00010000
00000000
00001000
00000000
00000000
00000100
00000000
00000000
00000001
00000000
,  // measure 39
00000010
00000000
00000000
00001000
00000000
00000000
00010000
00000000
01000000
00000000
00000000
10000000
00000000
00000000
00100000
00000000
,  // measure 40
00010000
00011000
00000100
00001001
,  // measure 41
00000010
00000010
00000000
00000000
00000100
00000100
00000000
00000000
,  // measure 42
00001000
00000000
00001000
00000000
00000000
00000000
00000000
00000000
00000100
00000000
00000100
00000000
00010000
00001000
00010000
00001000
,  // measure 43
00100000
00100000
00000000
00100000
00010000
00010000
00000000
00010000
,  // measure 44
10000000
01000000
00100000
00020000
01000000
00000000
10030000
00000000
,  // measure 45
00010000
00010000
00000000
00000000
01000000
01000000
00000000
00000000
,  // measure 46
00010000
00000000
00010000
00000000
00000000
00000000
00000000
00000000
00100000
00000000
00100000
00000000
00001000
00010000
00001000
00010000
,  // measure 47
00000100
00000100
00000000
00000100
00000010
00000010
00000000
00000010
,  // measure 48
00000001
00001000
00000100
00000020
00000001
00000000
00000130
00010000
,  // measure 49
00002000
00000000
00010000
00000000
00003100
00001000
00010000
00100000
,  // measure 50
02000000
00000000
00010000
00000000
13000000
01000000
00010000
00100000
,  // measure 51
01000000
10000000
00010000
00000000
00100000
00001000
00010000
00000000
,  // measure 52
00000100
00000010
00000001
00002000
00000000
00003000
00001001
00000000
,  // measure 53
00000020
00000000
00001000
00000000
00000031
00000010
00001000
00000001
,  // measure 54
00000200
00000000
00000010
00000000
00001300
00000100
00000010
00001000
,  // measure 55
00000100
00010000
00001000
00000000
00100000
00010000
01000000
00000000
,  // measure 56
00100000
10000000
00010000
20000000
00000000
30000000
10010000
00000000
,  // measure 57
00100000
00000000
00000000
01000000
00000000
00000000
00010000
00000000
00000000
00000000
00100000
00000000
00001000
00000000
00000000
00000000
,  // measure 58
00010000
00000000
00000000
00000100
00000000
00000000
00000010
00000000
00000000
00000000
00000100
00000000
00001000
00000000
00000000
00000000
,  // measure 59
00000001
00000000
00000000
00000010
00000000
00000000
00000100
00000000
00000000
00000000
00000010
00000000
00000001
00000000
00000000
00000000
,  // measure 60
00001000
00000000
00000000
00000010
00000000
00000000
00000100
00000000
00000110
00000000
00000000
00000000
00001000
00000000
00000000
00000000
,  // measure 61
00000100
00000000
00000000
00010000
00000000
00000000
00001000
00000000
00000000
00000000
00010000
00000000
00100000
00000000
10000000
00000000
,  // measure 62
00010000
00000000
00000000
10000000
00000000
00000000
01000000
00000000
00000000
00000000
00100000
00000000
00001000
00000000
00010000
00000000
,  // measure 63
00000100
00000000
00000000
00000001
00000000
00000000
00000100
00000000
00000000
00000000
00000010
00000000
00000001
00000000
00001000
00000000
,  // measure 64
00000100
00000000
00000000
00010000
00000000
00000000
00001000
00000000
00011000
00000000
00000000
00000000
00100000
00000000
00000000
00000000
,  // measure 65
00020000
00000000
00000000
00000000
01030000
00010000
01000000
00010000
,  // measure 66
20000000
01000000
32000000
00100000
,  // measure 67
03200000
00000000
00310000
00100000
00000000
00100000
00001000
00010000
,  // measure 68
00002000
00003200
00000302
00000023
,  // measure 69
00000130
00000000
00000000
00001000
00000000
00000000
00000001
00000000
00000000
00000000
00000000
00000000
00000100
00000000
00000001
00000000
,  // measure 70
00000010
00000010
00000001
00000001
,  // measure 71
00000100
00000000
00000100
00000000
00000010
00001000
00000010
00000000
,  // measure 72
00010000
00001000
00000000
00010000
00001000
00100000
00000000
00010000
,  // measure 73
10000000
00010000
01000000
00200000
00000000
00000000
10300000
00000000
,  // measure 74
01000000
01000000
00100000
00100000
,  // measure 75
00001000
00000000
00001000
00000000
00010000
00000000
00001000
00010000
,  // measure 76
00000100
00001000
00000000
00000010
00000100
00000001
00000000
00000010
,  // measure 77
00000100
00001000
00000001
00000200
00000000
00000000
00000000
00000000
,  // measure 78
00000310
00000100
00000001
00002000
00000100
00000000
00003001
00000000
,  // measure 79
00001000
00000100
00010000
00002000
00100000
00000000
01003000
00000000
,  // measure 80
00010000
01000000
00100000
20000000
01000000
00000000
30010000
00000000
,  // measure 81
01000000
10000000
00010000
00100000
00001000
00010000
00000100
00000000
,  // measure 82
00000010
00000100
00001000
00000002
00000100
00000000
00000013
00000001
,  // measure 83
00001000
00000100
00010000
00002000
00010000
00000000
00103000
00000000
,  // measure 84
00110000
00000000
00000000
00010000
00000000
00000000
10000000
00000000
01000000
00000000
00000000
00100000
00000000
00000000
00010000
00000000
,  // measure 85
00001000
00000000
00000000
00000100
00000000
00000000
00000010
00000000
00000001
00000000
00000000
00001000
00000000
00000000
00000010
00000000
,  // measure 86
00000100
00000101
00001100
00012000
,  // measure 87
00103000
00010000
01000000
00100000
,  // measure 88
10000000
01000000
00010000
00002000
00000000
00000000
00000000
00003000
;

//---------------dance-double - ----------------
#NOTEDATA:;
#CHARTNAME:;
#STEPSTYPE:dance-double;
#DESCRIPTION:;
#CHARTSTYLE:;
#DIFFICULTY:Medium;
#METER:6;
#RADARVALUES:0.475546,0.532779,0.239788,0.557154,0.052894,359.000000,34.000000,79.000000,0.000000,0.000000,0.000000,0.000000,0.000000,0.475546,0.532779,0.239788,0.557154,0.052894,359.000000,34.000000,79.000000,0.000000,0.000000,0.000000,0.000000,0.000000;
#CREDIT:DJ OMiY;
#NOTES:
// measure 0
00000000
00000000
00000000
00000000
,  // measure 1
00000000
00000000
00000000
00000000
,  // measure 2
00000000
00000000
00000000
00000000
,  // measure 3
00000000
00000000
00000000
00000000
,  // measure 4
10000000
01000000
00100000
00010000
,  // measure 5
10000000
01000000
00100000
00010000
,  // measure 6
01010000
10100000
11000000
00110000
,  // measure 7
00001000
00000000
00000000
00010000
00000000
00000000
00000100
00000000
00000010
00000000
00000001
00000000
00000100
00000000
00000010
00000000
,  // measure 8
00001000
00000100
00000000
00000000
00000010
00000001
00000000
00000000
,  // measure 9
00000001
00000100
00000000
00000000
00000100
00001000
00010000
01000000
,  // measure 10
10000000
00010000
00000000
00000000
00100000
01000000
00000000
00000000
,  // measure 11
10000000
00010000
01000000
00200000
00000000
00000000
00300000
00000000
,  // measure 12
10000000
01000000
00000000
00000000
00100000
00010000
00000000
00000000
,  // measure 13
10000000
00100000
00000000
00000000
01000000
00001000
00010000
00000100
,  // measure 14
00001000
00000010
00000000
00000000
00000100
00000001
00000000
00000000
,  // measure 15
00000010
00000100
00001000
00000002
00000000
00000000
00000003
00000000
,  // measure 16
00000020
00000100
00000032
00000100
,  // measure 17
00002003
00000000
00003100
00010000
00001000
00000000
00010000
00000100
,  // measure 18
00010000
00010100
00011000
00101000
,  // measure 19
00020000
00000000
00000000
10000000
00000000
00000000
02000000
00000000
00030000
00000000
03010000
00000000
10000000
00000000
01000000
00000000
,  // measure 20
00200000
01000000
00320000
10000000
,  // measure 21
02030000
00000000
03001000
00100000
00001000
00000000
00010000
00000100
,  // measure 22
00001000
00001010
00001001
00001010
,  // measure 23
00000200
00000000
00000000
00000001
00000000
00000000
00000320
00000000
00000130
00000000
00000010
00000000
00000100
00000000
00000010
00000000
,  // measure 24
00000100
00000001
00000010
00000100
,  // measure 25
00001000
00000000
00000100
00010000
00001000
00000000
00100000
00000000
,  // measure 26
01010000
11000000
10100000
00110000
,  // measure 27
10000000
00000000
00000000
01000000
00000000
00000000
00100000
00000000
00000000
00000000
00010000
00000000
00100000
00000000
01000000
00000000
,  // measure 28
10000000
00100000
01000000
00001000
,  // measure 29
00010000
00000000
00000100
00001000
00000010
00000000
00000100
00000000
,  // measure 30
00000101
00000011
00001100
00001010
,  // measure 31
00000100
00000000
00000000
00000010
00000000
00000000
00000100
00000000
00000001
00000000
00001000
00000000
00000001
00000000
00001000
00000000
,  // measure 32
00000200
00000000
00000000
00000320
00000000
00000000
00000031
00000000
,  // measure 33
00002000
00000000
00000000
00003200
00000000
00000000
00010300
00001000
,  // measure 34
00200000
00000000
00000000
00320000
00000000
00000000
10030000
00000000
,  // measure 35
00020000
00000000
00000000
02030000
00000000
00000000
03100000
10000000
,  // measure 36
00010000
10000000
01000000
00200000
00000000
00000000
00300000
00000000
,  // measure 37
01000000
10000000
00010000
00200000
00000000
00000000
00301000
00000000
,  // measure 38
00010000
00000000
00000000
00000100
00000000
00000000
00001000
00000000
00000010
00000000
00000000
00000000
00000110
00000000
00000000
00000000
,  // measure 39
00000001
00000000
00000000
00001000
00000000
00000000
00000100
00000000
00010000
00000000
00000000
00000000
00011000
00000000
00000000
00000000
,  // measure 40
00100000
00020000
20030000
30100000
,  // measure 41
01000000
00010000
00000000
00000000
10000000
00100000
00000000
00000000
,  // measure 42
00010000
00001000
00000000
00000000
00000100
00000001
00001000
00000010
,  // measure 43
00000100
00000001
00000000
00000000
00001000
00000010
00000000
00000000
,  // measure 44
00010000
00001000
00100000
02000000
00000000
00000000
03000000
00000000
,  // measure 45
00100000
00010000
00000000
00000000
10000000
01000000
00000000
00000000
,  // measure 46
00100000
00001000
00000000
00000000
00010000
00000100
00001000
00000010
,  // measure 47
00000100
00000010
00000000
00000000
00001000
00000001
00000000
00000000
,  // measure 48
00000010
00000001
00000010
00000200
00000000
00000000
00000300
00000000
,  // measure 49
00001000
00000000
00000100
00000000
00000010
00000100
00001000
00000000
,  // measure 50
00000100
00000000
00010000
00000000
00001000
00010000
01000000
00000000
,  // measure 51
00100000
00000000
01000000
00000000
10000000
00010000
01000000
00000000
,  // measure 52
00100000
00000000
10000000
00010000
00000000
00010000
10000000
00000000
,  // measure 53
00100000
00000000
01000000
00000000
00010000
00100000
00001000
00000000
,  // measure 54
00010000
00000000
00000100
00000000
00000010
00000100
00000010
00000000
,  // measure 55
00000001
00000000
00001000
00000000
00000010
00000100
00000001
00000000
,  // measure 56
00001000
00000000
00000100
00010000
00000000
00010000
00000100
00000000
,  // measure 57
00001000
00000000
00000000
00000010
00000000
00000000
00000001
00000000
00000000
00000000
00000000
00000000
00000010
00000000
00000000
00000000
,  // measure 58
00001000
00000000
00000000
00000100
00000000
00000000
00000001
00000000
00000000
00000000
00000000
00000000
00000100
00000000
00000000
00000000
,  // measure 59
00010000
00000000
00000000
00001000
00000000
00000000
00100000
00000000
00000000
00000000
00000000
00000000
00010000
00000000
00000000
00000000
,  // measure 60
10000000
00000000
00000000
00100000
00000000
00000000
01000000
00000000
00010000
00000000
00000000
00000000
00000000
00000000
00000000
00000000
,  // measure 61
10000000
00000000
00000000
00100000
00000000
00000000
00010000
00000000
00000000
00000000
00000000
00000000
00100000
00000000
00000000
00000000
,  // measure 62
10000000
00000000
00000000
01000000
00000000
00000000
00010000
00000000
00000000
00000000
00000000
00000000
01000000
00000000
00000000
00000000
,  // measure 63
10000000
00000000
00000000
00010000
00000000
00000000
00100000
00000000
00000000
00000000
00001000
00000000
00010000
00000000
00000000
00000000
,  // measure 64
00000100
00000000
00000000
00000010
00000000
00000000
00000100
00000000
00002000
00000000
00000000
00000000
00003000
00000000
00000000
00000000
,  // measure 65
00000220
00000000
00000000
00000330
,  // measure 66
00000202
00000303
00002020
00003030
,  // measure 67
00022000
00000000
00033000
00220000
00000000
00330000
10000000
00000000
,  // measure 68
02000000
23000000
30200000
00320000
,  // measure 69
02030000
00000000
00000000
20000000
00000000
33000000
10000000
00000000
,  // measure 70
02200000
03300000
00220000
00330000
,  // measure 71
00022000
00000000
00033000
00002020
00000000
00003030
00000001
00000000
,  // measure 72
00000020
00000031
00000020
00000130
,  // measure 73
00000010
00000000
00000001
00001000
00000000
00000000
00000100
00000000
,  // measure 74
00002200
00003300
00022000
00033000
,  // measure 75
02020000
00000000
03030000
20020000
00000000
30030000
00100000
00000000
,  // measure 76
10000000
01000000
00000000
00000000
00010000
01000000
00000000
00000000
,  // measure 77
10000000
02000000
00000000
00200000
00000000
00000000
03300000
00000000
,  // measure 78
10020000
00000000
00000000
00230000
00000000
00000000
00310000
00000000
,  // measure 79
20000000
00000000
00000000
32000000
00000000
00000000
03100000
00001000
,  // measure 80
00020000
00000000
00000000
00030200
00000000
00000000
00001300
00000000
,  // measure 81
00000020
00000000
00000000
00000230
00000000
00000000
00000301
00000000
,  // measure 82
00000020
00000000
00000000
00000230
00000000
00000000
00001300
00000100
,  // measure 83
00020000
00000000
00000000
00032000
00000000
00000000
00103000
00000000
,  // measure 84
00010000
01000000
00100000
10000000
,  // measure 85
01000000
00100000
00001000
00010000
,  // measure 86
00000100
00000020
00000230
00010300
,  // measure 87
00002000
00103000
00010000
10000000
,  // measure 88
00100000
01000000
00010000
02000000
00000000
00000000
00000000
03000000
;

//---------------dance-double - ----------------
#NOTEDATA:;
#CHARTNAME:;
#STEPSTYPE:dance-double;
#DESCRIPTION:;
#CHARTSTYLE:;
#DIFFICULTY:Easy;
#METER:3;
#RADARVALUES:0.350614,0.376079,0.133999,0.620627,0.000000,241.000000,19.000000,88.000000,0.000000,0.000000,0.000000,0.000000,0.000000,0.350614,0.376079,0.133999,0.620627,0.000000,241.000000,19.000000,88.000000,0.000000,0.000000,0.000000,0.000000,0.000000;
#CREDIT:DJ OMiY;
#NOTES:
// measure 0
00000000
00000000
00000000
00000000
,  // measure 1
00000000
00000000
00000000
00000000
,  // measure 2
00000000
00000000
00000000
00000000
,  // measure 3
00000000
00000000
00000000
00000000
,  // measure 4
00002000
00100000
00000000
00023000
,  // measure 5
00000000
00000100
00000000
00032000
,  // measure 6
00103000
00010000
10000000
01000000
,  // measure 7
02200000
00000000
00000000
03300000
00000000
00000000
00000000
00000000
,  // measure 8
20000000
30100000
00020000
00130000
,  // measure 9
20000000
30100000
00010000
00011000
,  // measure 10
00002000
00003100
00000002
00000103
,  // measure 11
00002000
00003100
00000002
00000003
,  // measure 12
00000002
00000013
00002000
00003010
,  // measure 13
00000002
00000013
00001000
00011000
,  // measure 14
00020000
01030000
20000000
31000000
,  // measure 15
00020000
01030000
20000000
30100000
,  // measure 16
02000000
00000000
03020000
00000000
,  // measure 17
10030000
01000000
00100000
00000000
,  // measure 18
00001000
00010000
00001000
00010000
,  // measure 19
00000200
00000000
00000020
00000330
,  // measure 20
00000002
00000000
00000203
00000000
,  // measure 21
00000310
00001000
00000100
00000000
,  // measure 22
00010000
00001000
00010000
00001000
,  // measure 23
00200000
00000000
02000000
03300000
,  // measure 24
20000000
00100000
30020000
00100000
,  // measure 25
10030000
01000000
00100000
00010000
,  // measure 26
00100000
00100000
00100000
00100000
,  // measure 27
00002000
00000000
00020000
00033000
,  // measure 28
00000010
00000010
00001000
00001000
,  // measure 29
00000001
00000010
00000100
00000000
,  // measure 30
00000010
00000001
00000010
00000001
,  // measure 31
00002000
00000000
00000200
00003300
,  // measure 32
00000002
00000000
00000000
00000003
00000000
00000000
00000100
00000000
,  // measure 33
00000020
00000000
00000000
00000030
00000000
00000000
00000010
00000000
,  // measure 34
00002000
00000000
00000000
00003000
00000000
00000000
00000100
00000000
,  // measure 35
00020000
00000000
00000000
00030000
00000000
00000000
00011000
00000000
,  // measure 36
00002000
00000000
00000000
00003000
00000000
00000000
00100000
00000000
,  // measure 37
02000000
00000000
00000000
03000000
00000000
00000000
00100000
00000000
,  // measure 38
00020000
00000000
00230000
00000000
,  // measure 39
00302000
00000000
00023000
00000000
,  // measure 40
00030100
00000100
00000110
00000110
,  // measure 41
00000002
00000103
00002000
00003100
,  // measure 42
00000002
00000103
00001000
00011000
,  // measure 43
00020000
00130000
20000000
30100000
,  // measure 44
00020000
00130000
20000000
30000000
,  // measure 45
20000000
31000000
00020000
01030000
,  // measure 46
20000000
31000000
00010000
00011000
,  // measure 47
00002000
00003010
00000002
00000013
,  // measure 48
00002000
00003010
00000002
00000103
,  // measure 49
00000020
00000000
00001000
00000100
,  // measure 50
00002030
00000000
00000100
00000001
,  // measure 51
00003200
00000000
00020300
00000000
,  // measure 52
00031000
00100000
00010000
00000000
,  // measure 53
20000000
00000000
00010000
00100000
,  // measure 54
30020000
00000000
01000000
10000000
,  // measure 55
02030000
00000000
03200000
00000000
,  // measure 56
00310000
00001000
00010000
00000000
,  // measure 57
00000100
00000000
00000100
00000000
,  // measure 58
00000010
00000001
00001000
00000000
,  // measure 59
00000010
00000000
00000010
00000000
,  // measure 60
00001000
00000100
00010000
00000000
,  // measure 61
00001000
00100000
00001000
00000000
,  // measure 62
00100000
01000000
00100000
00000000
,  // measure 63
00010000
10000000
00010000
00000000
,  // measure 64
01000000
00100000
20000000
00000000
,  // measure 65
02000000
00000000
33000000
00000000
,  // measure 66
00110000
00000000
10010000
00000000
,  // measure 67
02020000
00000000
00000000
03030000
00000000
00000000
10000000
00000000
,  // measure 68
01000000
01000000
00100000
00100000
,  // measure 69
00020000
00000000
00000000
00030000
00000000
00000000
00100000
00000000
,  // measure 70
00011000
00000000
00010100
00000000
,  // measure 71
00002200
00000000
00000000
00003300
00000000
00000000
00000010
00000000
,  // measure 72
00000002
00000003
00002000
00003000
,  // measure 73
00000010
00000010
00000000
00000100
,  // measure 74
00001001
00000000
00001100
00000000
,  // measure 75
00022000
00000000
00000000
00033000
00000000
00000000
00001000
00000000
,  // measure 76
00200000
00300000
02000000
03000000
,  // measure 77
20000000
00020000
00000000
30030000
,  // measure 78
02000000
00000000
00000000
03000000
00000000
00000000
00010000
00000000
,  // measure 79
00200000
00000000
00000000
00300000
00000000
00000000
00000000
00000000
,  // measure 80
02000000
00000000
00000000
03000000
00000000
00000000
10000000
00000000
,  // measure 81
00020000
00000000
00000000
00030000
00000000
00000000
00000000
00000000
,  // measure 82
00200000
00000000
00000000
00300000
00000000
00000000
00101000
00000000
,  // measure 83
00002000
00000000
00000000
00003000
00000000
00000000
00011000
00000000
,  // measure 84
00010000
00000100
00000010
00000001
,  // measure 85
00000100
00000010
00000100
00000001
,  // measure 86
00000010
00000010
00000100
00000200
,  // measure 87
00000300
00010000
00000010
00001000
,  // measure 88
00000100
00000000
00001000
00000020
00000000
00000000
00000000
00000030
;
