#VERSION:0.81;
#TITLE:Ψ²;
#SUBTITLE:;
#ARTIST:DM ASHURA;
#TITLETRANSLIT:Psi squared;
#SUBTITLETRANSLIT:;
#ARTISTTRANSLIT:;
#GENRE:Epic Trance;
#ORIGIN:;
#CREDIT:;
#BANNER:Psi squared-bn.png;
#BACKGROUND:Psi squared-bg.png;
#PREVIEWVID:;
#JACKET:Psi squared-jk.png;
#CDIMAGE:;
#DISCIMAGE:;
#LYRICSPATH:;
#CDTITLE:PROJECT GOLDENROD-cdtitle.png;
#MUSIC:Psi squared.mp3;
#OFFSET:-1.663000;
#SAMPLESTART:39.537998;
#SAMPLELENGTH:12.652000;
#SELECTABLE:YES;
#BPMS:0.000=152.000;
#STOPS:;
#DELAYS:;
#WARPS:;
#TIMESIGNATURES:0.000=4=4;
#TICKCOUNTS:0.000=4;
#COMBOS:0.000=1;
#SPEEDS:0.000=1.000=0.000=0;
#SCROLLS:0.000=1.000;
#FAKES:;
#LABELS:0.000=Song Start;
#LASTSECONDHINT:117.716003;
#BGCHANGES:;
#KEYSOUNDS:;
#ATTACKS:
;

//---------------dance-single - ----------------
#NOTEDATA:;
#CHARTNAME:;
#STEPSTYPE:dance-single;
#DESCRIPTION:;
#CHARTSTYLE:;
#DIFFICULTY:Hard;
#METER:9;
#RADARVALUES:0.608026,0.669984,0.072824,0.032366,0.323664,513.000000,9.000000,4.000000,0.000000,0.000000,0.000000,0.000000,0.000000,0.608026,0.669984,0.072824,0.032366,0.323664,513.000000,9.000000,4.000000,0.000000,0.000000,0.000000,0.000000,0.000000;
#CREDIT:DJ OMiY;
#NOTES:
// measure 0
0000
0000
0000
0000
,  // measure 1
0000
0000
0000
0000
,  // measure 2
0000
0000
0000
0000
,  // measure 3
0000
0000
0000
0000
,  // measure 4
0000
0000
0000
0000
,  // measure 5
0000
0000
0000
0000
,  // measure 6
0000
0000
0000
0000
,  // measure 7
1000
0000
0000
0000
0001
0000
0000
0100
0010
0000
0000
0000
1000
0100
1000
0100
,  // measure 8
0010
0001
0100
0010
1000
0100
0010
0001
,  // measure 9
0010
0100
0010
1000
0010
0001
0100
0010
,  // measure 10
1000
0010
0100
0001
0100
0010
1000
0100
,  // measure 11
0010
0000
0001
0000
1000
0000
0001
0000
0010
0000
0001
1000
0000
0010
0100
0000
,  // measure 12
0001
0010
0100
1000
0100
0010
0100
1000
,  // measure 13
0100
0001
0100
0010
0001
0100
0010
1000
,  // measure 14
0001
0010
0001
1000
0100
1000
0010
0100
,  // measure 15
0001
0000
0010
0000
0001
0000
1000
0000
0100
0000
1000
0001
0100
0000
0001
1000
,  // measure 16
0010
0100
0001
0010
0100
1000
0100
0010
,  // measure 17
0001
1000
0010
0100
0001
0010
0100
0010
,  // measure 18
0001
1000
0010
0100
1000
0100
0001
1000
,  // measure 19
0100
1000
0001
0010
0100
1000
0010
1000
,  // measure 20
0001
0010
0100
1000
0100
0010
0001
1000
,  // measure 21
0010
0100
0001
1000
0100
0001
0100
1000
,  // measure 22
0001
0010
0100
1000
0010
0100
0001
1000
,  // measure 23
2200
0000
0000
3300
,  // measure 24
1001
1000
0100
0010
0100
1000
0001
0100
,  // measure 25
0001
0000
0010
0000
0100
0000
1000
0000
0100
0000
0010
0000
0001
0100
0001
1000
,  // measure 26
0001
0010
0100
1000
0010
0100
1000
0100
,  // measure 27
0010
1000
0100
0010
0001
1000
0010
1000
,  // measure 28
1100
0100
0010
0001
1000
0010
0100
0001
,  // measure 29
0010
0000
0001
0000
1000
0000
0010
0000
0100
0000
0010
0000
1000
0100
1000
0001
,  // measure 30
0100
0010
1000
0001
0010
0100
0010
0001
,  // measure 31
0100
0000
0010
0000
1000
0000
0001
0000
0010
0000
0001
1000
0010
0000
0100
0000
,  // measure 32
0110
0100
0001
1000
0100
0010
0001
1000
,  // measure 33
0010
0000
0100
0000
0001
0000
0010
0000
0001
0000
1000
0000
0100
1000
0001
1000
,  // measure 34
0100
0010
0100
1000
0001
0100
0010
0100
,  // measure 35
0001
0000
0010
0000
1000
0000
0010
0000
0001
0000
1000
0001
0000
0001
0100
0000
,  // measure 36
0110
0010
1000
0001
1000
0100
0010
0001
,  // measure 37
0010
0000
0100
0000
0010
0000
0001
0000
1000
0000
0010
0000
0100
0001
0010
0100
,  // measure 38
1000
0010
0100
0001
1000
0100
0010
0001
,  // measure 39
1000
0000
1000
0000
0100
0000
0100
0000
0010
0000
0010
0000
0001
1000
0001
0000
,  // measure 40
0101
0000
1000
0100
0000
1000
0100
0000
0010
0000
0001
0100
0000
0001
0100
0000
,  // measure 41
0010
0000
1000
0001
0000
1000
0001
0000
0100
0000
0001
0010
0001
0010
0001
1000
,  // measure 42
0010
0000
1000
0100
0000
1000
0100
0000
0010
0000
0001
1000
0000
0001
1000
0000
,  // measure 43
0100
0000
0010
0100
0000
0010
0100
0000
1000
0000
0001
0100
0001
0000
1000
0000
,  // measure 44
1001
0000
0001
0100
0000
0001
0100
0000
0001
0000
0100
0010
0000
0100
0010
0000
,  // measure 45
1000
0000
0010
1000
0000
0010
1000
0000
0001
0000
0100
0010
0100
0010
0100
0001
,  // measure 46
0100
0000
0010
1000
0000
0010
1000
0000
0001
0000
0010
0001
0000
0010
0001
0000
,  // measure 47
0100
0000
0001
1000
0000
0001
1000
0000
0010
0000
1000
0100
1000
0000
0100
0000
,  // measure 48
0010
0100
0000
1000
0000
0000
0001
0000
0100
0010
0000
1000
0000
0000
0010
0000
,  // measure 49
0100
0001
0000
0010
0000
0000
0100
0000
1000
0100
0000
1000
0001
1000
0010
1000
,  // measure 50
0001
0100
0000
0001
0000
0000
0010
0000
0100
1000
0000
0001
0000
0000
0100
0000
,  // measure 51
0010
1000
0000
0001
0000
0000
0100
0000
0010
1000
0000
1000
0001
0000
0100
0000
,  // measure 52
0001
0010
0100
1000
0010
0100
0001
0010
,  // measure 53
0001
0000
1000
0000
0010
0000
0100
0000
0010
0000
1000
0000
0100
1000
0001
1000
,  // measure 54
0010
0010
0100
0100
0001
0001
1000
1000
,  // measure 55
0010
0000
0100
0001
0000
1000
0010
0000
0100
0010
0000
1000
0100
0000
1000
0001
,  // measure 56
0010
0001
1000
0000
0010
0100
0001
0000
,  // measure 57
0100
0001
1000
0000
0010
0100
0010
1000
,  // measure 58
0001
0100
0010
0000
1000
0100
0010
0000
,  // measure 59
0100
1000
0001
0000
1000
0010
0100
0001
,  // measure 60
0010
0001
1000
0000
0100
1000
0010
0000
,  // measure 61
0100
0001
1000
0000
0100
1000
0001
1000
,  // measure 62
0010
0100
0001
0000
0100
0010
1000
0000
,  // measure 63
0100
0000
1000
0000
0001
0000
0000
0000
1001
0000
0000
0100
0001
0000
1000
0001
,  // measure 64
0100
0010
1000
0100
,  // measure 65
0010
0001
0100
0001
,  // measure 66
0010
0100
1000
0010
,  // measure 67
0001
0010
0100
0001
,  // measure 68
0010
0100
1000
0001
,  // measure 69
1000
0010
0100
0001
,  // measure 70
1000
0000
0000
0100
0000
0000
0010
0000
0000
0001
0000
0000
1000
0000
0002
0000
,  // measure 71
2000
0000
0000
3003
,  // measure 72
0110
0000
0000
0000
;

//---------------dance-single - ----------------
#NOTEDATA:;
#CHARTNAME:;
#STEPSTYPE:dance-single;
#DESCRIPTION:;
#CHARTSTYLE:;
#DIFFICULTY:Medium;
#METER:7;
#RADARVALUES:0.475092,0.524336,0.145649,0.258931,0.036412,361.000000,18.000000,32.000000,0.000000,0.000000,0.000000,0.000000,0.000000,0.475092,0.524336,0.145649,0.258931,0.036412,361.000000,18.000000,32.000000,0.000000,0.000000,0.000000,0.000000,0.000000;
#CREDIT:DJ OMiY;
#NOTES:
0000
0000
0000
0000
,
0000
0000
0000
0000
,
0000
0000
0000
0000
,
0000
0000
0000
0000
,
0000
0000
0000
0000
,
0000
0000
0000
0000
,
0000
0000
0000
0000
,
0000
0000
0000
0000
,
1001
1000
0100
0000
0010
0001
0100
0000
,
0010
1000
0001
0000
1000
0000
0110
0000
,
0001
1000
0001
0000
0100
0010
1000
0000
,
0100
0000
0010
0000
0001
0000
0000
0000
0010
0000
0001
1000
0000
0001
1000
0000
,
0100
1000
0010
0000
0100
0001
1000
0000
,
0010
0100
0001
0000
0010
0001
1000
0000
,
0100
1000
0010
0000
1000
0100
0001
0000
,
0001
0000
0100
0000
1000
0000
0000
0000
0010
0000
0000
1000
0001
0000
1000
0001
,
1000
0000
0010
0000
0100
0001
1000
0000
,
0010
0000
1000
0000
0100
0010
0001
0000
,
1000
0000
0010
0000
0100
0001
1000
0000
,
0010
0000
0100
0000
0001
0010
0100
1000
,
0001
0000
0100
0000
0010
1000
0001
0000
,
1000
0000
0100
0000
0010
0100
1000
0000
,
0001
0000
0100
0000
0010
1000
0001
0000
,
0220
0000
0000
0330
,
1002
0000
1003
0100
0010
0001
0010
0100
,
2000
0000
3001
0100
0010
0100
0001
1000
,
0020
1000
1030
0001
0010
0100
0001
0100
,
2000
0000
3100
1000
0001
0010
0100
0010
,
0002
0000
1003
0010
0100
0001
1000
0100
,
0020
0000
0130
1000
0001
1000
0010
1000
,
0200
0010
0310
0001
0010
0100
1000
0010
,
2000
0000
0000
0000
3010
0000
0100
0000
0010
0000
0000
1000
0001
0000
1000
0001
,
1000
0100
0010
0001
0100
0010
1000
0000
,
0001
0100
0010
1000
0100
0010
0002
1000
,
1003
0100
1000
0001
0100
0010
0100
0000
,
0001
0010
1000
0010
0001
1000
0010
0000
,
0100
0010
0100
0001
1000
0100
1000
0000
,
0010
1000
0100
0010
0001
0100
0020
0100
,
0130
0001
1000
0001
0010
0001
1000
0000
,
0010
0000
0100
0000
0010
0000
0100
0000
0001
0000
1000
0000
0001
1000
0001
0000
,
0200
0000
0310
1000
0001
0000
1001
1000
,
0200
0000
0310
0001
1000
0000
1010
0010
,
2000
0000
3001
0010
0100
0000
0011
0010
,
0002
0000
1003
0010
0100
0000
0110
0010
,
2000
0000
3100
0010
0001
0000
1001
1000
,
0002
0000
0013
0001
0100
0000
0110
0100
,
0020
0000
1030
0100
0010
0000
0011
0001
,
0100
0000
0001
0000
1000
0001
1000
0010
,
0210
0000
0301
1000
0001
0000
0100
0000
,
1020
0000
0130
0001
1000
0000
0010
0000
,
0201
0000
0301
1000
0100
0000
0010
0000
,
1200
0000
0310
0001
0100
0000
0001
1000
,
0100
1000
0001
0000
0010
0001
0100
0000
,
0010
1000
0001
0000
0100
0001
0010
0000
,
0011
0000
0001
1000
1100
0000
1000
0001
,
0100
0010
0100
0001
0010
0100
1000
0001
,
0100
0010
1000
0100
,
0010
0000
0001
0000
1000
0000
0010
0100
,
0001
0010
1000
0010
,
0001
0000
1000
0000
0010
0000
1000
0100
,
0010
0001
0100
0010
,
0100
0000
0001
0000
0010
0000
0100
1000
,
0001
0100
0010
1000
,
0001
0000
1000
0000
0010
0000
0100
0001
,
2000
0100
0000
3002
,
0000
0010
0000
0203
,
0000
1000
0000
0320
,
0000
0000
1000
0000
0030
0100
0100
0001
,
0020
0100
0000
0032
,
0000
0100
0000
2003
,
0010
0000
0000
0010
0000
0000
0010
0000
0000
0010
0000
0000
3020
0000
0000
0000
,
0200
0000
0000
0330
,
1100
0000
0000
0000
;

//---------------dance-single - ----------------
#NOTEDATA:;
#CHARTNAME:;
#STEPSTYPE:dance-single;
#DESCRIPTION:;
#CHARTSTYLE:;
#DIFFICULTY:Easy;
#METER:4;
#RADARVALUES:0.334067,0.349557,0.194198,0.218473,0.000000,238.000000,24.000000,27.000000,0.000000,0.000000,0.000000,0.000000,0.000000,0.334067,0.349557,0.194198,0.218473,0.000000,238.000000,24.000000,27.000000,0.000000,0.000000,0.000000,0.000000,0.000000;
#CREDIT:DJ OMiY;
#NOTES:
0000
0000
0000
0000
,
0000
0000
0000
0000
,
0000
0000
0000
0000
,
0000
0000
0000
0000
,
0000
0000
0000
0000
,
0000
0000
0000
0000
,
0000
0000
0000
0000
,
0000
0000
0000
0010
,
1001
1000
0100
0010
,
0001
0010
0100
1000
,
0010
0100
0001
1000
,
0001
0010
0100
0000
,
1000
0001
0100
1000
,
0100
0001
1000
0010
,
0100
0010
1000
0001
,
0100
0001
0010
0000
,
0100
1000
0100
1000
,
0001
0100
0001
0100
,
0010
0100
0010
0100
,
0001
1000
0001
0000
,
0010
0100
0010
0100
,
1000
0100
1000
0100
,
1000
0010
1000
0010
,
0220
0000
0000
0330
,
1002
0013
0100
1000
,
0200
1300
0010
0200
,
0320
1030
0001
0010
,
0200
1300
0001
0000
,
2000
3010
0100
0001
,
0020
0130
1000
0002
,
0203
0310
1000
0001
,
0020
0031
1001
0110
,
1002
1003
0100
0010
,
0200
1300
0001
2000
,
3020
0130
0001
0100
,
0020
0130
0001
0000
,
2000
3100
0010
0001
,
0200
0310
1000
0002
,
0023
0130
1000
0010
,
2000
3100
1100
0110
,
0011
0100
0010
1000
,
1001
0001
0010
0100
,
0110
0100
1000
0001
,
0101
0100
0010
0100
,
1001
1000
0010
1000
,
1100
0100
0010
0001
,
0011
0001
0100
0010
,
1001
0100
0001
0010
,
0210
0010
1000
0310
,
0012
0100
1000
0103
,
0210
1000
0010
0301
,
0120
1000
0100
1030
,
1000
0100
0010
0001
,
0010
0100
1000
0001
,
0010
0100
0010
0001
,
1000
0010
0100
0101
,
1100
1000
0001
0100
,
0010
1000
0100
0010
,
0001
0010
0001
1000
,
0100
0001
0100
1000
,
0001
0100
0010
1000
,
0001
1000
0100
0001
,
0100
1000
0100
0010
,
0100
1000
0001
0100
,
1001
0010
0000
1000
,
0000
0001
0000
0010
,
0100
0010
0000
0001
,
0000
1000
0000
0100
,
1000
0010
0000
1000
,
0000
0100
0000
0010
,
0001
0010
0100
1000
,
0002
0000
0000
0003
,
0110
0000
0000
0000
;

//---------------dance-single - ----------------
#NOTEDATA:;
#CHARTNAME:;
#STEPSTYPE:dance-single;
#DESCRIPTION:;
#CHARTSTYLE:;
#DIFFICULTY:Beginner;
#METER:1;
#RADARVALUES:0.137557,0.174778,0.048550,0.226565,0.000000,85.000000,6.000000,28.000000,0.000000,0.000000,0.000000,0.000000,0.000000,0.137557,0.174778,0.048550,0.226565,0.000000,85.000000,6.000000,28.000000,0.000000,0.000000,0.000000,0.000000,0.000000;
#CREDIT:DJ OMiY;
#NOTES:
0000
0000
0000
0000
,
0000
0000
0000
0000
,
0000
0000
0000
0000
,
0000
0000
0000
0000
,
0000
0000
0000
0000
,
0000
0000
0000
0000
,
0000
0000
0000
0000
,
0000
0000
0000
0000
,
1000
0000
0100
0000
,
1000
0000
0000
0000
,
0001
0000
0100
0000
,
0001
0000
0000
0000
,
0100
0000
0010
0000
,
0100
0000
0000
0000
,
0001
0000
0010
0000
,
0200
0000
0300
0000
,
1000
0000
0100
0000
,
1000
0000
0000
0000
,
0010
0000
0100
0000
,
0010
0000
0000
0000
,
1000
0000
0001
0000
,
1000
0000
0000
0000
,
0001
0000
0010
0000
,
0002
0000
0003
0000
,
2001
0000
3000
0000
,
0020
0000
0030
0000
,
0200
0000
0300
0000
,
0002
0000
0003
0000
,
0020
0000
0030
0000
,
0200
0000
0300
0000
,
2000
0000
3000
0000
,
0002
0000
0003
0000
,
0120
0000
0030
0000
,
0002
0000
0003
0000
,
0200
0000
0300
0000
,
0020
0000
0030
0000
,
2000
0000
3000
0000
,
0002
0000
0003
0000
,
2000
0000
3000
0000
,
0200
0000
0300
0000
,
0110
0000
0100
0000
,
0001
0000
0001
0000
,
1000
0000
1000
0000
,
0010
0000
0000
0000
,
0100
0000
0100
0000
,
0001
0000
0001
0000
,
0010
0000
0010
0000
,
0001
0000
0000
0000
,
1000
0000
1000
0000
,
0010
0000
0010
0000
,
1000
0000
1000
0000
,
0100
0000
0000
0000
,
0010
0000
0010
0000
,
0001
0000
0001
0000
,
0100
0000
0100
0000
,
0220
0000
0330
0000
,
1001
0000
0000
0000
,
0100
0000
0000
0000
,
0001
0000
0000
0000
,
0010
0000
0000
0000
,
0100
0000
0000
0000
,
1000
0000
0000
0000
,
0100
0000
0000
0000
,
1000
0000
0000
0000
,
0002
0000
0003
0000
,
0020
0000
0030
0000
,
0200
0000
0300
0000
,
0020
0000
0030
0000
,
0002
0000
0003
0000
,
2000
0000
3000
0000
,
0200
0000
0300
0000
,
2000
0000
3000
0000
,
1001
0000
0000
0000
;

//---------------dance-double - ----------------
#NOTEDATA:;
#CHARTNAME:;
#STEPSTYPE:dance-double;
#DESCRIPTION:;
#CHARTSTYLE:;
#DIFFICULTY:Hard;
#METER:9;
#RADARVALUES:0.587219,0.553465,0.040458,0.024275,0.412671,500.000000,5.000000,3.000000,0.000000,0.000000,0.000000,0.000000,0.000000,0.587219,0.553465,0.040458,0.024275,0.412671,500.000000,5.000000,3.000000,0.000000,0.000000,0.000000,0.000000,0.000000;
#CREDIT:DJ OMiY;
#NOTES:
00000000
00000000
00000000
00000000
,
00000000
00000000
00000000
00000000
,
00000000
00000000
00000000
00000000
,
00000000
00000000
00000000
00000000
,
00000000
00000000
00000000
00000000
,
00000000
00000000
00000000
00000000
,
00000000
00000000
00000000
00000000
,
00001000
00000000
00000000
00000000
01000000
00000000
00000000
00010000
10000000
00000000
00000000
00000000
00010000
01000000
00010000
01000000
,
00100000
10000000
01000000
00100000
00001000
00010000
00000010
00000100
,
00000001
00001000
00000100
00000010
00000100
00001000
00000100
00010000
,
00001000
00010000
00100000
01000000
10000000
01000000
00010000
10000000
,
01000000
00000000
00100000
00000000
00010000
00000000
10000000
00000000
00010000
00000000
00100000
00001000
00000000
00100000
00001000
00000000
,
00010000
00000100
00001000
00000001
00000010
00001000
00000010
00000001
,
00000100
00000010
00001000
00000001
00001000
00000100
00010000
00001000
,
00100000
00010000
00100000
01000000
10000000
01000000
00100000
00001000
,
00010000
00000000
00000000
00000000
00001000
00000000
00000000
00000000
00000100
00000000
00000000
00000001
00001000
00000000
00000001
00000010
,
00000001
00000000
00001000
00000000
00000100
00000000
00000000
00001000
00000000
00000010
00000000
00000000
00000100
00000000
00000010
00000000
,
00010000
00000000
00001000
00000000
00100000
00000000
00000000
01000000
00000000
00100000
00000000
00000000
00010000
00000000
10000000
00000000
,
00010000
00000000
01000000
00000000
00100000
00000000
00000000
10000000
00000000
00010000
00000000
00000000
00100000
00000000
00001000
00000000
,
00010000
00000000
00000010
00000000
00000100
00000000
00000000
00001000
00000000
00000100
00000000
00000000
00000001
00000000
00001000
00000000
,
00000001
00000000
00000100
00000000
00000010
00000000
00000000
00010000
00000000
00000100
00000000
00000000
00001000
00000000
00010000
00000000
,
00100000
00000000
00010000
00000000
10000000
00000000
00000000
00010000
00000000
00100000
00000000
00000000
00010000
00000000
01000000
00000000
,
00001000
00000000
00010000
00000000
00000100
00000000
00000000
00000010
00000000
00000100
00000000
00000000
00001000
00000000
00000001
00000000
,
00000200
00000000
00000000
00000300
,
00000110
00000010
00001000
00000001
00000010
00001000
00010000
00001000
,
00010000
00000000
00100000
00000000
10000000
00000000
00010000
00000000
10000000
00000000
01000000
00000000
10000000
00010000
10000000
00010000
,
01000000
00100000
01000000
00010000
00100000
00001000
00010000
00000100
,
00000010
00000100
00001000
00000001
00000100
00000010
00000100
00000100
,
00000001
00000010
00000100
00001000
00000100
00010000
00001000
00100000
,
00010000
00000000
10000000
00000000
01000000
00000000
00100000
00000000
00001000
00000000
00010000
00000000
00000100
00001000
00000100
00001000
,
00000001
00000010
00000001
00001000
00000100
00010000
00001000
00010000
,
00100000
00000000
10000000
00000000
00010000
00000000
10000000
00000000
00100000
00000000
10000000
00010000
10000000
00000000
00100000
01000000
,
00100000
10000000
00010000
00100000
01000000
00100000
00010000
00100000
,
00001000
00000000
00010000
00000000
00000100
00000000
00000010
00000000
00000001
00000000
00001000
00000000
00000001
00000010
00000001
00000010
,
00000100
00001000
00000001
00000100
00000010
00001000
00000100
00001000
,
00010000
00100000
00010000
10000000
00010000
01000000
00100000
00100000
,
10000000
01000000
00100000
01000000
10000000
01000000
00100000
00010000
,
00100000
00000000
00001000
00000000
00010000
00000000
00001000
00000000
00000100
00000000
00001000
00000000
00010000
00001000
00010000
00001000
,
00100000
00010000
10000000
01000000
00100000
00001000
00010000
00000100
,
00000010
00000000
00000001
00000000
00000010
00000000
00000100
00000000
00001000
00000000
00000100
00000000
00010000
00001000
00010000
00000000
,
00001000
00000000
00100000
00000000
00010000
00000000
00000000
10000000
00000000
00010000
00000000
00000000
01000000
00100000
01000000
00000000
,
00010000
00000000
00100000
00000000
00001000
00000000
00000000
00010000
00000000
00000010
00000000
00000000
00001000
00000001
00001000
00000001
,
00000010
00000000
00000001
00000000
00001000
00000000
00000000
00000100
00000000
00000010
00000000
00000000
00000100
00000000
00001000
00000000
,
00000100
00000000
00010000
00000000
00001000
00000000
00000000
00100000
00000000
00010000
00000000
00000000
10000000
00000000
10000000
00000000
,
00010000
00000000
00100000
00000000
00001000
00000000
00000000
00010000
00000000
00000010
00000000
00000000
00000100
00000001
00000100
00000000
,
00000001
00000000
00000010
00000000
00000100
00000000
00000000
00001000
00000000
00000100
00000000
00000000
00010000
00001000
00010000
00001000
,
01000000
00000000
00100000
00000000
01000000
00000000
00000000
00010000
00000000
10000000
00000000
00000000
01000000
00000000
00100000
00000000
,
00001000
00000000
00100000
00000000
00010000
00000000
00000000
01000000
00000000
00001000
00000000
00001000
00010000
00000000
00010000
00000100
,
00001000
00000000
00000010
00000000
00000100
00000001
00000000
00001000
00000000
00000001
00000000
00000100
00000000
00000010
00001000
00000000
,
00000100
00000000
00010000
00000000
00001000
00010000
00000000
00001000
00000000
00100000
00000000
01000000
00100000
00010000
00100000
00000000
,
00010000
00000000
01000000
00000000
00100000
10000000
00000000
00010000
00000000
10000000
00000000
01000000
00000000
00100000
00010000
00000000
,
00100000
00000000
00001000
00000000
00010000
00000100
00000000
00000010
00000000
00000001
00000000
00001000
00000010
00000000
00000100
00000010
,
00000100
00000001
00001000
00000100
00000010
00000100
00010000
00001000
,
00100000
00010000
01000000
10000000
01000000
00010000
10000000
01000000
,
01100000
00000000
00100000
00001000
00011000
00000000
00010000
00000100
,
00000010
00000000
00000001
00000100
00000000
00000010
00001000
00000000
00000100
00000010
00000000
00000100
00001000
00000000
00000100
00010000
,
00001000
00000000
00100000
00000000
00010000
00000000
00000000
10000000
00000000
00100000
00000000
00000000
01000000
00000000
00010000
00000000
,
00100000
00000000
00001000
00000000
00010000
00000000
00000000
00000100
00000000
00000010
00000000
00000000
00000001
00000000
00001000
00000000
,
00000001
00000000
00000100
00000000
00000010
00000000
00000000
00001000
00000000
00000100
00000000
00000000
00010000
00000000
00001000
00000000
,
00010000
00000000
01000000
00000000
10000000
00000000
00000000
01000000
00000000
00100000
00000000
00000000
00010000
00000000
01000000
00000000
,
00001000
00000000
00010000
00000000
00000100
00000000
00000000
00001000
00000000
00000010
00000000
00000000
00000100
00000000
00000001
00000000
,
00000010
00000000
00000100
00000000
00001000
00000000
00000000
00000100
00000000
00010000
00000000
00000000
00001000
00000000
00100000
00000000
,
00010000
00000000
00100000
00000000
10000000
00000000
00000000
00100000
00000000
00010000
00000000
00000000
00001000
00000000
00010000
00000000
,
00100000
00000000
00001000
00000000
00010000
00000000
00000000
00000010
00000000
00000100
00000000
00000001
00001000
00000000
00000100
00000010
,
00000100
00001000
00000001
00000000
00000100
00000010
00001000
00000000
,
00000100
00010000
00001000
00000000
00100000
00010000
01000000
00000000
,
00100000
10000000
00010000
00000000
01000000
00001000
00010000
00000000
,
00000100
00000000
00010000
00000000
00001000
00000000
00000000
00000000
00000100
00000000
00000001
00001000
00000100
00000000
00000000
00000000
,
00010000
00001000
00100000
00000000
00010000
10000000
01000000
00000000
,
00100000
00001000
00010000
00000000
00000100
00000010
00000001
00001000
,
00000001
00000000
00000000
00000010
00000000
00000000
00001000
00000000
00000000
00010000
00000000
00000000
00100000
00000000
10000000
00000000
,
20020000
00000000
00000000
30030000
,
00011000
00000000
00000000
00000000
;

//---------------dance-double - ----------------
#NOTEDATA:;
#CHARTNAME:;
#STEPSTYPE:dance-double;
#DESCRIPTION:;
#CHARTSTYLE:;
#DIFFICULTY:Medium;
#METER:7;
#RADARVALUES:0.467001,0.466076,0.283206,0.072824,0.036412,360.000000,35.000000,9.000000,0.000000,0.000000,0.000000,0.000000,0.000000,0.467001,0.466076,0.283206,0.072824,0.036412,360.000000,35.000000,9.000000,0.000000,0.000000,0.000000,0.000000,0.000000;
#CREDIT:DJ OMiY;
#NOTES:
00000000
00000000
00000000
00000000
,
00000000
00000000
00000000
00000000
,
00000000
00000000
00000000
00000000
,
00000000
00000000
00000000
00000000
,
00000000
00000000
00000000
00000000
,
00000000
00000000
00000000
00000000
,
00000000
00000000
00000000
00000000
,
00001000
00000000
00010000
00000000
00011000
00000000
00010000
00000100
,
00001000
00000000
00000101
00000000
00000010
00000001
00001000
00000000
,
00000100
00000000
00010100
00000000
00010000
00001000
01000000
00000000
,
00100000
00000000
10010000
00000000
00100000
00010000
10000000
00000000
,
01000000
00000000
00000000
00000000
01100000
00000000
00000000
00000000
00010000
00000000
00000000
10000000
00010000
00000000
00100000
00000000
,
00001000
00000000
00011000
00000000
00010000
00000010
00000100
00000000
,
00000001
00000000
00001100
00000000
00000010
00000100
00001000
00000000
,
00000001
00000000
00000101
00000000
00001000
00000010
00010000
00000000
,
00001000
00000000
00000000
00000000
00101000
00000000
00000000
00000000
00010000
00000000
00000000
00001000
01000000
00000000
00010000
10000000
,
00010000
00000000
10000000
00000000
01000000
00100000
00001000
00000000
,
00010000
00000000
00000010
00000100
00000001
00000000
00001000
00000000
,
00000001
00000000
00000010
00001000
00010000
00000000
00001000
00000000
,
00010000
00000000
00100000
10000000
00010000
01000000
00100000
00000000
,
10000000
00000000
01000000
00000000
00010000
01000000
00010000
00000000
,
00001000
00000000
00010000
00000000
00001000
00000100
00001000
00000000
,
00000100
00000000
00000001
00001000
00000001
00000010
00000100
00000000
,
00002002
00000000
00000000
00003003
,
00001100
00000000
00000100
00010000
00001000
00010000
00100000
01000000
,
00010000
00000000
10000000
01000000
00100000
00010000
00100000
01000000
,
20000000
00000000
30010000
00100000
00001000
00010000
00000100
00000010
,
00000001
00000000
00000100
00000000
00000010
00000000
00001000
00000001
,
00001001
00000000
00000010
00000001
00001000
00000100
00010000
00001000
,
01000000
00000000
00100000
01000000
00010000
10000000
01000000
00100000
,
00020000
00000000
00130000
00001000
00010000
00001000
00000010
00000001
,
00000100
00000000
00000010
00000000
00001000
00000000
00000100
00010000
,
00011000
00000000
00100000
00001000
01000000
00100000
01000000
00010000
,
00100000
00000000
01000000
10000000
01000000
00100000
00001000
00010000
,
00002000
00000000
00003100
00000010
00000100
00000001
00001000
00000100
,
00000010
00000000
00000100
00000000
00001000
00000000
00000001
00000100
,
00000110
00000000
00000100
00000001
00001000
00000100
00010000
00001000
,
00010000
00000000
00100000
10000000
00010000
00100000
01000000
10000000
,
02000000
00000000
03100000
00001000
00100000
00010000
01000000
00100000
,
10000000
10000000
01000000
01000000
00100000
00001000
00010000
00000100
,
00001100
00000001
00000101
00001000
,
00000110
00000000
00000000
00000000
00000001
00000000
00000000
00000000
00000011
00000000
00000000
00000000
00000100
00001000
00000100
00000000
,
00010000
00001000
00101000
00100000
,
01100000
00000000
10000000
00000000
11000000
00000000
00010000
00100000
,
00110000
00001000
00101000
00001000
,
00011000
00000000
00000000
00000000
00000100
00000000
00000000
00000000
00001010
00000000
00000000
00000000
00000001
00001000
00000001
00000000
,
00000010
00000100
00001001
00000010
,
00001010
00000000
00001000
00000000
00001100
00000000
00010000
00001000
,
00100000
00010000
10000000
01000000
00100000
01000000
10000000
00010000
,
00100000
00001000
00010000
00001000
00010000
00000100
00000020
00000000
,
00000031
00000100
00000001
00000100
00001000
00000100
00000001
00001000
,
00000100
00010000
00001000
00100000
01000000
10000000
01000000
00100000
,
00110000
00000000
10000000
00000000
00010000
00100000
00001000
00010000
,
00011000
00000000
00010000
00000000
00000100
00000010
00000001
00000100
,
00000101
00000000
00001000
00000100
00001100
00000000
00000010
00010000
,
00011000
00000000
00000000
00001000
00000000
00000000
00100000
00000000
00000000
00010000
00000000
00000000
01000000
00000000
00010000
00000000
,
10010000
00000000
00100000
00000000
00001000
00010000
00001000
00000000
,
00000010
00000000
00000001
00000000
00001000
00000000
00000010
00000100
,
00000001
00000000
00001000
00000000
00000100
00010000
00001000
00000000
,
01000000
00000000
00100000
00000000
10000000
00010000
02000000
00100000
,
03100000
00000000
10000000
00000000
01000000
00010000
00001000
00000000
,
00010000
00000000
00000100
00000000
00000010
00000000
00000100
00001000
,
00000001
00000000
00000100
00000000
00000010
00001000
00000001
00000000
,
00000100
00000000
00001000
00000000
00010000
00000000
01000000
10000000
,
00010000
01000000
00100000
10000000
,
01000000
00100000
00010000
01000000
,
00100000
10000000
00010000
00100000
,
00001000
00000000
00010000
00000000
00001000
00000000
00000100
00000001
,
00001000
00000001
00000010
00000100
,
00001000
00010000
00100000
01000000
,
10000000
00000000
00000000
10000000
00000000
00000000
00010000
00000000
00000000
00010000
00000000
00000000
01000000
00000000
00100000
00000000
,
02000000
00000000
00000000
03000000
,
01010000
00000000
00000000
00000000
;

//---------------dance-double - ----------------
#NOTEDATA:;
#CHARTNAME:;
#STEPSTYPE:dance-double;
#DESCRIPTION:;
#CHARTSTYLE:;
#DIFFICULTY:Easy;
#METER:5;
#RADARVALUES:0.332911,0.378687,0.097099,0.024275,0.008092,273.000000,12.000000,3.000000,0.000000,0.000000,0.000000,0.000000,0.000000,0.332911,0.378687,0.097099,0.024275,0.008092,273.000000,12.000000,3.000000,0.000000,0.000000,0.000000,0.000000,0.000000;
#CREDIT:DJ OMiY;
#NOTES:
00000000
00000000
00000000
00000000
,
00000000
00000000
00000000
00000000
,
00000000
00000000
00000000
00000000
,
00000000
00000000
00000000
00000000
,
00000000
00000000
00000000
00000000
,
00000000
00000000
00000000
00000000
,
00000000
00000000
00000000
00000000
,
00001000
00001000
00001000
00011000
,
00100000
00010000
10000000
01000000
,
00100000
01000000
10000000
00010000
,
00100000
00001000
00010000
00000100
,
00000010
00000000
00000100
00000000
00001000
00000001
00000100
00000001
,
00001000
00000010
00000100
00000001
,
00000010
00000100
00001000
00000100
,
00010000
00001000
01000000
00100000
,
01000000
00000000
00010000
00000000
10000000
00000000
00010000
01000000
,
01100000
10000000
01000000
00100000
,
01000000
00010000
01000000
10000000
,
00010000
00100000
00001000
00010000
,
00000010
00000000
00000100
00000000
00000001
00000000
00001000
00000001
,
00000100
00000010
00000100
00000001
,
00000010
00000100
00001000
00000100
,
00010000
00001000
00100000
00010000
,
02000000
00000000
00000000
03000000
,
10010000
01000000
00010000
10000000
,
01000000
00000000
00010000
00000000
00001000
00000000
00000100
00000001
,
00000100
00000010
00001000
00000100
,
00000010
00000000
00000001
00000000
00001000
00000000
00000100
00010000
,
00001000
00100000
00010000
10000000
,
00010000
00000000
00100000
00000000
00001000
00000000
00010000
00000100
,
00001000
00000001
00000100
00001000
,
00010000
00000000
01000000
00000000
10000000
00000000
00010000
01000000
,
01100000
10000000
00010000
00100000
,
00001000
00000000
00010000
00000000
00001000
00000000
00000010
00000100
,
00000010
00000001
00000100
00000010
,
00001000
00000000
00000100
00000000
00010000
00000000
00001000
01000000
,
00010000
00100000
01000000
10000000
,
01000000
00000000
00010000
00000000
01000000
00000000
10000000
00010000
,
00100000
00001000
00010000
00000010
,
00000100
00000001
00000100
00000001
00001000
00000010
00001000
00000010
,
00010000
00001000
00100000
01000000
,
00100000
00000000
00010000
00000000
10000000
00000000
00100000
01000000
,
00010000
00100000
01000000
10000000
,
01000000
00000000
00100000
00000000
00001000
00000000
00010000
00000100
,
00001000
00000010
00000100
00000001
,
00001000
00000000
00000001
00000000
00000010
00000000
00000100
00001000
,
00000010
00010000
00001000
00100000
,
00010000
00000000
01000000
00000000
00100000
00000000
01000000
00010000
,
10000000
01000000
00100000
00010000
,
00100000
00000000
00001000
00000000
00010000
00000000
00000010
00001000
,
00000100
00001000
00000001
00000100
,
00000001
00000010
00000100
00010000
,
00011000
00000000
00001000
00100000
00001000
00000000
01000000
00010000
,
01000000
00000000
00100000
10000000
00100000
00000000
10000000
00010000
,
10000000
11000000
00100000
00110000
,
00001000
00011000
00010100
00001100
,
00001001
00000010
00000001
00001000
,
00000100
00010000
00001000
00100000
,
01000000
10000000
00010000
01000000
,
00100000
00000000
10000000
00000000
00010000
00000000
00100000
00001000
,
00010000
00000100
00001000
00000100
,
00000001
00000100
00000010
00000001
,
00000100
00000010
00001000
00000010
,
00000100
00000000
00000010
00000000
00010000
00000000
00001000
00100000
,
00010000
10000000
00000000
01000000
,
00000000
00100000
00000000
00001000
,
00000000
00010000
00000000
00000010
,
00000000
00000000
00000100
00000000
00000000
00000000
00000001
00001000
,
00000100
00010000
00000000
00001000
,
00000000
00000100
00000000
00000001
,
00001000
00000000
00000000
00001000
00000000
00000000
00001000
00000000
00000000
00001000
00000000
00000000
00002000
00000000
00000002
00000000
,
00000000
00000000
00000000
00003003
,
00000110
00000000
00000000
00000000
;
