#VERSION:0.81;
#TITLE:PONPONPON;
#SUBTITLE:;
#ARTIST:KanzentaiCell;
#TITLETRANSLIT:;
#SUBTITLETRANSLIT:;
#ARTISTTRANSLIT:;
#GENRE:J-Pop;
#ORIGIN:;
#CREDIT:;
#BANNER:PONPONPON2-bn.png;
#BACKGROUND:PONPONPON-bg.png;
#PREVIEWVID:;
#JACKET:PONPONPON-jk.png;
#CDIMAGE:;
#DISCIMAGE:;
#LYRICSPATH:;
#CDTITLE:PROJECT GOLDENROD-cdtitle.png;
#MUSIC:PONPONPON.mp3;
#OFFSET:-1.080;
#SAMPLESTART:31.060;
#SAMPLELENGTH:15.000;
#SELECTABLE:YES;
#BPMS:0.000=128.000;
#STOPS:;
#DELAYS:;
#WARPS:;
#TIMESIGNATURES:0.000=4=4;
#TICKCOUNTS:0.000=4;
#COMBOS:0.000=1;
#SPEEDS:0.000=1.000=0.000=0;
#SCROLLS:0.000=1.000;
#FAKES:;
#LABELS:0.000=Song Start;
#BGCHANGES:;
#KEYSOUNDS:;
#ATTACKS:
;

//---------------dance-single - ----------------
#NOTEDATA:;
#CHARTNAME:;
#STEPSTYPE:dance-single;
#DESCRIPTION:;
#CHARTSTYLE:;
#DIFFICULTY:Hard;
#METER:7;
#RADARVALUES:0.450,0.392,0.333,0.119,0.059,340.000,42.000,15.000,0.000,0.000,0.000,0.000,0.000,0.450,0.392,0.333,0.119,0.059,340.000,42.000,15.000,0.000,0.000,0.000,0.000,0.000;
#CREDIT:;
#NOTES:
// measure 0
0000
0000
0000
0000
,  // measure 1
0000
0000
0000
0000
,  // measure 2
0000
0000
0000
0000
,  // measure 3
0000
0000
0000
0000
,  // measure 4
2001
0010
0000
0001
,  // measure 5
3020
0100
0000
1000
,  // measure 6
0230
0001
0000
0010
,  // measure 7
0300
0000
0100
0000
0001
1000
0001
0100
,  // measure 8
1001
0000
1000
0100
1000
0001
0000
0100
,  // measure 9
0010
0000
1001
0000
0001
0010
0100
1000
,  // measure 10
0001
0000
0010
0001
0000
0100
0001
0010
,  // measure 11
0001
0000
1000
0100
1000
0100
0010
0100
,  // measure 12
1000
0000
0010
0100
0001
0100
0010
0100
,  // measure 13
1000
0000
0100
0000
0001
1000
0001
0010
,  // measure 14
0001
1000
0001
0000
1000
0100
0000
0110
,  // measure 15
0000
0001
1000
0001
1000
0001
1001
1000
,  // measure 16
1001
0000
0110
0000
0010
0010
0010
0000
,  // measure 17
1000
0100
0001
0100
1000
0001
1000
0000
,  // measure 18
0010
0000
1000
0000
0001
0001
0001
0000
,  // measure 19
0100
0010
0100
0001
1000
0100
0010
0000
,  // measure 20
1000
0000
0001
0000
1000
0010
0100
0000
,  // measure 21
0001
0100
0001
0100
1000
0100
0001
0000
,  // measure 22
0001
0000
1000
0000
0010
1000
0001
0000
,  // measure 23
1000
0100
0010
0100
1000
0001
0110
0100
,  // measure 24
0110
0000
0110
0000
1000
0001
1000
0000
,  // measure 25
0010
1000
0001
1000
0010
0100
0001
0000
,  // measure 26
1100
0000
0011
0000
1000
0001
1000
0000
,  // measure 27
0010
0100
0010
1000
0001
0010
0001
0000
,  // measure 28
1100
0000
0101
0000
0001
1000
0001
0000
,  // measure 29
0100
0010
1000
0100
0010
0001
1000
0000
,  // measure 30
1001
0000
1010
0000
0100
0010
1000
0000
,  // measure 31
0001
0001
1000
1000
0010
0100
1001
0000
,  // measure 32
0020
1000
1000
0000
0200
0000
0330
0000
,  // measure 33
2000
0001
0001
0000
0020
0000
3030
0000
,  // measure 34
0100
0001
1000
0000
0002
0000
0023
0000
,  // measure 35
0130
1000
0100
0010
0001
0000
1001
0000
,  // measure 36
0200
0010
0010
0000
0002
0000
0303
0000
,  // measure 37
0002
0010
0010
0000
2000
0000
3003
0000
,  // measure 38
0110
0000
1001
0000
,  // measure 39
1001
0000
0000
1000
0001
1000
1001
0001
,  // measure 40
1001
0000
0101
0000
1000
1000
1000
0000
,  // measure 41
0010
0100
0001
0100
0010
1000
0001
0000
,  // measure 42
0011
0000
1010
0000
0100
0100
0100
0000
,  // measure 43
0001
1000
0001
1000
0100
0010
0001
0000
,  // measure 44
1010
0000
0101
0000
0010
0010
0010
0000
,  // measure 45
1000
0001
1000
0010
0100
0001
0010
0000
,  // measure 46
0011
0000
0101
0000
1000
1000
1000
0000
,  // measure 47
0010
1000
0100
0001
0100
1000
0001
0000
,  // measure 48
1000
0000
1100
0000
0010
0100
0001
0000
,  // measure 49
1000
1000
0001
1000
0010
1000
1000
0000
,  // measure 50
1001
0000
0110
0000
0001
0001
0001
0000
,  // measure 51
0100
0100
0001
0100
0001
1000
1000
0000
,  // measure 52
0110
0000
1001
0000
0010
0100
0010
0000
,  // measure 53
0100
0100
0001
1000
0010
0100
0100
0000
,  // measure 54
1001
0000
1001
0000
0100
0100
0100
0000
,  // measure 55
0001
0001
1000
0100
1000
0100
1100
0000
,  // measure 56
1000
0000
0000
0010
0000
0000
1000
0000
0000
0001
0000
0000
0010
0000
0001
0000
,  // measure 57
0100
0000
0000
0010
0000
0000
0100
0000
0000
0010
0000
0000
1000
0000
0000
0000
,  // measure 58
1001
0000
0000
0001
0000
0000
0100
0000
0000
0010
0000
0000
1000
0000
0100
0000
,  // measure 59
1000
0000
0000
0001
0000
0000
0010
0000
0000
0100
0000
0000
1000
0000
0000
0000
,  // measure 60
1001
0000
0000
1000
0000
0000
0010
0000
0000
0100
0000
0000
0001
0000
1000
0000
,  // measure 61
0010
0000
0000
1000
0000
0000
0001
0000
0000
0010
0000
0000
0001
0000
0000
0000
,  // measure 62
0110
0000
0000
0001
0000
0000
1000
0000
0000
0010
0000
0000
1000
0000
0100
0000
,  // measure 63
0010
0000
0000
0100
0000
0000
0010
0000
0001
0000
1000
0000
1000
0000
0100
0000
,  // measure 64
0220
0000
0000
0000
,  // measure 65
0000
0000
0000
0000
,  // measure 66
0330
0000
0000
0000
;

//---------------dance-single - ----------------
#NOTEDATA:;
#CHARTNAME:;
#STEPSTYPE:dance-single;
#DESCRIPTION:;
#CHARTSTYLE:;
#DIFFICULTY:Medium;
#METER:5;
#RADARVALUES:0.377,0.366,0.246,0.214,0.000,275.000,31.000,27.000,0.000,0.000,0.000,0.000,0.000,0.377,0.366,0.246,0.214,0.000,275.000,31.000,27.000,0.000,0.000,0.000,0.000,0.000;
#CREDIT:;
#NOTES:
0000
0000
0000
0000
,
0000
0000
0000
0000
,
0000
0000
0000
0000
,
0000
0000
0000
0000
,
2000
0000
0001
0000
,
3002
0000
0010
0000
,
0203
0000
0010
0000
,
0320
0000
0000
0000
1030
0001
1000
0000
,
0110
0000
0000
0010
0000
1000
0000
0001
,
0010
0001
1000
0100
,
1100
0000
0000
0001
0000
1000
0000
0001
,
0001
0000
0100
0000
0010
0100
0010
0000
,
1001
0000
1000
0000
0000
0001
0000
0100
,
0010
1000
0001
0010
,
0011
0000
0001
0000
1000
0100
0000
1000
,
0000
0001
0100
0001
0100
0000
1001
0000
,
0210
0000
0310
0000
0100
0010
0100
0000
,
0001
1000
0001
0010
,
0021
0000
0031
0000
1000
0100
1000
0000
,
0010
0100
0010
1000
,
1002
0000
0103
0000
0001
1000
0001
0000
,
1000
0100
0010
0100
,
2100
0000
3100
0000
1000
0010
1000
0000
,
0001
0000
0010
0000
0100
1000
0001
0000
,
2010
0000
3001
0000
0010
0001
0010
0000
,
0100
0000
1000
0000
0010
0100
0010
0000
,
1002
0000
0103
0000
0001
1000
0001
0000
,
0010
0000
0001
0000
1000
0010
1000
0000
,
0120
0000
0130
0000
0010
1000
0001
0000
,
0100
0000
0001
0000
1000
0001
1000
0000
,
2010
0000
3100
0000
1000
0010
1000
0000
,
0100
0000
0010
0000
0001
0010
0100
0000
,
0210
1000
2000
3300
,
2000
0010
0002
3003
,
0001
0010
0001
1000
,
0100
1000
0001
1000
0002
0000
0003
0000
,
0102
1000
2000
3003
,
2000
0100
0020
3030
,
1001
0000
1001
0000
,
1001
0000
0000
0010
0100
0010
0100
0000
,
1002
0000
0103
0000
0001
1000
0001
0000
,
1000
0000
0100
0000
1000
0010
1000
0000
,
2100
0000
3001
0000
0010
0001
0010
0000
,
0100
0000
0010
0000
0001
1000
0010
0000
,
1020
0000
1030
0000
0100
0010
0100
0000
,
0001
0000
1000
0000
0100
1000
0100
0000
,
2001
0000
3100
0000
0010
0001
0010
0000
,
0001
0000
1000
0000
0010
0100
0001
0000
,
1001
0000
1001
0000
0010
0010
0010
0000
,
1000
1000
0001
1000
0001
1000
1000
0000
,
1001
0000
1001
0000
0100
0100
0100
0000
,
0001
0001
1000
0001
1000
0001
0001
0000
,
0110
0000
0110
0000
0010
0010
0010
0000
,
1000
1000
0001
1000
0001
1000
1000
0000
,
1010
0000
0101
0000
0100
0100
0100
0000
,
0001
0001
1000
0001
1000
0001
0001
0000
,
0100
0010
1000
0001
,
0010
0000
0100
0000
1000
0001
1000
0000
,
0010
0100
0001
1000
,
0100
0000
0010
0000
0100
1000
0100
0000
,
1000
0001
0100
0010
,
0100
0000
0001
0000
0010
0001
1000
0000
,
0100
1000
0010
0100
,
0001
0000
1000
0000
0001
1000
0010
0000
,
2020
0000
0000
0000
,
0000
0000
0000
0000
,
3030
0000
0000
0000
;

//---------------dance-single - ----------------
#NOTEDATA:;
#CHARTNAME:;
#STEPSTYPE:dance-single;
#DESCRIPTION:;
#CHARTSTYLE:;
#DIFFICULTY:Easy;
#METER:3;
#RADARVALUES:0.241,0.262,0.095,0.238,0.000,171.000,12.000,30.000,0.000,0.000,0.000,0.000,0.000,0.241,0.262,0.095,0.238,0.000,171.000,12.000,30.000,0.000,0.000,0.000,0.000,0.000;
#CREDIT:;
#NOTES:
0000
0000
0000
0000
,
0000
0000
0000
0000
,
0000
0000
0000
0000
,
0000
0000
0000
0000
,
2000
0000
0000
0000
,
3200
0000
0000
0000
,
0320
0000
0000
0000
,
0032
0000
0000
0003
,
1001
0000
0100
0100
,
0100
0000
0010
1000
,
1001
0000
0001
0001
,
0001
0000
1000
0100
,
1100
0000
0100
0100
,
0100
0000
0010
0001
,
1001
0000
0000
0000
0200
0000
0020
0330
,
0000
0100
0100
1001
,
0010
0010
2000
3000
,
0001
0100
0001
0000
,
0001
0010
0020
0030
,
0100
1000
0100
0100
,
1000
1000
0002
0003
,
0010
0001
1000
0000
,
0010
0100
0020
0030
,
1000
0100
0010
0001
,
1001
0001
0001
0000
,
1000
0010
0100
0000
,
0010
1000
0020
0030
,
1000
0001
1000
0000
,
0001
0010
0020
0030
,
0100
1000
0001
0000
,
0100
0100
0002
0003
,
1000
1000
0001
0100
,
0020
0000
1000
0000
,
0230
0000
0001
0000
,
0302
0000
1000
0000
,
0100
0100
0200
0303
,
2001
0000
0100
0000
,
3002
0000
0010
0000
,
2000
0000
3003
0000
,
1001
0000
0100
0100
,
1001
0001
0002
0003
,
1000
0001
0010
0000
,
0100
1000
0200
0300
,
1000
0010
0100
0001
,
1000
1000
2000
3000
,
0010
0100
0010
0000
,
0100
0001
0020
0030
,
0100
1000
0001
1001
,
0010
0010
0020
0030
,
0001
0100
0001
0001
,
1000
1000
0200
0300
,
1000
0010
1000
1000
,
0010
0100
0020
0030
,
0100
0001
0100
0100
,
0010
1000
0002
0003
,
0010
0100
0010
0010
,
1001
0000
0010
0000
,
0001
0000
1000
0010
,
0100
0000
0001
0000
,
1000
0000
0010
0100
,
0001
0000
1000
0000
,
0100
0000
1000
0100
,
0010
0000
0100
0000
,
0010
0000
0001
1000
,
2002
0000
0000
0000
,
0000
0000
0000
0000
,
3003
0000
0000
0000
;

//---------------dance-single - ----------------
#NOTEDATA:;
#CHARTNAME:;
#STEPSTYPE:dance-single;
#DESCRIPTION:;
#CHARTSTYLE:;
#DIFFICULTY:Beginner;
#METER:1;
#RADARVALUES:0.130,0.127,0.040,0.063,0.000,102.000,5.000,8.000,0.000,0.000,0.000,0.000,0.000,0.130,0.127,0.040,0.063,0.000,102.000,5.000,8.000,0.000,0.000,0.000,0.000,0.000;
#CREDIT:;
#NOTES:
0000
0000
0000
0000
,
0000
0000
0000
0000
,
0000
0000
0000
0000
,
0000
0000
0000
0000
,
2000
0000
3000
0000
,
0200
0000
0300
0000
,
0020
0000
0030
0000
,
0002
0000
0003
0000
,
0100
0000
0000
0000
,
0010
0000
0000
0000
,
1000
0000
0000
0000
,
0001
0000
0000
0000
,
0010
0000
0000
0000
,
0001
0000
0000
0000
,
1000
0000
0000
0000
,
0100
0000
0000
0000
,
0110
0000
0100
0000
,
0001
0000
0000
0000
,
1001
0000
0001
0000
,
0100
0000
0000
0000
,
1001
0000
1000
0000
,
0010
0000
0000
0000
,
0110
0000
0001
0000
,
1000
0000
0000
0000
,
0001
0001
0001
0000
,
1000
0000
0100
0000
,
0010
0010
0010
0000
,
0001
0000
0100
0000
,
0010
0010
0010
0000
,
0100
0000
0001
0000
,
1000
1000
1000
0000
,
0001
0000
1000
0000
,
0002
0000
0000
0000
,
0000
0000
0003
0000
,
0200
0000
0000
0000
,
0000
0000
0300
0000
,
0020
0000
0000
0000
,
0000
0000
0030
0000
,
2000
0000
0000
0000
,
3000
0000
0000
0100
,
0100
0000
0010
0000
,
0100
0000
0010
0000
,
1000
0000
0100
0000
,
1000
0000
0100
0000
,
0010
0000
0001
0000
,
0010
0000
0001
0000
,
0100
0000
0001
0000
,
1000
0000
1001
0000
,
0100
0100
0100
0000
,
0010
0000
1000
0000
,
0001
0001
0001
0000
,
0010
0000
0100
0000
,
1000
1000
1000
0000
,
0010
0000
1000
0000
,
0100
0100
0100
0000
,
0010
0000
0001
0000
,
1000
0000
0100
0000
,
0001
0000
0100
0000
,
1000
0000
0100
0000
,
0001
0000
0100
0000
,
1000
0000
0010
0000
,
0001
0000
0010
0000
,
1000
0000
0010
0000
,
0001
0000
0010
0000
,
0100
0000
0000
0000
;

//---------------dance-double - ----------------
#NOTEDATA:;
#CHARTNAME:;
#STEPSTYPE:dance-double;
#DESCRIPTION:;
#CHARTSTYLE:;
#DIFFICULTY:Hard;
#METER:7;
#RADARVALUES:0.482,0.445,0.293,0.349,0.055,345.000,37.000,44.000,0.000,0.000,0.000,0.000,0.000,0.482,0.445,0.293,0.349,0.055,345.000,37.000,44.000,0.000,0.000,0.000,0.000,0.000;
#CREDIT:;
#NOTES:
00000000
00000000
00000000
00000000
,
00000000
00000000
00000000
00000000
,
00000000
00000000
00000000
00000000
,
00000000
00000000
00000000
00000000
,
20000000
00100000
00000000
30100000
,
00020000
00001000
00000000
00031000
,
00002000
00000100
00000000
00003100
,
00000002
00000000
00001000
00000000
00000013
00000001
00001000
00000100
,
00010000
00000000
00001000
00010000
00000000
00011000
00000000
00001000
,
00100000
00000000
00010000
10000000
00100000
01000000
00010000
00100000
,
01010000
00000000
00010000
00100000
00000000
00101000
00000000
00010000
,
00000100
00000000
00001000
00000100
00000001
00000100
00001000
00000010
,
00000110
00000000
00000011
00000000
00001000
00000001
00000000
00001000
,
00000100
00000000
00010000
00001000
00010000
00000100
00001000
00000100
,
00010100
00000000
00011000
00000000
00100000
00010000
00000000
01010000
,
00000000
10000000
01000000
10000000
01000000
10000000
10010000
00010000
,
10020000
00000000
00230000
00000000
00301000
00010000
00002000
00000000
,
00013000
00000100
00000010
00000001
00000100
00001000
00000100
00000000
,
00000020
00000000
00002030
00000000
00003100
00010000
00001000
00000000
,
00010000
00000100
00000010
00000001
00000100
00001000
00010000
00000000
,
12000000
00000000
23000000
00000000
30010000
01000000
00100000
00000000
,
01000000
00001000
00010000
01000000
10000000
00010000
01000000
00000000
,
00210000
00000000
00302000
00000000
00103000
00010000
01000000
00000000
,
00001000
00010000
00000100
00001000
00000001
00001000
00001001
00000010
,
00001020
00000000
00000230
00000000
00000301
00000010
00001000
00000000
,
00010000
00100000
10000000
01000000
00010000
01000000
10000000
00000000
,
00020000
00000000
00230000
00000000
00301000
01000000
00001000
00000000
,
00010000
00000100
00010000
00001000
00100000
01000000
10000000
00000000
,
01020000
00000000
20030000
00000000
30010000
00100000
00001000
00000000
,
00010000
00000010
00001000
00000001
00000010
00000100
00001000
00000000
,
00000020
00000000
00000230
00000000
00000301
00001000
00000001
00000000
,
00001000
00000100
00010000
00001000
00100000
00010000
00010000
00000000
,
20000000
01000000
32000000
00000000
03020000
00000000
00032000
00000000
,
00003200
00000001
00000302
00000000
00002003
00000000
00003001
00000000
,
00001002
00000023
00002030
00023000
,
01030000
10000000
01000000
00010000
00001000
00000100
00000001
00000000
,
00000002
00000100
00000203
00000000
00002300
00000000
00023000
00000000
,
02030000
10000000
23000000
00000000
30010000
00000000
10010000
00000000
,
10000000
00010000
00001000
00000001
,
00001010
00000000
00000000
00000000
00001000
00000010
00000110
00000100
,
00000110
00000000
00002010
00000000
00003100
00010000
00001000
00000000
,
00100000
00010000
10000000
00100000
01000000
00010000
01000000
00000000
,
10010000
00000000
01020000
00000000
00130000
01000000
10000000
00000000
,
00010000
00100000
00001000
00010000
00000010
00000100
00001000
00000000
,
00001100
00000000
00000102
00000000
00000013
00000100
00001000
00000000
,
00000001
00000010
00000100
00001000
00000100
00000010
00000001
00000000
,
00001001
00000000
00010200
00000000
00010300
00001000
00010000
00000000
,
00001000
00100000
00010000
10000000
00100000
01000000
01000000
00000000
,
10100000
00000000
01010000
00000000
00010000
00010000
00010000
00000000
,
10000000
01000000
00010000
00001000
00000100
00000001
00000001
00000000
,
00000011
00000000
00001001
00000000
00001000
00001000
00001000
00000000
,
00000001
00000010
00001000
00010000
00100000
10000000
10000000
00000000
,
01100000
00000000
10010000
00000000
00100000
01000000
00100000
00000000
,
10000000
00010000
00100000
00001000
00010000
00000100
00001000
00000000
,
00001001
00000000
00000110
00000000
00000001
00000010
00000001
00000000
,
00001000
00000100
00010000
00001000
00100000
00010000
01010000
00000000
,
10000000
00000000
00000000
00100000
00000000
00000000
00010000
00000000
00000000
00001000
00000000
00000000
00000100
00000000
00000001
00000000
,
00001000
00000000
00000000
00000001
00000000
00000000
00000010
00000000
00000000
00000100
00000000
00000000
00000100
00000000
00000000
00000000
,
00000010
00000000
00000000
00000001
00000000
00000000
00001000
00000000
00000000
00000100
00000000
00000000
00010000
00000000
00001000
00000000
,
01000000
00000000
00000000
00100000
00000000
00000000
00010000
00000000
00100000
00000000
00100000
00000000
10000000
00000000
10000000
00000000
,
00010000
00000000
00000000
00100000
00000000
00000000
00001000
00000000
00000000
00010000
00000000
00000000
00000100
00000000
00001000
00000000
,
00000001
00000000
00000000
00000010
00000000
00000000
00000001
00000000
00000000
00001000
00000000
00000000
00000100
00000000
00000000
00000000
,
00010000
00000000
00000000
00000010
00000000
00000000
00001000
00000000
00000000
00000100
00000000
00000000
00010000
00000000
00001000
00000000
,
00100000
00000000
00000000
01000000
00000000
00000000
10000000
00000000
00010000
00000000
01000000
00000000
00100000
00000000
01000000
00000000
,
02020000
00000000
00000000
00000000
,
00000000
00000000
00000000
00000000
,
03030000
00000000
00000000
00000000
;

//---------------dance-double - ----------------
#NOTEDATA:;
#CHARTNAME:;
#STEPSTYPE:dance-double;
#DESCRIPTION:;
#CHARTSTYLE:;
#DIFFICULTY:Medium;
#METER:5;
#RADARVALUES:0.340,0.392,0.151,0.119,0.000,266.000,19.000,15.000,0.000,0.000,0.000,0.000,0.000,0.340,0.392,0.151,0.119,0.000,266.000,19.000,15.000,0.000,0.000,0.000,0.000,0.000;
#CREDIT:;
#NOTES:
00000000
00000000
00000000
00000000
,
00000000
00000000
00000000
00000000
,
00000000
00000000
00000000
00000000
,
00000000
00000000
00000000
00000000
,
00000020
00000000
00010000
00000000
,
00002030
00000000
00000001
00000000
,
00003200
00000000
00001000
00000000
,
00020300
00000000
00000000
00000000
00000000
01000000
01030000
00000000
,
00010000
00000000
00000000
01000000
00000000
10000000
00000000
00010000
,
00000000
00000000
01000000
00000000
00100000
10000000
00010000
00000000
,
00100000
00000000
00000000
00001000
00000000
00010000
00000000
00000100
,
00000000
00000000
00010000
00000000
00001000
00010000
00001000
00000000
,
00000100
00000000
00000001
00000000
00000000
00001000
00000000
00000010
,
00000000
00001000
00000100
00001000
,
00000100
00000000
00010000
00000000
00000000
00001000
00000000
00100000
,
00000000
00001000
00010000
00001000
00010000
00000000
00011000
00000000
,
00100000
00000000
00100000
00000000
00010000
10000000
00010000
00000000
,
10000000
01000000
00100000
00001000
,
00010000
00000000
00010000
00000000
00000100
00001000
00000100
00000000
,
00000010
00000001
00000100
00000010
,
00001010
00000000
00001000
00000000
00000010
00000100
00000010
00000000
,
00010000
00001000
00010000
01000000
,
10000000
00000000
00010000
00000000
01000000
00100000
01000000
00000000
,
00010000
00000000
10000000
00000000
00010000
00100000
00110000
00000000
,
00101000
00000000
00001000
00000000
00010000
00001000
00010000
00000000
,
00000100
00000010
00000001
00000100
,
00000010
00000000
00000100
00000000
00000001
00001000
00000001
00000000
,
00000100
00000010
00010000
00001000
,
00011000
00000000
00010000
00000000
00001000
00100000
00001000
00000000
,
01000000
00100000
10000000
00010000
,
00100000
00000000
00100000
00000000
01000000
10000000
00010000
00000000
,
01000000
00000000
00010000
00000000
00100000
00001000
00010000
00000000
,
00021000
00001000
00000200
00030300
,
00002000
00000010
00000002
00003003
,
00000001
00000010
00000100
00001000
,
00000100
00010000
00001000
00010000
00002000
00000000
00003000
00000000
,
00120000
01000000
20000000
30030000
,
20000000
01000000
00200000
30300000
,
10000000
00000000
00010000
00000000
,
00001000
00000000
00000001
00001001
,
00000010
00000000
00000010
00000000
00001000
00000100
00001000
00000000
,
00000001
00000000
00000010
00000000
00000100
00010000
00000100
00000000
,
00010000
00000000
00010000
00000000
00001000
01000000
00001000
00000000
,
00100000
00000000
00010000
00000000
10000000
00010000
00100000
00000000
,
11000000
00000000
10000000
00000000
00100000
01000000
00010000
00000000
,
00100000
00000000
00001000
00000000
00010000
00000100
00010000
00000000
,
00001000
00000000
00000100
00000000
00000010
00000100
00000010
00000000
,
00001000
00000000
00000001
00000000
00000010
00000100
00001000
00000000
,
00001001
00000000
00001001
00000000
00000100
00010000
00000100
00000000
,
00010000
00010000
00001000
00010000
00001000
00100000
00100000
00000000
,
10010000
00000000
10010000
00000000
00100000
00010000
00100000
00000000
,
00001000
00001000
00010000
00001000
00010000
00000100
00000100
00000000
,
00001001
00000000
00001001
00000000
00000100
00001000
00000100
00000000
,
00010000
00010000
00001000
00010000
00001000
00100000
00100000
00000000
,
10010000
00000000
10010000
00000000
01000000
00010000
01000000
00000000
,
00001000
00001000
00010000
00001000
00010000
00001000
00011000
00000000
,
00010000
00000100
00001000
00000001
,
00000010
00000000
00000100
00000000
00001000
00000010
00000100
00000000
,
00000010
00010000
00001000
00100000
,
00010000
00000000
10000000
00000000
01000000
00100000
00010000
00000000
,
01000000
00010000
00100000
00001000
,
00010000
00000000
00001000
00000000
00100000
00001000
00010000
00000000
,
00000100
00001000
00000010
00000100
,
00000001
00000000
00000010
00000000
00000100
00001000
00000001
00000000
,
00002200
00000000
00000000
00000000
,
00000000
00000000
00000000
00000000
,
00003300
00000000
00000000
00000000
;

//---------------dance-double - ----------------
#NOTEDATA:;
#CHARTNAME:;
#STEPSTYPE:dance-double;
#DESCRIPTION:;
#CHARTSTYLE:;
#DIFFICULTY:Easy;
#METER:4;
#RADARVALUES:0.293,0.262,0.159,0.246,0.000,208.000,20.000,31.000,0.000,0.000,0.000,0.000,0.000,0.293,0.262,0.159,0.246,0.000,208.000,20.000,31.000,0.000,0.000,0.000,0.000,0.000;
#CREDIT:;
#NOTES:
00000000
00000000
00000000
00000000
,
00000000
00000000
00000000
00000000
,
00000000
00000000
00000000
00000000
,
00000000
00000000
00000000
00000000
,
20000000
00000000
00000000
00000000
,
30020000
00000000
00000000
00000000
,
00032000
00000000
00000000
00000000
,
00003002
00000000
00001003
00001001
,
00000010
00000000
00001000
00000100
,
00010000
00000000
00001000
00100000
,
00001000
00000000
01000000
00010000
,
01000000
00000000
00100000
10000000
,
00010000
00000000
00100000
00010000
,
01000000
00000000
00001000
00010000
,
00000100
00000000
00001000
00000010
,
00000000
00000100
00000100
00001001
,
00000010
00000010
00002000
00003000
,
00000001
00000100
00000010
00001000
,
00000100
00000100
00020000
00030000
,
00001000
00100000
01000000
10000000
,
00010000
00010000
00200000
00300000
,
00010000
10000000
00010000
01000000
,
00001000
00001000
00020000
00030000
,
00000100
00001000
00000001
00000011
,
00001001
00001000
00000200
00001300
,
00000100
00010000
00001000
00100000
,
00010000
00010000
20000000
30100000
,
01000000
00010000
00100000
00001000
,
00010000
00010000
00000200
00001300
,
00000010
00000100
00000001
00000010
,
00000100
00000100
00020000
00031000
,
00100000
00010000
01000000
01000000
,
10020000
00000000
02000000
00030000
,
00200000
03000000
20000000
00300000
,
30010000
00100000
00001000
00100000
,
00001000
00010000
00000200
00000300
,
00002000
00000000
00000002
00003000
,
00000020
00000003
00000200
00000030
,
00001300
00000000
00000100
00010000
,
00001000
00000000
00011000
00011000
,
00001000
00100000
00020000
01030000
,
00100000
10000000
00010000
10000000
,
01000000
00100000
00002000
00013000
,
00000100
00000010
00000001
00001000
,
00000010
00000010
00002000
00003100
,
00010000
00000100
00001000
00000100
,
00010000
00001000
00200000
01300000
,
10000000
00010000
01000000
00100000
,
10100000
10100000
10000000
01000000
,
00010000
00001000
00000100
00000001
,
00000011
00000011
00000001
00000010
,
00001000
00010000
00100000
10000000
,
11000000
11000000
10000000
01000000
,
00010000
00001000
00000010
00000001
,
00000101
00000101
00000001
00000100
,
00001000
00010000
00100000
10000000
,
10020000
01000000
10000000
01030000
,
10000000
01000000
00100000
00010000
,
00012000
00010000
00100000
00013000
,
00010000
00000100
00000010
00000001
,
00002001
00000100
00000001
00003100
,
00000010
00000100
00000001
00001000
,
00001200
00010000
00001000
00010300
,
00001000
00100000
00001000
00010000
,
00022000
00000000
00000000
00000000
,
00000000
00000000
00000000
00000000
,
00033000
00000000
00000000
00000000
;
