#TITLE:Ode to the Bouncer;
#SUBTITLE:;
#ARTIST:Studio Killers;
#TITLETRANSLIT:;
#SUBTITLETRANSLIT:;
#ARTISTTRANSLIT:;
#GENRE:Dance;
#CREDIT:;
#BANNER:Ode to the Bouncer-bn.png;
#BACKGROUND:Ode to the Bouncer-bg.png;
#LYRICSPATH:;
#CDTITLE:;
#MUSIC:Ode to the Bouncer.mp3;
#OFFSET:-0.078000;
#SAMPLESTART:50.789707;
#SAMPLELENGTH:15.629757;
#LASTBEATHINT:282.000000;
#SELECTABLE:YES;
#BPMS:0.000000=123.000000
,168.000000=61.500000
,184.000000=123.000000
;
#STOPS:
;
#BGCHANGES:16.000=Ode to the Bouncer.mpg=1.000=1=0=1===CrossFade==,
282.000=Ode to the Bouncer-bg.png=1.000=1=0=1===CrossFade==,
99999=-nosongbg-=1.000=0=0=0 // don't automatically add -songbackground-
;
#KEYSOUNDS:;
#ATTACKS:;

//---------------dance-single - ----------------
#NOTES:
     dance-single:
     :
     Hard:
     7:
     0.454197,0.498261,0.162698,0.366069,0.244046,391.000000,24.000000,54.000000,0.000000,0.000000,0.000000,0.454197,0.498261,0.162698,0.366069,0.244046,391.000000,24.000000,54.000000,0.000000,0.000000,0.000000:
0000
0000
0000
0000
,
0000
0000
0000
0000
,
0000
0000
0000
0000
,
0000
0000
0000
0000
,
0000
0000
0000
0000
,
0000
0000
0000
0000
,
0000
0000
0000
0000
,
0000
0000
0000
0000
,
1000
0000
0000
1000
0000
0000
1000
0000
0000
0001
0000
0001
0100
0000
0001
0000
,
1000
0000
0000
0000
1100
0000
0001
0000
0000
1000
0000
0001
0100
0001
0000
0000
,
0220
0000
0330
1000
0100
0010
0001
1000
,
2002
0000
3003
0010
1000
0100
1000
0001
,
0102
0000
1003
0100
0020
0000
0031
1000
,
0200
0000
1300
0001
0010
0100
1000
0001
,
0220
0000
0330
1000
0001
1000
0100
0010
,
2002
0000
3003
0001
0100
0010
1000
0100
,
2200
0000
3300
0000
0010
1000
0001
0100
,
0001
1000
0000
0001
0000
0000
0000
0000
0000
0000
0000
0000
1000
0100
0000
0000
,
1001
0000
0000
0001
0000
0000
0100
0000
0010
0000
1000
0000
0001
0000
1000
0000
,
0100
0000
0000
0100
0000
0000
0010
0000
0100
0000
1000
0000
0001
0000
0100
0000
,
0010
0000
0000
1000
0000
0000
0001
0000
0010
0000
0100
0000
1000
0000
0001
0000
,
0100
0000
0000
0001
0000
0000
0010
0000
0100
0000
1000
0000
0001
0000
0100
0000
,
0010
0000
0000
0010
0000
0000
1000
0000
0000
0100
0000
0100
1000
0000
0001
0000
,
0010
0000
0000
0010
0000
0000
0100
0000
0000
0010
0000
0010
0001
0000
1000
0000
,
1100
0001
0101
1010
,
1001
0000
0000
0100
0010
0000
0000
1000
0000
0000
0001
0100
0001
0000
1000
0100
,
2000
0000
0010
0000
3001
0000
1000
0001
,
0020
0230
2300
3002
,
0103
0001
0020
0000
0030
0000
0100
1000
,
0002
0000
0000
0000
0103
0000
0001
0000
1000
0010
0000
0010
0100
0000
0001
0000
,
0020
0000
0100
0000
0031
0010
0100
1000
,
0200
0320
0032
2003
,
3010
0100
0002
0000
0003
0000
1000
0001
,
0200
0000
0000
0000
0310
0000
1000
0000
0100
0010
0000
0010
0001
0000
1000
0000
,
0010
0000
0101
0000
0010
1000
0001
1000
,
0100
0000
0000
0000
0110
0000
0000
0000
0000
0000
0001
1000
0001
1000
0001
1000
,
0100
1000
0010
0100
,
0001
0000
0000
0001
0010
0000
0000
0010
1000
0000
0000
0000
0100
0000
0000
0000
,
0001
0000
1001
0000
0010
1000
0100
0010
,
0001
0000
0000
0000
0110
0000
0000
0000
0000
0000
1000
0001
1000
0001
1000
0001
,
0010
0001
1000
0010
,
1000
0000
0000
1000
0100
0000
0000
0100
0001
0000
0000
0000
0010
0000
0000
0000
,
2000
0000
0000
0000
3000
0000
0001
1000
0200
0000
0320
0000
0032
0000
2003
0000
,
3010
0100
0020
0000
1000
0000
0000
0000
0001
0000
0000
0000
1000
0000
0030
0000
,
1002
0000
0000
0000
0003
0010
0001
1000
0002
0000
0203
0000
2300
0000
3200
0000
,
0301
1000
0002
0000
0010
0000
0000
0000
1000
0000
0000
0000
0100
0000
0003
0000
,
1001
0000
0000
0001
0000
0000
1000
0000
0100
0000
1000
0000
0001
0000
0100
0000
,
0010
0000
0000
0010
0000
0000
1000
0000
0001
0000
0010
0000
0100
0000
1000
0000
,
0100
0000
0000
0010
0000
0000
0001
0000
1000
0000
0001
0000
0100
0000
0010
0000
,
1000
0000
0000
0001
0000
0000
1000
0000
0010
0000
0100
0000
0001
0000
1000
0000
,
0100
0000
0000
0100
0000
0000
0010
0000
0000
0100
0000
0100
1000
0000
0001
0000
,
0100
0000
0000
0100
0000
0000
0001
0000
0000
1000
0000
1000
0100
0000
0010
0000
,
0100
0000
0000
0100
0000
0000
1000
0000
0000
0010
0000
0010
0100
0000
0001
0000
,
0010
0000
0000
0001
1000
0000
0000
0001
0000
0000
0100
0010
0100
0000
0001
1000
,
0002
0000
0100
0000
1003
0000
0001
0100
,
0020
2030
3200
0320
,
0031
1000
0200
0000
0300
0000
0010
0100
,
2000
0000
0000
0000
3001
0000
0100
0000
0010
0100
0000
0100
0001
0000
1000
0000
,
0200
0000
1000
0000
0310
0100
0010
0001
,
2000
3002
0203
0320
,
1030
0100
0020
0000
0030
0000
0001
0100
,
0002
0000
0000
0000
0013
0000
0100
0000
1000
0001
0000
0001
1000
0000
0010
0000
,
0100
0000
0101
0000
0010
1000
0001
0100
,
0010
0000
0000
0000
1100
0000
0000
0000
0000
0000
0001
1000
0001
1000
0001
1000
,
0100
0000
1100
0000
0010
0001
1000
0000
,
0001
0000
0000
0001
0010
0000
0000
0010
1000
0000
0000
0000
0100
0000
0000
0000
,
0001
0000
1001
0000
0010
0100
1000
0001
,
0100
0000
0000
0000
0110
0000
0000
0000
0000
0000
1000
0001
1000
0001
1000
0001
,
0010
0000
0011
0000
0100
1000
0001
0000
,
1000
0000
0100
0000
0010
0000
0100
0000
1000
0000
0001
0000
0100
0020
0000
0000
,
0030
0000
0000
0000
;

//---------------dance-single - ----------------
#NOTES:
     dance-single:
     :
     Medium:
     5:
     0.335079,0.332174,0.237267,0.332174,0.050843,262.000000,35.000000,49.000000,0.000000,0.000000,0.000000,0.335079,0.332174,0.237267,0.332174,0.050843,262.000000,35.000000,49.000000,0.000000,0.000000,0.000000:
0000
0000
0000
0000
,
0000
0000
0000
0000
,
0000
0000
0000
0000
,
0000
0000
0000
0000
,
0000
0000
0000
0000
,
0000
0000
0000
0000
,
0000
0000
0000
0000
,
0000
0000
0000
0000
,
0001
0000
0000
0001
0000
0000
0001
0000
0000
0000
0000
0000
0110
0000
0000
0000
,
1000
0000
0000
1000
0000
0000
1000
0000
0000
0000
0000
0000
0110
0000
0000
0000
,
0001
0000
0000
1000
0100
0010
0001
0000
,
0110
0000
0000
0001
0010
0100
1000
0000
,
0110
0000
0001
0100
1000
0000
1000
0100
,
0001
0000
0001
0010
0100
0000
1000
0000
,
0020
0000
0030
0100
0001
1000
0010
0000
,
1001
0000
0000
0100
0001
1000
0010
0000
,
1001
0000
0000
0000
0010
0001
1000
0000
,
0010
0000
0010
1001
,
0100
0000
0000
0100
0000
0000
0010
0000
0000
0000
0000
0000
1000
0000
0000
0000
,
0001
0000
0000
0001
0000
0000
0100
0000
0000
0000
0000
0000
0010
0000
0000
0000
,
1000
0000
0000
0100
0000
0000
0001
0000
0000
0000
0000
0000
0110
0000
0000
0000
,
0001
0000
0000
0100
0000
0000
1000
0000
0000
0000
0000
0000
0110
0000
0000
0000
,
0001
0000
0000
0001
0000
0000
1000
0000
0000
0000
0000
0000
0010
0000
0000
0000
,
1000
0000
0000
1000
0000
0000
0001
0000
0000
0000
0000
0000
0100
0000
0000
0000
,
0110
1000
0011
0110
,
1100
0000
0001
0000
0100
0010
1000
0001
,
0200
0000
0010
0000
0010
0000
0310
0100
,
0002
0023
0230
2300
,
3001
1000
0001
0000
0100
0000
0010
1000
,
0200
0000
0320
0000
,
0032
0000
1000
0000
1000
0000
1003
0001
,
2000
3200
0320
0032
,
0103
0010
0100
0000
0001
0000
1000
0001
,
0020
0000
0230
0000
,
1300
1100
0000
1000
,
0001
0000
0101
0000
0000
0010
0100
0010
,
1000
1001
0000
0110
,
0002
0203
0320
2030
,
3001
0101
0000
0001
,
1000
0000
1100
0000
0000
0010
0100
0010
,
0001
0011
0000
1001
,
0020
2030
3002
0203
,
0320
0000
0000
1030
0100
0010
0001
1000
,
0002
0010
1000
0103
,
2001
0000
0000
3010
1000
0100
0010
0001
,
2000
0100
0001
3010
,
1000
0000
0000
0001
0000
0000
1000
0000
0000
0000
0000
0000
1001
0000
0000
0000
,
0010
0000
0000
0100
0000
0000
0010
0000
0000
0000
0000
0000
0110
0000
0000
0000
,
1000
0000
0000
0100
0000
0000
0001
0000
0000
0000
0000
0000
0110
0000
0000
0000
,
0001
0000
0000
0100
0000
0000
1000
0000
0000
0000
0000
0000
1001
0000
0000
0000
,
0001
0000
0000
0010
0000
0000
0001
0000
0000
0000
0000
0000
1001
0000
0000
0000
,
1000
0000
0000
0100
0000
0000
1000
0000
0000
0000
0000
0000
1001
0000
0000
0000
,
0010
0000
0000
0100
0000
0000
0010
0000
0000
0000
0000
0000
1001
0000
0000
0000
,
1000
0000
0001
0000
0010
0001
1000
0100
,
0020
0000
0001
0000
0001
0000
0031
1000
,
0002
0203
0320
2030
,
3100
1000
0100
0000
0010
0000
0100
1000
,
0002
0000
0203
0000
,
0320
0000
0100
0000
0100
0000
0130
0010
,
0200
0302
2003
3020
,
1030
0001
1000
0000
0001
0000
0100
0001
,
2000
0000
3020
0000
,
0130
0110
0000
0001
,
1000
0000
1001
0000
0000
0001
0100
0010
,
1000
1100
0000
0010
,
0002
2003
3200
0320
,
0031
0101
0000
0010
,
1000
0000
1001
0000
0000
0010
1000
0001
,
0010
0011
0000
0100
,
2000
3002
0023
0230
,
0300
0000
0000
0000
;

//---------------dance-single - ----------------
#NOTES:
     dance-single:
     :
     Easy:
     3:
     0.248888,0.283704,0.338953,0.298279,0.000000,163.000000,50.000000,44.000000,0.000000,0.000000,0.000000,0.248888,0.283704,0.338953,0.298279,0.000000,163.000000,50.000000,44.000000,0.000000,0.000000,0.000000:
0000
0000
0000
0000
,
0000
0000
0000
0000
,
0000
0000
0000
0000
,
0000
0000
0000
0000
,
0000
0000
0000
0000
,
0000
0000
0000
0000
,
0000
0000
0000
0000
,
0000
0000
0000
0000
,
0001
0101
1000
1100
,
0010
1010
0001
0011
,
2000
0000
0001
3002
,
0023
0000
0100
0230
,
1300
0000
0002
0003
,
0200
0300
0010
1000
,
0001
0000
1000
0001
,
1000
0000
0010
0100
,
0010
0000
1000
0001
,
0020
0030
0100
1000
,
1001
0000
0001
0100
,
0020
0030
1000
0100
,
2000
3000
0001
0100
,
0001
1000
0001
0000
,
0100
0010
0100
0000
,
0001
0010
0100
0000
,
1100
0000
1001
1000
,
1000
0000
0010
1000
,
0002
0000
0000
0013
,
0001
0010
0100
1000
,
0020
0000
0000
2030
,
3002
0000
0200
0303
,
1200
0000
0000
0310
,
0001
1000
0100
0010
,
0002
0000
0000
0203
,
0320
0000
2000
3030
,
1001
1001
0000
0000
,
0110
0110
0000
0000
,
1100
1100
0000
0000
,
0101
1001
1100
0000
,
0011
0011
0000
0000
,
1010
1010
0000
0000
,
1001
1001
0000
0000
,
1010
1001
0011
0000
,
2000
0000
0002
3000
,
0200
0003
0020
0330
,
0102
0000
2000
0003
,
0020
3000
0200
0330
,
1001
0000
1000
0100
,
0020
0030
0001
0100
,
0020
0030
1000
1001
,
0001
0000
0001
0110
,
2000
3000
0010
0100
,
0002
0003
0010
0001
,
2000
3000
0100
1000
,
0010
0000
0100
0100
,
1002
0000
0000
0013
,
0001
1000
0010
0100
,
0020
0000
0000
2030
,
3002
0000
0020
0033
,
2010
0000
0000
3010
,
0100
0001
1000
0001
,
0020
0000
0000
0032
,
2003
0000
0200
3300
,
1001
1001
0000
0000
,
0110
0110
0000
0000
,
0011
0011
0000
0000
,
0101
1001
1100
0000
,
1010
1010
0000
0000
,
0101
0101
0000
0000
,
1001
1001
0000
0000
,
1100
1001
0202
0303
;

//---------------dance-single - ----------------
#NOTES:
     dance-single:
     :
     Beginner:
     2:
     0.180129,0.283704,0.298279,0.149139,0.000000,120.000000,44.000000,22.000000,0.000000,0.000000,0.000000,0.180129,0.283704,0.298279,0.149139,0.000000,120.000000,44.000000,22.000000,0.000000,0.000000,0.000000:
0000
0000
0000
0000
,
0000
0000
0000
0000
,
0000
0000
0000
0000
,
0000
0000
0000
0000
,
0000
0000
0000
0000
,
0000
0000
0000
0000
,
0000
0000
0000
0000
,
0000
0000
0000
0000
,
1000
0000
0001
0000
,
1000
0000
0001
0000
,
0110
0000
1000
0000
,
1000
0000
0001
0000
,
0001
0000
0200
0300
,
0200
0300
0200
0000
,
0300
0000
0010
0000
,
0010
0000
0100
0000
,
0100
0000
0001
0000
,
1000
0000
0000
0000
,
1001
0000
0010
0000
,
0001
0000
1000
0000
,
0100
0000
1000
0000
,
0001
0000
0100
0000
,
0000
0010
0010
0000
,
1000
0000
0001
0000
,
0110
0000
1000
1000
,
2000
0000
3000
0000
,
2002
0000
3003
0000
,
0010
0010
0010
0000
,
0200
0000
0300
0000
,
0002
0000
0003
0000
,
2002
0000
3003
0000
,
0100
0100
0100
0000
,
2000
0000
3000
0000
,
0020
0000
0030
0000
,
0110
0110
0000
0000
,
1001
1001
0000
0000
,
0110
0110
0000
0000
,
1001
1001
1001
0000
,
0110
0110
0000
0000
,
1001
1001
0000
0000
,
0110
0110
0000
0000
,
1001
1001
1001
0000
,
0010
0000
0100
0000
,
0001
0001
0001
0000
,
0100
0000
0010
0000
,
0100
0100
0100
0000
,
1001
0000
0010
0000
,
0010
0000
0001
0000
,
0001
0000
1000
0000
,
0100
0000
1000
0000
,
0010
0000
1000
0000
,
1000
0000
0100
0000
,
0100
0000
0010
0000
,
0001
0000
0010
0000
,
2002
0000
3003
0000
,
1000
1000
1000
0000
,
0002
0000
0003
0000
,
0020
0000
0030
0000
,
2002
0000
3003
0000
,
0001
0001
0001
0000
,
2000
0000
3000
0000
,
0200
0000
0300
0000
,
1001
1001
0000
0000
,
0110
0110
0000
0000
,
1001
1001
0000
0000
,
0110
0110
0110
0000
,
1001
1001
0000
0000
,
0110
0110
0000
0000
,
1001
1001
0000
0000
,
0110
0110
0220
0330
;

//---------------dance-double - ----------------
#NOTES:
     dance-double:
     :
     Hard:
     7:
     0.442576,0.427081,0.183035,0.284721,0.227099,388.000000,27.000000,42.000000,0.000000,0.000000,0.000000,0.442576,0.427081,0.183035,0.284721,0.227099,388.000000,27.000000,42.000000,0.000000,0.000000,0.000000:
// measure 0
00000000
00000000
00000000
00000000
,  // measure 1
00000000
00000000
00000000
00000000
,  // measure 2
00000000
00000000
00000000
00000000
,  // measure 3
00000000
00000000
00000000
00000000
,  // measure 4
00000000
00000000
00000000
00000000
,  // measure 5
00000000
00000000
00000000
00000000
,  // measure 6
00000000
00000000
00000000
00000000
,  // measure 7
00000000
00000000
00000000
00000000
,  // measure 8
00011000
00000000
00000000
00010000
00000000
00000000
00010000
00000000
00000000
00000100
00000000
00000100
00001000
00000000
00000010
00000000
,  // measure 9
00000100
00000001
00000000
00000000
00001000
00000000
00000100
00000000
00000000
00000010
00000000
00000100
00001000
00000100
00000000
00000000
,  // measure 10
00002200
00000000
00003300
00010000
00001000
00100000
01000000
10000000
,  // measure 11
20020000
00000000
30030000
00100000
01000000
00010000
10000000
01000000
,  // measure 12
00020000
00000000
00031000
00000100
00000002
00000000
00001003
00000010
,  // measure 13
00000002
00000000
00000013
00001000
00002000
00000000
00003100
00010000
,  // measure 14
00022000
00000000
00033000
00001000
00100000
00010000
10000000
01000000
,  // measure 15
02200000
00000000
03300000
00010000
00100000
00001000
00010000
00000100
,  // measure 16
00000022
00000000
00000033
00000000
00001000
00000100
00001000
00000010
,  // measure 17
00010000
00000100
00000000
00000100
00000000
00000000
00000000
00000000
00010000
00000000
00000000
00001000
00100000
00001000
00000000
00000000
,  // measure 18
00010000
00000000
00000000
00010000
00000000
00000000
01000000
00000000
10000000
00000000
01000000
00000000
00100000
00000000
00000000
00000000
,  // measure 19
00010000
00000000
00000000
00010000
00000000
00000000
10000000
00000000
00100000
00000000
00010000
00000000
00100000
00000000
00000000
00000000
,  // measure 20
01000000
00000000
00000000
01000000
00000000
00000000
00001000
00000000
00010000
00000000
00000100
00000000
00001000
00000000
00000000
00000000
,  // measure 21
00000010
00000000
00000000
00000010
00000000
00000000
00001000
00000000
00000001
00000000
00000010
00000000
00000100
00000000
00000000
00000000
,  // measure 22
00000010
00000000
00000000
00000010
00000000
00000000
00000001
00000000
00000000
00001000
00000000
00001000
00000010
00000000
00000100
00000000
,  // measure 23
00000010
00000000
00000000
00001000
00000000
00000000
00000100
00000000
00000000
00010000
00000000
00010000
00001000
00000000
00100000
00000000
,  // measure 24
00110000
01000000
10100000
01010000
,  // measure 25
10010000
00000000
00000000
00100000
01000000
00000000
00000000
00010000
00000000
00000000
10000000
01000000
00100000
00000000
01000000
00100000
,  // measure 26
00020000
00000000
01000000
00000000
10000000
00000000
00130000
00010000
,  // measure 27
20000000
32000000
03200000
00302000
,  // measure 28
00013000
00000100
00000020
00000000
00000030
00000000
00000001
00001000
,  // measure 29
00000002
00000000
00000000
00000000
00001003
00000000
00000100
00000000
00010000
00001000
00000000
00001000
00010000
00000000
00100000
00000000
,  // measure 30
20000000
00000000
00100000
00000000
30010000
10000000
00010000
00100000
,  // measure 31
00002000
00100000
00023000
00100000
,  // measure 32
00031000
00010000
00000200
00000000
00000300
00000000
00000010
00000100
,  // measure 33
00002000
00000000
00000000
00000000
00003100
00000000
00000010
00000000
00000001
00001000
00000000
00001000
00000001
00000000
00000010
00000000
,  // measure 34
00000100
00000000
00000110
00000000
00000100
00001000
00000100
00010000
,  // measure 35
00001000
00000000
00000000
00000000
00101000
00000000
00000000
00000000
00000000
00000000
00010000
00001000
00010000
00001000
00010000
00001000
,  // measure 36
00010000
00000000
01010000
00000000
01000000
10000000
00010000
00000000
,  // measure 37
10000000
00000000
00000000
10000000
00100000
00000000
00000000
00100000
00010000
00000000
00000000
00000000
01000000
00000000
00000000
00000000
,  // measure 38
10000000
00000000
10010000
00000000
00100000
00001000
00010000
00001000
,  // measure 39
00010000
00000000
00000000
00000000
00010100
00000000
00000000
00000000
00000000
00000000
00001000
00010000
00001000
00010000
00001000
00010000
,  // measure 40
00001000
00000000
00001100
00000000
00000100
00000001
00001000
00000000
,  // measure 41
00000001
00000000
00000000
00000001
00000100
00000000
00000000
00000100
00001000
00000000
00000000
00000000
00000010
00000000
00000000
00000000
,  // measure 42
00000002
00000000
00000000
00000000
00000000
00000000
00000013
00000100
00000010
00000000
00000100
00000000
00001000
00000000
00010000
00000000
,  // measure 43
00100000
01000000
20000000
00000000
00100000
00000000
00000000
00000000
00010000
00000000
00000000
00000000
31000000
00000000
00000000
00000000
,  // measure 44
00020000
00000000
00000000
00000000
00030000
00100000
00001000
00100000
00010000
00000000
00001000
00000000
00000100
00000000
00000010
00000000
,  // measure 45
00000001
00001000
00000002
00000000
00000010
00000000
00000000
00000000
00001000
00000000
00000000
00000000
00000103
00000000
00000000
00000000
,  // measure 46
00000101
00000000
00000000
00000001
00000000
00000000
00001000
00000000
00000100
00000000
00001000
00000000
00000100
00000000
00010000
00000000
,  // measure 47
00001000
00000000
00000000
00001000
00000000
00000000
00100000
00000000
00010000
00000000
00100000
00000000
00010000
00000000
10000000
00000000
,  // measure 48
01000000
00000000
00000000
00100000
00000000
00000000
01000000
00000000
10000000
00000000
01000000
00000000
10000000
00000000
00010000
00000000
,  // measure 49
01000000
00000000
00000000
00001000
00000000
00000000
00010000
00000000
00001000
00000000
00010000
00000000
00001000
00000000
00000100
00000000
,  // measure 50
00000001
00000000
00001001
00000000
00001000
00000100
00001100
00000000
,  // measure 51
00010000
00000000
00011000
00000000
00100000
00010000
00110000
00000000
,  // measure 52
00010000
00000000
00000000
00000000
10010000
00000000
00000000
00000000
00100000
01000000
00000000
01000000
00100000
00000000
10000000
00000000
,  // measure 53
01000000
00000000
00000000
00100000
00001000
00000000
00000000
00010000
00000000
00000000
00000100
00001000
00000100
00000000
00001000
00000001
,  // measure 54
00002000
00000000
00000100
00000000
00000001
00000000
00003010
00001000
,  // measure 55
00000200
00020300
00032000
02003000
,  // measure 56
03100000
10000000
00020000
00000000
00030000
00000000
01000000
00100000
,  // measure 57
20000000
00000000
00000000
00000000
31000000
00000000
00100000
00000000
00001000
00010000
00000000
00010000
00000100
00000000
00000010
00000000
,  // measure 58
00000002
00000000
00000010
00000000
00001003
00000010
00001000
00000100
,  // measure 59
00020000
00100000
00032000
00100000
,  // measure 60
00013000
00001000
02000000
00000000
03000000
00000000
00100000
01000000
,  // measure 61
00001000
00000000
00000000
00000000
00010000
00000000
00000100
00000000
00000010
00000100
00000000
00000100
00010000
00000000
00001000
00000000
,  // measure 62
00100000
00000000
00110000
00000000
00010000
01000000
10000000
01000000
,  // measure 63
00010000
00000000
00000000
00000000
11000000
00000000
00000000
00000000
00000000
00000000
00100000
00010000
00100000
00010000
00100000
00010000
,  // measure 64
00100000
00000000
00101000
00000000
00010000
00000100
00001000
00000000
,  // measure 65
00000001
00000000
00000000
00000001
00000010
00000000
00000000
00000010
00001000
00000000
00000000
00000000
00000100
00000000
00000000
00000000
,  // measure 66
00000001
00000000
00000011
00000000
00000100
00010000
00001000
00010000
,  // measure 67
00000100
00000000
00000000
00000000
00001100
00000000
00000000
00000000
00000000
00000000
00000001
00000010
00000001
00000010
00000001
00000010
,  // measure 68
00000001
00001000
00000100
00000000
00000100
00010000
00001000
00000000
,  // measure 69
00100000
00000000
00010000
00000000
10000000
00000000
01000000
00000000
00100000
00000000
00010000
00000000
01000000
00200000
00000000
00000000
,  // measure 70
00300000
00000000
00000000
00000000
;

//---------------dance-double - ----------------
#NOTES:
     dance-double:
     :
     Medium:
     5:
     0.365101,0.354630,0.325395,0.291500,0.033895,286.000000,48.000000,43.000000,0.000000,0.000000,0.000000,0.365101,0.354630,0.325395,0.291500,0.033895,286.000000,48.000000,43.000000,0.000000,0.000000,0.000000:
// measure 0
00000000
00000000
00000000
00000000
,  // measure 1
00000000
00000000
00000000
00000000
,  // measure 2
00000000
00000000
00000000
00000000
,  // measure 3
00000000
00000000
00000000
00000000
,  // measure 4
00000000
00000000
00000000
00000000
,  // measure 5
00000000
00000000
00000000
00000000
,  // measure 6
00000000
00000000
00000000
00000000
,  // measure 7
00000000
00000000
00000000
00000000
,  // measure 8
00000010
00000101
00000010
00001100
,  // measure 9
00010000
00000000
00000000
00000000
00011000
00000000
00000000
00000000
00100000
00000000
00000000
00000000
00010000
10000000
00000000
00000000
,  // measure 10
01100000
00000000
00000000
10000000
01000000
00000000
00010000
00000000
,  // measure 11
01010000
00000000
00000000
00010000
01000000
00000000
10000000
00000000
,  // measure 12
11000000
00000000
00100000
00001000
00010000
00000000
00010000
00001000
,  // measure 13
00100000
00000000
00001000
00010000
00000100
00000000
00000010
00000000
,  // measure 14
00001001
00000000
00000000
00000010
00000001
00000000
00000100
00000000
,  // measure 15
00001010
00000000
00000000
00000100
00001000
00000000
00000010
00000000
,  // measure 16
00000101
00000000
00000000
00000000
00000010
00000100
00010000
00000000
,  // measure 17
00002000
00000000
00000000
00000000
00000000
00000000
00000000
00000000
00003000
00000000
00000000
00000000
00100000
00010000
00000000
00000000
,  // measure 18
10010000
00000000
00000000
10000000
00000000
00000000
00000000
00000000
00100000
00000000
00000000
00000000
01000000
00000000
00000000
00000000
,  // measure 19
00010000
00000000
00000000
00010000
00000000
00000000
00000000
00000000
00100000
00000000
00000000
00000000
00001000
00000000
00000000
00000000
,  // measure 20
00010000
00000000
00000000
00000100
00000000
00000000
00001000
00000000
00000000
00000000
00000000
00000000
00001100
00000000
00000000
00000000
,  // measure 21
00001000
00000000
00000000
00000100
00000000
00000000
00010000
00000000
00000000
00000000
00000000
00000000
00011000
00000000
00000000
00000000
,  // measure 22
00010000
00000000
00000010
00000100
00000010
00000000
00001000
00000000
,  // measure 23
00000001
00000000
00000010
00000100
00001000
00000000
00000100
00000000
,  // measure 24
00011000
00100000
01010000
10010000
,  // measure 25
10100000
00000000
01000000
00000000
00010000
10000000
01000000
00100000
,  // measure 26
00020000
00000000
00000000
00000000
10030000
00000000
00010000
01000000
,  // measure 27
00100000
10000000
01000000
00100000
,  // measure 28
00001000
00010000
00000100
00000000
00000000
00000000
00000010
00000100
,  // measure 29
00002000
00000000
00003001
00001000
00000020
00000000
00000030
00000000
,  // measure 30
00000201
00000000
00000000
00000000
00000310
00001000
00000010
00000100
,  // measure 31
00000002
00000023
00002030
00023000
,  // measure 32
00031000
00100000
02000000
00000000
03000000
00000000
10000000
01000000
,  // measure 33
00200000
00000000
00301000
00100000
00020000
00000000
00030000
00000000
,  // measure 34
10200000
00000000
00010000
00000000
00300000
00000000
00100000
10000000
,  // measure 35
12000000
00000000
00010000
00000000
13000000
01000000
00100000
00001000
,  // measure 36
00021000
00000000
00000100
00000000
00030000
00000000
00001000
00000100
,  // measure 37
00001001
00000110
00001001
00000110
,  // measure 38
00002001
00000000
00010000
00000000
00013000
00000000
00100000
00010000
,  // measure 39
10020000
00000000
00001000
00000000
00031000
00010000
00001000
00000001
,  // measure 40
00001000
00000100
00010000
00000000
00001000
00100000
00010000
00000000
,  // measure 41
10010000
01100000
10010000
01100000
,  // measure 42
20020000
00000000
30030000
01000000
01000000
01000000
00010000
00010000
,  // measure 43
00200000
00001000
00010000
00301000
,  // measure 44
00022000
00000000
00033000
00000100
00000100
00000100
00000010
00000010
,  // measure 45
00000002
00000010
00001000
00000013
,  // measure 46
00001100
00000000
00000000
00001000
00000000
00000000
00000000
00000000
00000100
00000000
00000000
00000000
00010000
00000000
00000000
00000000
,  // measure 47
00001000
00000000
00000000
00001000
00000000
00000000
00000000
00000000
00100000
00000000
00000000
00000000
00010000
00000000
00000000
00000000
,  // measure 48
10000000
00000000
00000000
01000000
00000000
00000000
00010000
00000000
00000000
00000000
00000000
00000000
10010000
00000000
00000000
00000000
,  // measure 49
00010000
00000000
00000000
01000000
00000000
00000000
10000000
00000000
00000000
00000000
00000000
00000000
10010000
00000000
00000000
00000000
,  // measure 50
00100000
00000000
00001000
00010000
00001000
00000000
00010000
00000000
,  // measure 51
00000100
00000000
00000010
00000001
00000100
00000000
00000010
00000000
,  // measure 52
00001000
00000100
00000010
00000000
00000100
00000000
00000010
00000000
,  // measure 53
00000001
00001000
00000100
00000000
00010000
00001000
00100000
01000000
,  // measure 54
20000000
00000000
00000000
00000000
30100000
00000000
01000000
00001000
,  // measure 55
00020000
00030200
00000320
00000230
,  // measure 56
00001300
00000001
00000200
00000000
00000000
00000000
00001300
00000100
,  // measure 57
00000001
00000000
00000001
00000010
00000200
00000000
00000300
00000000
,  // measure 58
00012000
00000000
00000000
00000000
00103000
00010000
00100000
00010000
,  // measure 59
02000000
03200000
20300000
32000000
,  // measure 60
03100000
00001000
00020000
00000000
00030000
00000000
00000100
00010000
,  // measure 61
00002000
00000000
00003100
00000010
00000200
00000000
00000300
00000000
,  // measure 62
00000021
00000000
00001000
00000000
00000030
00000000
00000001
00000100
,  // measure 63
00001200
00000000
00000001
00000000
00000310
00000100
00000010
00010000
,  // measure 64
00021000
00000000
00130000
00000000
00010000
00001000
01000000
00000000
,  // measure 65
10010000
01100000
10010000
01100000
,  // measure 66
12000000
00000000
00010000
00000000
03010000
01000000
10000000
00000000
,  // measure 67
02010000
00000000
10000000
00000000
13000000
01000000
00010000
00000000
,  // measure 68
00110000
00000000
00011000
00000000
00010000
00000100
00000010
00000000
,  // measure 69
00000001
00001000
00000001
00001000
00000010
00000000
00001100
00000000
;

//---------------dance-double - ----------------
#NOTES:
     dance-double:
     :
     Easy:
     4:
     0.281815,0.355901,0.366069,0.271163,0.000000,197.000000,54.000000,40.000000,0.000000,0.000000,0.000000,0.281815,0.355901,0.366069,0.271163,0.000000,197.000000,54.000000,40.000000,0.000000,0.000000,0.000000:
// measure 0
00000000
00000000
00000000
00000000
,  // measure 1
00000000
00000000
00000000
00000000
,  // measure 2
00000000
00000000
00000000
00000000
,  // measure 3
00000000
00000000
00000000
00000000
,  // measure 4
00000000
00000000
00000000
00000000
,  // measure 5
00000000
00000000
00000000
00000000
,  // measure 6
00000000
00000000
00000000
00000000
,  // measure 7
00000000
00000000
00000000
00000000
,  // measure 8
00010000
10010000
00000000
11000000
,  // measure 9
00000000
00110000
00000000
00001100
,  // measure 10
00000002
00000003
00001000
00000001
,  // measure 11
00000200
00000300
00000010
00001000
,  // measure 12
00000200
00000300
00020000
00030000
,  // measure 13
00002000
00003000
00100000
00010000
,  // measure 14
02000000
03000000
00100000
10000000
,  // measure 15
00020000
00030000
10000000
01000000
,  // measure 16
00020000
00030000
00000100
00010000
,  // measure 17
00002000
00003000
00000100
00000001
,  // measure 18
00001001
00000000
00000100
00000001
,  // measure 19
00000101
00000000
00000010
00001000
,  // measure 20
00001100
00000000
00010000
00001000
,  // measure 21
00101000
00000000
00100000
01000000
,  // measure 22
11000000
01000000
01000000
01000000
,  // measure 23
00000000
00100000
00010000
10000000
,  // measure 24
01010000
00000000
11000000
01010000
,  // measure 25
10010000
00100000
01000000
00100000
,  // measure 26
20000000
00000000
30000000
00010000
,  // measure 27
00100000
00001000
00010000
00000100
,  // measure 28
00000020
00000000
00000030
00000001
,  // measure 29
00000200
00000000
00000020
00000330
,  // measure 30
00000002
00000000
00000003
00000010
,  // measure 31
00000100
00010000
00001000
00100000
,  // measure 32
02000000
00000000
03000000
10000000
,  // measure 33
00020000
00000000
00200000
00330000
,  // measure 34
11000000
00110000
00001000
00010000
,  // measure 35
00001100
00000022
00000033
00000000
,  // measure 36
00000101
00001010
00010000
00001000
,  // measure 37
10100000
01010000
10100000
01010000
,  // measure 38
11000000
00110000
00001000
00010000
,  // measure 39
00001100
00000011
00000100
00000100
,  // measure 40
00000020
00002030
00023000
01030000
,  // measure 41
01010000
11000000
10100000
00110000
,  // measure 42
20000000
00000000
01000000
31000000
,  // measure 43
00200000
00010000
00010000
00310000
,  // measure 44
00002000
00000000
00000100
00003100
,  // measure 45
00000020
00000001
00000001
00000031
,  // measure 46
00000101
00000000
00000010
00001000
,  // measure 47
00001100
00000000
00010000
00001000
,  // measure 48
00101000
00000000
00010000
10000000
,  // measure 49
01100000
00000000
10000000
01000000
,  // measure 50
00110000
00000000
00010000
01000000
,  // measure 51
10100000
00000000
01000000
00001000
,  // measure 52
00011000
00000000
00010000
00000100
,  // measure 53
00000110
00000001
00001000
00000001
,  // measure 54
00000200
00000000
00000300
00000010
,  // measure 55
00001000
00000100
00010000
00001000
,  // measure 56
00010000
00200000
00300000
01000000
,  // measure 57
00020000
00000000
20000000
30030000
,  // measure 58
02000000
00000000
03000000
00100000
,  // measure 59
10000000
01000000
00010000
00001000
,  // measure 60
00000100
00002000
00003000
00000100
,  // measure 61
00000002
00000000
00002000
00003003
,  // measure 62
00000011
00001100
00010000
00001000
,  // measure 63
00110000
11000000
00010000
01000000
,  // measure 64
10100000
01010000
00001000
00010000
,  // measure 65
00001010
00000101
00001010
00000101
,  // measure 66
00000011
00001100
00010000
00001000
,  // measure 67
00110000
11000000
00100000
01000000
,  // measure 68
00020000
20030000
32000000
03200000
,  // measure 69
00301000
00010000
00000100
00022000
,  // measure 70
00033000
00000000
00000000
00000000
;
