#VERSION:0.81;
#TITLE:Machine, I Am;
#SUBTITLE:;
#ARTIST:Sonitus Vir;
#TITLETRANSLIT:;
#SUBTITLETRANSLIT:;
#ARTISTTRANSLIT:;
#GENRE:Big Beat;
#ORIGIN:;
#CREDIT:;
#BANNER:Machine, I Am-bn.png;
#BACKGROUND:Machine, I Am-bg.png;
#PREVIEWVID:;
#JACKET:Machine, I Am-jk.png;
#CDIMAGE:;
#DISCIMAGE:;
#LYRICSPATH:;
#CDTITLE:PROJECT GOLDENROD-cdtitle.png;
#MUSIC:Machine, I Am.mp3;
#OFFSET:-0.040000;
#SAMPLESTART:23.080002;
#SAMPLELENGTH:15.360001;
#SELECTABLE:YES;
#BPMS:0.000=125.000;
#STOPS:;
#DELAYS:;
#WARPS:;
#TIMESIGNATURES:0.000=4=4;
#TICKCOUNTS:0.000=4;
#COMBOS:0.000=1;
#SPEEDS:0.000=1.000=0.000=0;
#SCROLLS:0.000=1.000;
#FAKES:;
#LABELS:0.000=Song Start;
#BGCHANGES:;
#KEYSOUNDS:;
#ATTACKS:
;

//---------------dance-single - ----------------
#NOTEDATA:;
#CHARTNAME:;
#STEPSTYPE:dance-single;
#DESCRIPTION:;
#CHARTSTYLE:;
#DIFFICULTY:Hard;
#METER:9;
#RADARVALUES:0.569030,0.645618,0.181806,0.140487,0.421460,443.000000,22.000000,17.000000,0.000000,0.000000,0.000000,0.000000,0.000000,0.569030,0.645618,0.181806,0.140487,0.421460,443.000000,22.000000,17.000000,0.000000,0.000000,0.000000,0.000000,0.000000;
#CREDIT:DJ OMiY;
#NOTES:
0000
0000
0000
0000
,
0000
0000
0000
0000
,
0000
0000
0000
0000
,
0000
0000
0000
0000
,
2000
0000
0000
3000
,
0002
0020
0003
0030
,
0100
0000
0000
1000
0000
0000
0001
0000
0100
0000
0000
0000
0000
0000
0000
0000
,
0010
0100
0010
0100
0010
0000
0000
0000
,
0000
0000
0001
0001
0000
0000
0000
1000
,
1000
0000
0000
0000
0000
0000
0000
0010
,
0100
0000
0001
1000
0000
0001
0100
0000
,
0010
0000
0000
1000
0000
0000
0000
0000
,
1001
0000
0001
0100
0010
0000
0010
0000
1000
0100
0010
0000
0001
0000
1000
0000
,
1000
0010
0100
0000
0001
0000
1000
0000
0001
0010
0100
0000
1000
0000
0010
0000
,
0110
0000
1000
0100
0010
0000
0001
0000
0100
0001
1000
0000
0100
0000
0100
0000
,
1000
0100
0010
0001
0010
0001
0010
0100
1000
0000
0110
0000
0001
0100
0001
0000
,
1001
0000
0010
0100
0001
0000
1000
0000
0100
1000
0001
0000
0010
0000
0100
0000
,
0100
0010
0001
0000
1000
0000
0010
0000
0100
0010
1000
0000
0001
0000
0010
0000
,
0011
0000
0001
1000
0100
0000
1000
0000
0010
0100
0010
0000
1000
0000
0001
0000
,
0100
0010
1000
0001
1000
0001
1000
0010
0100
0000
0001
0000
1000
0100
0000
0000
,
0011
0000
0001
0100
0000
0100
0010
0000
0010
1000
0000
1000
0100
0000
0000
0000
,
0010
0000
0001
0000
1000
0000
0010
0000
0000
1000
0000
0000
0100
0000
0010
0100
,
1000
0000
1000
0001
0000
0001
0100
0000
0100
0010
0000
0010
1000
0000
0000
0000
,
0001
0010
0100
1000
0001
1000
0100
0010
,
0001
0000
0001
1000
0000
1000
0010
0000
0010
1000
0000
1000
0100
0000
0000
0000
,
0010
0000
0001
0000
1000
0000
0001
0000
0000
0100
0000
0000
0010
0000
1000
0100
,
0010
0000
0010
0100
0000
0100
1000
0000
1000
0001
0000
0001
0010
0000
0000
0000
,
0001
1000
0100
1000
0010
0100
1001
0000
,
0020
0000
1000
2030
3001
1000
0100
0010
,
0002
0000
0013
0200
1000
0000
1300
0001
,
0200
0000
0310
0020
1030
0001
1000
0100
,
0020
0000
0031
2000
0010
0000
3010
0000
,
0100
0010
0100
0000
0010
0000
0100
0010
0100
0000
0001
0000
1000
0000
0100
0000
,
0010
0001
0010
0000
0001
0000
0010
0001
0010
0000
0100
0000
1000
0000
0001
0000
,
1000
0010
1000
0000
0010
0000
1000
0010
1000
0000
0001
0000
0100
0000
0010
0000
,
1000
0001
1000
0000
0001
0000
1000
0001
2000
0000
0000
0000
3000
0000
0000
0000
,
0001
0010
0001
0010
0001
0000
1000
0000
0100
0000
1000
0000
1010
0000
0000
0000
,
1000
0100
1000
0100
1000
0000
0001
0000
0100
0000
0001
0000
0011
0000
0000
0000
,
0100
0000
0001
1000
0001
0000
0010
0000
0100
0000
1000
0000
0001
0000
0100
0000
,
0010
0000
0010
0000
1000
0100
0020
0000
0001
0000
0000
0000
0130
0000
1000
0000
,
0010
0100
0010
1000
0001
0000
0010
0000
0100
0000
1000
0000
1001
0000
0000
0000
,
0100
0001
1000
0001
0010
0000
0100
0000
1000
0000
0100
0000
0110
0000
0000
0000
,
0001
0000
1000
0010
1000
0000
0100
0000
1000
0000
0001
0000
0100
0000
0000
0000
,
0010
0000
0010
1000
0010
1000
0001
0010
0000
0010
0000
0100
0020
0000
0030
0000
,
0011
0000
0001
0010
0100
0000
1000
0000
0010
0100
0001
0000
1000
0000
0010
0000
,
0010
1000
0001
0000
0010
0000
0100
0000
1000
0010
0100
0000
0010
0000
1000
0000
,
1001
0000
0010
0001
1000
0000
0010
0000
0100
0001
0100
0000
0010
0000
1000
0000
,
0001
0010
0100
1000
0100
1000
0100
0010
0001
0000
0100
0000
0010
1000
0001
0000
,
1001
0000
1000
0010
0100
0000
0001
0000
0010
0001
0100
0000
0010
0000
1000
0000
,
1000
0001
0100
0000
0010
0000
0100
0000
0001
1000
0100
0000
0010
0000
0001
0000
,
0101
0000
0100
0010
1000
0000
0100
0000
1000
0100
0010
0000
0001
0000
0100
0000
,
0002
0000
0000
0000
0000
0003
0000
1000
,
1001
0000
0000
0001
0000
0000
0001
0000
0000
0001
0000
0000
0001
0000
1000
0000
,
0010
0000
0100
0000
0100
0001
0000
0010
0000
0100
0000
1000
0010
0000
0110
0000
,
1000
0000
0000
1000
0000
0000
1000
0000
0000
1000
0000
0000
0001
0000
0100
0000
,
0010
0000
1000
0000
1000
0000
0001
0010
0100
0000
0000
0000
1001
0000
0000
0000
,
0010
0000
0000
0010
0000
0000
0010
0000
0000
0010
0000
0000
0100
0000
0001
0000
,
1000
0000
1000
0000
0001
0100
0000
0001
0000
1000
0000
0010
0100
0000
1001
0000
,
0100
0000
0000
0100
0000
0000
0100
0000
0000
0100
0000
0000
0001
0000
0010
0000
,
0100
0000
1100
0000
0101
0000
0010
0001
1000
0000
0010
0000
0110
0000
0000
0000
,
0002
0000
0000
0000
,
0200
0000
0003
0000
,
0000
0000
0300
0000
;

//---------------dance-single - ----------------
#NOTEDATA:;
#CHARTNAME:;
#STEPSTYPE:dance-single;
#DESCRIPTION:;
#CHARTSTYLE:;
#DIFFICULTY:Medium;
#METER:7;
#RADARVALUES:0.386043,0.387371,0.107431,0.123959,0.095035,299.000000,13.000000,15.000000,0.000000,0.000000,0.000000,0.000000,0.000000,0.386043,0.387371,0.107431,0.123959,0.095035,299.000000,13.000000,15.000000,0.000000,0.000000,0.000000,0.000000,0.000000;
#CREDIT:DJ OMiY;
#NOTES:
0000
0000
0000
0000
,
0000
0000
0000
0000
,
0000
0000
0000
0000
,
0000
0000
0000
0000
,
1000
0000
0000
0000
0001
0000
0000
1000
0000
0000
0000
0000
0000
0000
0000
0000
,
0010
0000
0000
0000
0100
0000
0000
0010
0000
0000
0000
0000
0100
0000
0000
0000
,
0001
0000
0000
0000
1000
0000
0000
0100
0000
0000
0000
0000
0000
0000
0000
0000
,
0020
0000
0032
0000
,
1003
0000
0010
0010
0000
0000
0000
0100
,
0100
0000
0000
0000
0001
0000
0000
1000
0000
0000
0000
0000
0000
0000
0000
0000
,
0100
0000
0010
0000
,
0001
0000
0000
0000
,
1100
0000
0001
0001
1000
0000
0100
0010
,
0010
0000
0001
0000
1000
0100
0010
0001
,
0100
0000
0010
0010
1000
0000
0001
0010
,
0100
0000
1000
0000
0001
0000
0100
0010
0100
0000
0000
0000
1001
0000
0001
0000
,
0101
0000
1000
1000
0100
0000
0010
0001
,
0001
0000
0100
0000
0001
1000
0100
0010
,
0001
0000
0100
0100
0010
0000
1000
0001
,
0001
0000
0010
0000
0100
0000
1000
0001
1000
0000
0000
0000
0010
0100
0000
0000
,
0001
0000
0000
1000
0000
0000
0001
0000
0000
0010
0000
0000
0001
0000
0000
0000
,
1000
0100
0010
0001
1000
0010
0100
0001
,
0010
0000
0000
0100
0000
0000
1000
0000
0000
0001
0000
0000
0100
0000
0000
0000
,
0010
1000
0001
0010
0100
0000
1001
0000
,
1000
0000
0000
0100
0000
0000
0010
0000
0000
0001
0000
0000
0100
0000
0000
0000
,
0001
0100
0001
1000
0100
0010
0001
0000
,
0100
0000
0000
0010
0000
0000
0100
0000
0000
0001
0000
0000
1000
0000
0000
0000
,
0100
1000
0100
0010
0001
0000
0110
0000
,
2000
0000
0000
3100
1000
0001
1000
0000
,
0010
0000
0100
0002
0000
0000
1003
0001
,
0020
0000
0000
0130
0010
0001
1000
0000
,
0010
0000
1000
0200
0000
0000
0310
0001
,
2000
0000
0000
3001
0100
0010
1000
0000
,
0100
0000
0010
0002
0000
0000
1003
0001
,
0020
0000
0000
0130
1000
0001
0100
0000
,
0001
0000
1000
0020
0000
0000
0030
0000
,
1000
0001
1000
0001
0000
0000
0100
0000
0100
0000
0000
0000
0000
0000
0000
0000
,
0001
0010
0001
0010
0000
0000
0000
0000
0100
0000
0000
0000
1100
0000
0000
0000
,
1000
0001
0100
0010
0000
1000
0100
0000
,
0010
0001
1000
0002
0000
0003
0101
0000
,
1000
0100
1000
0100
0000
0000
0010
0000
0010
0000
0000
0000
0000
0000
0000
0000
,
0001
0100
0001
0100
0000
0000
0000
0000
0010
0000
0000
0000
1001
0000
0000
0000
,
1000
0001
0100
0010
0000
1000
0001
0000
,
0010
0100
1000
0100
0010
0001
1000
0000
,
0101
0000
1000
1000
0100
0000
0010
0001
,
0001
0000
0100
0000
0001
0010
0100
1000
,
0001
0000
0010
0010
0100
0000
1000
0001
,
0100
0010
1000
0001
0010
0000
1001
1000
,
1100
0000
0010
0010
0001
0000
1000
0100
,
0100
0000
1000
0000
0001
0010
0100
1000
,
0010
0000
0100
0100
0001
0000
1000
0000
,
0220
0000
0000
0000
0000
0330
0000
0001
,
1000
0000
0001
0100
0010
0000
1000
0000
,
0100
0010
0001
0010
0100
1000
0001
0000
,
0100
0000
0010
1000
0001
0000
0100
0000
,
0010
1000
0100
0010
0001
0000
0101
0000
,
1000
0000
0010
1000
0100
0000
0010
0000
,
0001
0100
0001
0010
0100
0000
1000
0000
,
0010
0000
1000
0001
0100
0000
0010
0000
,
1000
0100
0010
0001
0010
0100
1000
0000
,
0020
0000
0000
0000
,
0200
0000
0030
0000
,
0000
0000
0300
0000
;

//---------------dance-single - ----------------
#NOTEDATA:;
#CHARTNAME:;
#STEPSTYPE:dance-single;
#DESCRIPTION:;
#CHARTSTYLE:;
#DIFFICULTY:Easy;
#METER:5;
#RADARVALUES:0.285695,0.309897,0.082639,0.165278,0.000000,212.000000,10.000000,20.000000,0.000000,0.000000,0.000000,0.000000,0.000000,0.285695,0.309897,0.082639,0.165278,0.000000,212.000000,10.000000,20.000000,0.000000,0.000000,0.000000,0.000000,0.000000;
#CREDIT:DJ OMiY;
#NOTES:
0000
0000
0000
0000
,
0000
0000
0000
0000
,
0000
0000
0000
0000
,
0000
0000
0000
0000
,
2000
3000
0000
0000
,
0001
0002
0003
0000
,
0200
0300
0020
0030
,
1000
0001
0100
0000
,
0000
0001
0000
0000
,
0010
0000
0000
0000
,
0200
0300
2000
3000
,
0000
0000
0000
0000
,
0110
0000
0001
0100
0000
0000
1000
0100
,
0001
1000
0010
0100
,
0002
0010
1003
0001
,
2000
0100
3001
1000
,
1001
0000
1000
0100
0000
0000
0001
0100
,
1000
0010
0100
0001
,
2000
0100
3001
1000
,
0001
0100
0001
1000
0200
0000
0300
0000
,
1001
1000
0010
0100
,
0001
0000
1000
0000
0100
0000
0010
0001
,
1000
0010
0100
0001
,
1000
0100
1000
0100
0000
0000
0010
0000
,
0001
1000
0010
0100
,
0010
0000
1000
0000
0001
0000
0010
0100
,
1000
0001
1000
0100
,
0010
0001
0010
0001
0000
0000
0000
0000
,
1000
0000
0000
1000
0000
0000
0001
0000
,
0010
0000
0000
0010
0000
0000
0001
0000
,
0100
0000
0000
0100
0000
0000
0010
0000
,
1000
0100
0010
0000
,
0001
0000
0000
0001
0000
0000
1000
0000
,
0100
0000
0000
0100
0000
0000
1000
0000
,
0010
0000
0000
0010
0000
0000
0100
0000
,
0001
1000
0010
0000
,
0100
0100
0000
0010
0010
0000
1001
0000
,
1000
1000
0000
0001
0001
0000
0110
0000
,
0001
0010
0100
1000
,
0002
0000
0000
0200
0000
0000
0303
0000
,
0010
0010
0000
1000
1000
0000
1001
0000
,
0100
0100
0000
0001
0001
0000
1001
0000
,
0010
1000
0100
0010
,
0002
2003
3001
0110
,
1000
0000
0100
0001
0000
0000
0100
1000
,
0001
0100
0010
1000
,
0001
0000
0010
1000
0000
0000
0010
0001
,
2000
3002
0023
0030
,
0110
0000
0100
1000
0000
0000
0100
0001
,
1000
0001
0010
0100
,
1000
0000
0100
0001
0000
0000
0100
1000
,
0020
0000
0000
0030
,
0100
0010
1000
0001
,
0010
0100
0010
0000
0001
0000
1000
0000
,
0010
1000
0001
0010
,
0001
1000
0001
0000
0100
0000
1001
0000
,
0010
1000
0001
0100
,
0010
1000
0001
0000
0100
0000
0001
0000
,
0010
0100
1000
0001
,
0100
0100
0001
1000
0010
1000
0100
0000
,
2000
0000
0000
0000
,
0002
0000
0000
0000
,
0000
0000
3003
0000
;

//---------------dance-single - ----------------
#NOTEDATA:;
#CHARTNAME:;
#STEPSTYPE:dance-single;
#DESCRIPTION:;
#CHARTSTYLE:;
#DIFFICULTY:Beginner;
#METER:2;
#RADARVALUES:0.127500,0.151230,0.041320,0.157014,0.000000,84.000000,5.000000,19.000000,0.000000,0.000000,0.000000,0.000000,0.000000,0.127500,0.151230,0.041320,0.157014,0.000000,84.000000,5.000000,19.000000,0.000000,0.000000,0.000000,0.000000,0.000000;
#CREDIT:DJ OMiY;
#NOTES:
0000
0000
0000
0000
,
0000
0000
0000
0000
,
0000
0000
0000
0000
,
0000
0000
0000
0000
,
0000
0000
0000
0000
,
0000
0000
0000
0000
,
0000
0000
0000
0000
,
0000
0000
0000
0000
,
2000
0000
3000
0000
,
0002
0000
0003
0000
,
0200
0000
0300
0000
,
0020
0000
0030
0000
,
1000
0000
0000
0100
,
0100
0000
0000
0000
,
0010
0000
0000
0001
,
0002
0000
0003
0000
,
0110
0000
0000
1000
,
1000
0000
0000
0000
,
0001
0000
0000
0010
,
0020
0000
0030
0000
,
0001
0000
1000
0000
,
0001
0000
0000
0000
,
1000
0000
0100
0000
,
1000
0000
0000
0000
,
0010
0000
0100
0000
,
0001
0000
0000
0000
,
0010
0000
0100
0000
,
1000
0000
0000
0000
,
2000
0000
0000
3000
0000
0000
0000
0000
,
0200
0000
0000
0300
0000
0000
0000
0000
,
0020
0000
0000
0030
0000
0000
0000
0000
,
0002
0000
0000
0003
0000
0000
0000
0000
,
0020
0000
0000
0030
0000
0000
0000
0000
,
0002
0000
0000
0003
0000
0000
0000
0000
,
2000
0000
0000
3000
0000
0000
0000
0000
,
0200
0000
0000
0300
0000
0000
0000
0000
,
1001
0000
0010
0000
,
1001
0000
0100
0000
,
0001
0000
1000
0000
,
0100
0100
0100
0000
,
1001
0000
0100
0000
,
1001
0000
0010
0000
,
1000
0000
0001
0000
,
0010
0010
0020
0030
,
0010
0000
0000
0001
,
0001
0000
0000
0000
,
0010
0000
0000
0100
,
0200
0000
0300
0000
,
1000
0000
0000
0010
,
0010
0000
0000
0000
,
0100
0000
0000
0001
,
0002
0000
0003
0000
,
1000
0000
0100
0000
,
0010
0000
0001
0000
,
0100
0000
0001
0000
,
2000
0000
3000
0000
,
0001
0000
0100
0000
,
0010
0000
1000
0000
,
0001
0000
0010
0000
,
0100
0100
0100
0100
,
0200
0000
0000
0000
,
0300
0000
0000
0000
;

//---------------dance-double - ----------------
#NOTEDATA:;
#CHARTNAME:;
#STEPSTYPE:dance-double;
#DESCRIPTION:;
#CHARTSTYLE:;
#DIFFICULTY:Hard;
#METER:9;
#RADARVALUES:0.561946,0.612356,0.198334,0.173542,0.462779,431.000000,24.000000,21.000000,0.000000,0.000000,0.000000,0.000000,0.000000,0.561946,0.612356,0.198334,0.173542,0.462779,431.000000,24.000000,21.000000,0.000000,0.000000,0.000000,0.000000,0.000000;
#CREDIT:DJ OMiY;
#NOTES:
// measure 0
00000000
00000000
00000000
00000000
,  // measure 1
00000000
00000000
00000000
00000000
,  // measure 2
00000000
00000000
00000000
00000000
,  // measure 3
00000000
00000000
00000000
00000000
,  // measure 4
00002000
00000000
00000000
00000000
00103000
00010000
00100000
00010000
00000000
00000000
00000000
00000000
00000000
00000000
00000000
00000000
,  // measure 5
10000000
00000000
00000000
00000000
00100000
01000000
00100000
01000000
00000000
01000000
00010000
00000000
00100000
00001000
00100000
00001000
,  // measure 6
00000000
00000000
00000000
00000000
00010000
00000100
00010000
00000100
00000000
00000000
00000000
00000000
00000000
00000000
00000000
00000000
,  // measure 7
00000010
00000000
00000001
00000000
00000100
00000000
00001000
00000000
00010000
00000000
00000000
00000000
01000000
10000000
01000000
10000000
,  // measure 8
01000000
00000000
00000000
00000000
00100000
00010000
00100000
00010000
00000000
00000000
00000000
00000000
00000000
00000000
00000000
00000000
,  // measure 9
10000000
00000000
00000000
00000000
00100000
10000000
00100000
10000000
00000000
10000000
01000000
00000000
10000000
00010000
10000000
00010000
,  // measure 10
00000000
00000000
00000000
00000000
00100000
00001000
00010000
00000100
00000000
00000000
00000000
00000000
00000000
00000000
00000000
00000000
,  // measure 11
00000000
00000000
00000000
00000000
,  // measure 12
00000011
00000000
00000001
00000100
00000001
00000000
00001000
00000000
00000100
00000010
00000100
00000000
00001000
00000000
00000100
00000000
,  // measure 13
00010000
00001000
00200000
00000000
00310000
10000000
01000000
00000000
,  // measure 14
01100000
00000000
00100000
00010000
10000000
00000000
01000000
00000000
00100000
01000000
10000000
00000000
01000000
00000000
00100000
00000000
,  // measure 15
00001000
00010000
00001000
00010000
00001000
00010000
00001000
00100000
00010000
00000000
01000000
00000000
00100000
10000000
00010000
00000000
,  // measure 16
00110000
00000000
00100000
00001000
00010000
00000000
00000100
00000000
00000010
00000100
00001000
00000000
00000100
00000000
00000010
00000000
,  // measure 17
00000001
00001000
00000200
00000000
00000310
00000100
00001000
00000000
,  // measure 18
00001100
00000000
00000100
00010000
00001000
00000000
00100000
00000000
00010000
01000000
00100000
00000000
10000000
00000000
00010000
00000000
,  // measure 19
00100000
01000000
00100000
01000000
00100000
01000000
00100000
00010000
10000000
00000000
00100000
00000000
01100000
01000000
00000000
00000000
,  // measure 20
00010000
00000000
00010000
10000000
00000000
10000000
01000000
00000000
01000000
00100000
00000000
00100000
00001000
00000000
00000000
00000000
,  // measure 21
00010000
00000000
00000100
00000000
00001000
00000000
00000010
00000000
00001000
00000100
00000000
00000000
00000010
00000000
00000001
00000100
,  // measure 22
00000001
00000000
00000001
00000010
00000000
00000010
00000100
00000000
00000100
00001000
00000000
00001000
00000100
00000000
00000000
00000000
,  // measure 23
00010000
00000000
00001000
00000000
00100000
00000000
00001000
00000000
00010000
00000000
00000100
00000010
00000100
00000000
00010000
00000000
,  // measure 24
00001000
00000000
00001000
00100000
00000000
00100000
00010000
00000000
00010000
01000000
00000000
01000000
10000000
00000000
00000000
00000000
,  // measure 25
01000000
00000000
00010000
00000000
10000000
00000000
01000000
00000000
00100000
00010000
00000000
00000000
10000000
00000000
00100000
01000000
,  // measure 26
00100000
00000000
00100000
10000000
00000000
10000000
00100000
00000000
00100000
00010000
00000000
00010000
00001000
00000000
00000000
00000000
,  // measure 27
00010000
00000100
00000010
00000100
00001000
00000001
00000101
00000000
,  // measure 28
00000020
00000000
00001000
00002030
00003001
00000100
00000001
00000010
,  // measure 29
00000200
00000000
00000000
00000020
00000000
00000330
00000001
00001000
,  // measure 30
00000200
00000000
00010000
00020300
00031000
00100000
00010000
10000000
,  // measure 31
00020000
00000000
00000000
02000000
00000000
03030000
00010000
10000000
,  // measure 32
00100000
10000000
00100000
00000000
01000000
00000000
00010000
00100000
00010000
00000000
10000000
00000000
01000000
00000000
00100000
00000000
,  // measure 33
00002000
00000000
00000000
00020000
00000000
00033000
00010000
00000100
,  // measure 34
00000010
00000001
00000010
00000000
00000100
00000000
00001000
00000100
00001000
00000000
00000001
00000000
00000100
00000000
00001000
00000000
,  // measure 35
00020000
00000000
00000000
02000000
00000000
00000000
03030000
00000000
,  // measure 36
10000000
01000000
10000000
01000000
00000000
00000000
00100000
00000000
00110000
00000000
00010000
00000000
01010000
00000000
00000000
00000000
,  // measure 37
00100000
00001000
00100000
00001000
00000000
00000000
00000000
00000000
00010000
00000000
00000100
00000000
00000010
00000000
00000100
00000000
,  // measure 38
00001000
00000000
00001000
00000001
00000000
00000001
00000100
00000000
00000010
00000000
00000000
00000000
00001001
00000000
00000000
00000000
,  // measure 39
00001000
00000000
00001000
00000000
00000010
00001000
00000200
00000000
00000000
00000000
00000300
00000000
00000110
00000000
00000000
00000000
,  // measure 40
00001000
00000100
00001000
00000100
00000000
00000000
00010000
00000000
00001000
00000000
01000000
00000000
01100000
00000000
00000000
00000000
,  // measure 41
00010000
10000000
00010000
10000000
00000000
00000000
00000000
00000000
00100000
00000000
01000000
00000000
00010000
00000000
10000000
00000000
,  // measure 42
01000000
00000000
01000000
00010000
00000000
00010000
00001000
00000000
00010000
00000000
00000000
00000000
00010100
00000000
00000000
00000000
,  // measure 43
00000100
00000000
00000100
00001000
00000010
00000001
00000010
00001000
00000000
00001000
00000000
00000100
00010000
00000000
00000000
00000000
,  // measure 44
00011000
00000000
00001000
00100000
00010000
00000000
01000000
00000000
00100000
10000000
00010000
00000000
10000000
00000000
01000000
00000000
,  // measure 45
00100000
01000000
20000000
00000000
30100000
01000000
00010000
00000000
,  // measure 46
00110000
00000000
00100000
00001000
00010000
00000000
00001000
00000000
00000100
00000001
00000010
00000000
00000100
00000000
00000010
00000000
,  // measure 47
00000001
00000100
00000001
00000100
00000001
00000100
00000001
00000100
00001000
00000000
00010000
00000000
00001000
00000000
00000000
00000000
,  // measure 48
00110000
00000000
00100000
01000000
10000000
00000000
01000000
00000000
00100000
00010000
00100000
00000000
00010000
00000000
10000000
00000000
,  // measure 49
01000000
00100000
00020000
00000000
10030000
00100000
00010000
00000000
,  // measure 50
00011000
00000000
00010000
00000100
00000010
00000000
00000100
00000000
00001000
00000001
00000100
00000000
00000010
00000000
00000100
00000000
,  // measure 51
00000002
00000000
00000000
00000000
00000003
00000000
00000000
00000011
,  // measure 52
00001000
00000000
00000000
00001000
00000000
00000000
00001000
00000000
00000000
00000100
00000000
00000000
00001000
00000000
00000000
00000000
,  // measure 53
00000100
00000000
00010000
00000000
00001000
00010000
00001000
00100000
00000000
00100000
00010000
01000000
00010000
00000000
10010000
00000000
,  // measure 54
01000000
00000000
00000000
01000000
00000000
00000000
01000000
00000000
00000000
00010000
00000000
00000000
01000000
00000000
00000000
00000000
,  // measure 55
00100000
00000000
00100000
00000000
10000000
00000000
01000000
00100000
00010000
00000000
00000000
00000000
01100000
00000000
00000000
00000000
,  // measure 56
10000000
00000000
00000000
10000000
00000000
00000000
10000000
00000000
00000000
00010000
00000000
00000000
10000000
00000000
00000000
00000000
,  // measure 57
01000000
00000000
00100000
00000000
00001000
00010000
00000100
00000010
00000000
00000001
00000100
00000001
00001000
00000000
00010100
00000000
,  // measure 58
00010000
00000000
00000000
00010000
00000000
00000000
00010000
00000000
00000000
00001000
00000000
00000000
00100000
00000000
00000000
00000000
,  // measure 59
01000000
00000000
01100000
00000000
00110000
00000000
10000000
01000000
00100000
00000000
00101000
00000000
11000000
01000000
00000000
00000000
,  // measure 60
20000000
00000000
00000000
00000000
,  // measure 61
00200000
00000000
30000000
00300000
;

//---------------dance-double - ----------------
#NOTEDATA:;
#CHARTNAME:;
#STEPSTYPE:dance-double;
#DESCRIPTION:;
#CHARTSTYLE:;
#DIFFICULTY:Medium;
#METER:7;
#RADARVALUES:0.391946,0.431996,0.206598,0.115695,0.169410,293.000000,25.000000,14.000000,0.000000,0.000000,0.000000,0.000000,0.000000,0.391946,0.431996,0.206598,0.115695,0.169410,293.000000,25.000000,14.000000,0.000000,0.000000,0.000000,0.000000,0.000000;
#CREDIT:DJ OMiY;
#NOTES:
// measure 0
00000000
00000000
00000000
00000000
,  // measure 1
00000000
00000000
00000000
00000000
,  // measure 2
00000000
00000000
00000000
00000000
,  // measure 3
00000000
00000000
00000000
00000000
,  // measure 4
20000000
00000000
00000000
00000000
31000000
00000000
00000000
00010000
00000000
00000000
00000000
00000000
00000000
00000000
00000000
00000000
,  // measure 5
00002000
00000000
00000000
00000000
00013000
00000000
00000000
00000100
00000000
00000000
00000010
00000000
00000001
00000000
00001000
00000000
,  // measure 6
00000000
00000000
00000000
00000000
00000010
00000000
00000000
00000100
00000000
00000000
00000000
00000000
00000000
00000000
00000000
00000000
,  // measure 7
00000001
00000010
00000001
00000010
00000001
00000000
00000000
00000000
,  // measure 8
00000000
00000000
00000000
00000000
00001000
00000000
00000100
00001000
00000000
00000000
00000000
00000000
00000000
00000000
00000100
00000000
,  // measure 9
00000100
00000000
00000000
00000000
00010000
00000000
00000000
00001000
00000000
00000000
00100000
00000000
00010000
00000000
10000000
00000000
,  // measure 10
00000000
00000000
00000000
00000000
00100000
00000000
00000000
01000000
00000000
00000000
00000000
00000000
00000000
00000000
00000000
00000000
,  // measure 11
00000000
00000000
00000000
00000000
,  // measure 12
10010000
00000000
01010000
00010000
10000000
00000000
10000000
01000000
,  // measure 13
01100000
00010000
10000000
00010000
,  // measure 14
00001000
00000000
00001100
00000100
00000010
00000000
00000001
00000100
,  // measure 15
00000010
00000000
00000100
00000000
00000010
00000000
00001000
00000001
00001000
00000000
00000000
00000000
00000110
00000000
00000000
00000000
,  // measure 16
00000101
00000000
00001100
00000100
00010000
00000000
00001000
00100000
,  // measure 17
00110000
10000000
00100000
00010000
,  // measure 18
10100000
00000000
11000000
01000000
00010000
00000000
00001000
00010000
,  // measure 19
00000100
00000000
00001000
00000000
00000100
00000000
00001000
00000001
00001000
00000000
00000000
00000000
00000110
00000010
00000000
00000000
,  // measure 20
00000100
00000000
00000000
00000001
00000000
00000000
00001000
00000000
00000000
00000001
00000000
00000000
00000100
00000000
00000000
00000000
,  // measure 21
00000010
00000000
00001000
00000000
00000100
00000000
00010000
00001000
,  // measure 22
00100000
00000000
00000000
00010000
00000000
00000000
10000000
00000000
00000000
00010000
00000000
00000000
00100000
00000000
00000000
00000000
,  // measure 23
01000000
10000000
01000000
00100000
00010000
00100000
00001000
00010000
,  // measure 24
00000100
00000000
00000000
00001000
00000000
00000000
00000100
00000000
00000000
00000010
00000000
00000000
00000001
00000000
00000000
00000000
,  // measure 25
00000100
00000000
00000010
00000000
00001000
00000000
00000100
00001000
,  // measure 26
00000100
00000000
00000000
00010000
00000000
00000000
00001000
00000000
00000000
00100000
00000000
00000000
00010000
00000000
00000000
00000000
,  // measure 27
10000000
00100000
01000000
00010000
10000000
00010000
00100000
00000000
,  // measure 28
02000000
00000000
00000000
23000000
00000000
00000000
30010000
00000000
,  // measure 29
00200000
00000000
00000000
00302000
00000000
00000000
00013000
00000100
,  // measure 30
00002000
00000000
00000000
00003002
00000000
00000000
00000013
00000000
,  // measure 31
00002000
00000000
00000000
00023000
00000000
00000000
01030000
10000000
,  // measure 32
00010000
00010000
01000000
00010000
00010000
00000000
10000000
00000000
,  // measure 33
00100000
00100000
10000000
00100000
00100000
00000000
01000000
00100000
,  // measure 34
01000000
01000000
00001000
01000000
01000000
00000000
00010000
00000000
,  // measure 35
00100000
00100000
00001000
00010000
00010000
00000000
00000000
00000000
,  // measure 36
00001000
00010000
00001000
00010000
00000000
00000000
00000000
00000000
00000100
00000000
00000000
00000000
00000010
00000000
00000000
00000000
,  // measure 37
00000001
00001000
00000001
00001000
00000000
00000000
00000000
00000000
00000100
00000000
00000000
00000000
00010000
00000000
00000000
00000000
,  // measure 38
00001000
00000000
00000000
00100000
00000000
00000000
01000000
00000000
00000000
00000000
00000000
00000000
10000000
00000000
00000000
00000000
,  // measure 39
00010000
00010000
10000000
00200000
00000000
00300000
01100000
00000000
,  // measure 40
10000000
01000000
10000000
01000000
00000000
00000000
00000000
00000000
00100000
00000000
00000000
00000000
00001000
00000000
00000000
00000000
,  // measure 41
00010000
00000100
00010000
00000100
00000000
00000000
00000000
00000000
00001000
00000000
00000000
00000000
00000001
00000000
00000000
00000000
,  // measure 42
00000010
00000000
00000000
00000100
00000000
00000000
00001000
00000000
00000000
00000000
00000000
00000000
00000001
00000000
00000000
00000000
,  // measure 43
00000010
00000000
00000010
00000000
00000001
00000000
00000001
00000100
00000000
00000100
00000000
00000100
00000010
00000000
00000000
00000000
,  // measure 44
00001001
00000000
00000110
00000100
00001000
00000000
00000100
00010000
,  // measure 45
00011000
00001000
00100000
01000000
,  // measure 46
10010000
00000000
10100000
00100000
01000000
00000000
00010000
10000000
,  // measure 47
00010000
00000000
10000000
00000000
00010000
00000000
01000000
00100000
01000000
00000000
00000000
00000000
10010000
00000000
00000000
00000000
,  // measure 48
11000000
00000000
00110000
00100000
00001000
00000000
00010000
00000100
,  // measure 49
00001100
00000010
00000001
00001000
,  // measure 50
00000101
00000000
00001100
00001000
00000001
00000000
00000100
00000000
,  // measure 51
00020020
00000000
00000000
00000000
00000000
00030030
00000000
00101000
,  // measure 52
00010000
00000000
00000000
10000000
00000000
00000000
00010000
00000000
00000000
10000000
00000000
00000000
00010000
00000000
00000000
00000000
,  // measure 53
01000000
00100000
10000000
00010000
01000000
00100000
10000000
00000000
,  // measure 54
01000000
00000000
00000000
00100000
00000000
00000000
00001000
00000000
00000000
00010000
00000000
00000000
00000100
00000000
00000000
00000000
,  // measure 55
00000010
00000100
00001000
00000001
00000010
00000000
00000010
00000000
,  // measure 56
00000001
00000000
00000000
00000010
00000000
00000000
00000100
00000000
00000000
00001000
00000000
00000000
00000100
00000000
00000000
00000000
,  // measure 57
00010000
00001000
00100000
00001000
00010000
00001000
00100000
00000000
,  // measure 58
00010000
00000000
00000000
10000000
00000000
00000000
01000000
00000000
00000000
00100000
00000000
00000000
00010000
00000000
00000000
00000000
,  // measure 59
00100000
00000000
00001000
00000000
00010000
00000000
00000100
00001000
00000100
00000000
00000010
00000000
00000001
00000001
00000000
00000000
,  // measure 60
00000200
00000000
00000000
00000000
,  // measure 61
00000000
00000000
00000300
00000000
;

//---------------dance-double - ----------------
#NOTEDATA:;
#CHARTNAME:;
#STEPSTYPE:dance-double;
#DESCRIPTION:;
#CHARTSTYLE:;
#DIFFICULTY:Easy;
#METER:4;
#RADARVALUES:0.316390,0.399974,0.181806,0.446251,0.000000,192.000000,22.000000,54.000000,0.000000,0.000000,0.000000,0.000000,0.000000,0.316390,0.399974,0.181806,0.446251,0.000000,192.000000,22.000000,54.000000,0.000000,0.000000,0.000000,0.000000,0.000000;
#CREDIT:DJ OMiY;
#NOTES:
// measure 0
00000000
00000000
00000000
00000000
,  // measure 1
00000000
00000000
00000000
00000000
,  // measure 2
00000000
00000000
00000000
00000000
,  // measure 3
00000000
00000000
00000000
00000000
,  // measure 4
20000000
30000000
00000000
00000000
,  // measure 5
00020000
00030000
00000000
00000000
,  // measure 6
00002000
00003000
00002000
00003000
,  // measure 7
00000002
00000003
00000002
00000003
,  // measure 8
00000000
00000000
00000010
00000010
00000000
00000000
00000000
00000100
,  // measure 9
00000100
00000000
00000000
00000000
,  // measure 10
00001000
00000000
00010000
00000000
,  // measure 11
00011000
00000000
00000000
00000000
,  // measure 12
10000000
00000000
01010000
00000000
10000000
00000000
01000000
00100000
,  // measure 13
00200000
00000000
02300000
00000000
,  // measure 14
13000000
11000000
00100000
00001000
,  // measure 15
00010000
00000100
00000011
00001100
,  // measure 16
00000001
00000000
00000101
00000000
00001000
00000000
00000010
00000100
,  // measure 17
00000100
00000001
00001000
00000100
,  // measure 18
00010000
00011000
00100000
00010000
,  // measure 19
10000000
00010000
11000000
00110000
,  // measure 20
00200000
00302000
00023000
00030200
,  // measure 21
00000320
00000032
00000203
00002300
,  // measure 22
00023000
02030000
23000000
30200000
,  // measure 23
02300000
03020000
20030000
31000000
,  // measure 24
20000000
32000000
03200000
00302000
,  // measure 25
00023000
00030200
00000320
00000230
,  // measure 26
00002300
00003002
00000203
00000320
,  // measure 27
00002030
00003200
00020300
00031000
,  // measure 28
00002000
00000000
00000000
00003000
00010000
00000000
00001000
00000000
,  // measure 29
00200000
00000000
00000000
00300000
00000000
00000000
01000000
00000000
,  // measure 30
02000000
00000000
00000000
03000000
10000000
00000000
01000000
00000000
,  // measure 31
00200000
00000000
00000000
00300000
00000000
00000000
00001000
00000000
,  // measure 32
00020000
00000000
00000000
00030000
00000100
00000000
00001000
00000000
,  // measure 33
00000002
00000000
00000000
00000003
00000000
00000000
00000100
00000000
,  // measure 34
00000020
00000000
00000000
00000030
00001000
00000000
00000001
00000000
,  // measure 35
00002000
00000000
00000000
00003000
00000000
00000000
00000000
00000000
,  // measure 36
00000100
00000010
00000100
00000000
00000100
00000000
00000000
00000000
,  // measure 37
00001000
00000100
00001000
00000000
00001000
00000000
00000100
00000000
,  // measure 38
00010000
00001000
01000000
00000000
,  // measure 39
00200000
00300000
00200000
00300000
20000000
30000000
00020000
00030000
,  // measure 40
01000000
00100000
01000000
00000000
01000000
00000000
00000000
00000000
,  // measure 41
00010000
00100000
00010000
00000000
00010000
00000000
00000000
00000000
,  // measure 42
00100000
00001000
00010000
00000100
,  // measure 43
00000011
00001100
00000101
00001010
,  // measure 44
00000001
00000000
00001100
00000000
00000100
00000000
00010000
00001000
,  // measure 45
00001000
00100000
00010000
01000000
,  // measure 46
10000000
01010000
10000000
01000000
,  // measure 47
00100000
01000000
00110000
10100000
,  // measure 48
01000000
00000000
01010000
00000000
00100000
00000000
00001000
00010000
,  // measure 49
00010000
00000100
00000010
00000001
,  // measure 50
00001000
00001100
00000010
00000100
,  // measure 51
00002002
00000000
00000000
00000000
00000000
00000000
00000000
00003003
,  // measure 52
00000100
00000100
00000100
00000100
,  // measure 53
00000001
00000010
00000100
00010000
,  // measure 54
00001000
00001000
00001000
00001000
,  // measure 55
00100000
00010000
10000000
01100000
,  // measure 56
00010000
00010000
00010000
00010000
,  // measure 57
10000000
00100000
01000000
00001000
,  // measure 58
00010000
00010000
00010000
00010000
,  // measure 59
00000100
00000010
00000100
00010000
,  // measure 60
00022000
00000000
00033000
00000000
;
