#TITLE:HOW TO BE A HEARTBREAKER;
#SUBTITLE:;
#ARTIST:Marina and the Diamonds;
#TITLETRANSLIT:;
#SUBTITLETRANSLIT:;
#ARTISTTRANSLIT:;
#GENRE:Club;
#CREDIT:;
#BANNER:HOW TO BE A HEARTBREAKER-bn.png;
#BACKGROUND:HOW TO BE A HEARTBREAKER-bg.png;
#LYRICSPATH:;
#CDTITLE:;
#MUSIC:HOW TO BE A HEARTBREAKER.mp3;
#OFFSET:-0.280000;
#SAMPLESTART:109.954300;
#SAMPLELENGTH:13.754280;
#SELECTABLE:YES;
#DISPLAYBPM:70.000000:140.000000;
#BPMS:0.000000=140.000000
,173.000000=70.000000
,207.000000=140.000000
,219.000000=35.000000
,220.000000=140.000000
;
#STOPS:140.500000=1.286000,
280.000000=1.286000
;
#BGCHANGES:;
#KEYSOUNDS:;
#ATTACKS:;

//---------------dance-single - ----------------
#NOTES:
     dance-single:
     :
     Hard:
     7:
     0.485678,0.428427,0.043126,0.244379,0.107814,433.000000,6.000000,34.000000,0.000000,0.000000,0.000000,0.485678,0.428427,0.043126,0.244379,0.107814,433.000000,6.000000,34.000000,0.000000,0.000000,0.000000:
0000
0000
0000
0000
,
0000
0000
0000
0000
,
0000
0000
0000
0000
,
0000
0000
0000
0000
,
1000
0100
0000
1000
0001
1000
0000
0001
,
0010
0001
0000
0100
0001
0100
0000
0010
,
1000
0010
0000
0100
0010
0100
0000
0001
,
0010
0001
0000
1000
0100
1000
0000
0001
,
1000
0001
0000
0010
0100
0010
0000
0001
,
0100
0001
0000
1000
0010
1000
0000
0100
,
1000
0100
0000
0010
0001
0010
0000
0001
,
0100
0001
0000
1000
0010
1000
0001
0000
,
0100
0010
0000
1000
0100
0010
0000
0001
,
0100
0010
0000
1000
0001
0100
0000
0010
,
0100
1000
0000
0100
0001
1000
0000
0010
,
1000
0100
0000
0010
0001
1000
0000
0100
,
1000
0010
0000
0100
0001
0010
0000
0001
,
0100
0010
0000
1000
0100
0010
0000
0001
,
0100
0010
1000
0010
1000
0010
1000
0010
,
0100
0001
0010
0100
1000
0001
0100
0000
,
1001
1000
0100
0010
0001
0100
0010
0100
,
0001
1000
0100
0010
0001
0100
0010
0100
,
0001
0010
0100
1000
0001
0100
0001
1000
,
0100
0010
0001
1000
0100
1000
0001
0100
,
0020
0000
1030
0100
0020
0000
0031
1000
,
0020
0000
0130
0001
0020
0000
0130
1000
,
0001
0000
0000
0100
0000
0000
0010
0000
1000
0000
0010
0000
0100
0000
0010
0000
,
1000
0000
0001
0100
0001
0100
0001
0000
,
1001
0001
0010
0100
0010
0001
1000
0100
,
1000
0010
0100
0001
1000
0100
1000
0001
,
0010
0100
1000
0100
0010
0001
0100
0010
,
1000
0001
0010
0001
1000
0100
1000
0010
,
0200
0000
0301
1000
0200
0000
0310
0001
,
0200
0000
0301
0010
0200
0000
1300
0010
,
0100
0000
0000
0001
0000
0000
1000
0000
0100
0000
1000
0000
0010
0000
0100
0000
,
0001
1001
0020
2030
,
3100
1000
0001
0000
0200
0000
0320
0000
,
1030
0001
0100
0000
0002
0000
0023
0000
,
0031
1000
0100
0000
2000
0000
3020
0000
,
0130
0010
1000
0001
0200
0000
0302
0000
,
0013
0001
0100
0000
0020
0000
2030
0000
,
3100
0000
1000
0000
0001
0000
0000
0100
0000
0000
0010
0000
0000
0000
2000
0000
,
0000
0002
0000
0000
0000
0000
0000
0000
,
3003
0000
0000
0000
0110
0000
0000
0000
0001
0000
1000
0000
0001
0000
0001
0100
,
0010
1000
0000
1000
0100
0000
0000
0000
1000
0000
0000
0010
0100
0000
0001
1000
,
0001
0100
0001
1000
0100
0000
0000
0000
0010
0000
0000
0000
0001
0000
0000
1000
,
0100
0000
0000
0000
1000
0000
0001
0000
0010
0000
0000
0000
0000
0000
0000
0000
0001
0000
0000
0000
0000
0000
0000
0000
1000
0000
0000
0001
0000
0000
0100
0000
,
0001
1000
0100
1000
0002
0000
0000
0000
0100
0000
0000
0000
1000
0000
0000
0000
,
0013
0010
0000
0001
2000
0000
0000
0000
0100
0000
0000
0000
3001
0000
1000
0001
,
0000
0100
0000
0010
2000
0000
0000
0000
0100
0000
0000
0000
0001
0000
0000
0100
,
3100
1000
0000
0001
0100
0000
0000
0000
0010
0000
1000
0100
0010
0000
0001
0100
,
0000
0001
0000
1000
0100
0000
0000
0000
0000
0000
0000
0000
0010
0000
0001
0000
,
0000
0100
0001
1000
0000
0010
0100
0001
,
0000
0010
0100
1000
0000
1000
0100
0010
,
0000
0001
0100
0010
0000
1000
0000
0000
,
1001
0001
0100
0010
1000
0100
0010
0001
,
0010
0100
1000
0010
0100
0001
1000
0100
,
1000
0001
0100
0010
0100
0001
0010
0100
,
1000
0001
0010
0100
1000
0010
0100
0001
,
0020
0000
0031
1000
0020
0000
0130
0001
,
0020
0000
0130
1000
0020
0000
0130
0010
,
1000
0000
0000
0001
0000
0000
0010
0000
0001
0000
0010
0000
0100
0000
0010
0000
,
0001
0000
1000
0100
1000
0100
1000
0000
,
1001
1000
0100
0010
0001
0100
0010
1000
,
0010
0100
0001
0010
0100
0010
0001
1000
,
0100
0010
0001
1000
0100
0010
0100
1000
,
0010
0100
0001
1000
0100
1000
0001
1000
,
0200
0000
1300
0010
0200
0000
0301
1000
,
0200
0000
0310
0001
0200
0000
0310
1000
,
0001
0000
0000
0010
0000
0000
0001
0000
0000
0000
1000
0000
0000
0000
0020
0000
,
0000
0030
0000
0000
0000
0000
0000
0000
;

//---------------dance-single - ----------------
#NOTES:
     dance-single:
     :
     Medium:
     6:
     0.369649,0.352823,0.071876,0.352194,0.028751,301.000000,10.000000,49.000000,0.000000,0.000000,0.000000,0.369649,0.352823,0.071876,0.352194,0.028751,301.000000,10.000000,49.000000,0.000000,0.000000,0.000000:
0000
0000
0000
0000
,
0000
0000
0000
0000
,
0000
0000
0000
0000
,
0000
0000
0000
0000
,
0010
1000
0001
0100
,
0001
0010
0100
1000
,
0001
0100
1000
0100
,
0001
1000
0010
1000
,
0100
0001
0100
1000
,
0001
0100
0010
1000
,
0001
0010
0001
1000
,
0100
1000
0001
0000
,
0100
0010
0000
1000
0000
0001
0000
0100
,
0000
0001
0000
1000
0000
0100
0000
1000
,
0001
1000
0000
0010
0000
0100
0000
0001
,
0000
1000
0000
0001
0000
0010
0000
0001
,
0100
0001
0000
1000
0000
0100
0000
0010
,
0000
0100
0000
1000
0000
0001
0000
0100
,
0010
0100
0001
1000
,
0010
0000
0010
0000
0010
0010
0010
0000
,
1200
0000
0310
0001
0200
0000
0310
0000
,
1000
0000
0001
0010
0001
0100
0010
0000
,
1020
0000
0130
0001
2000
0000
3010
0000
,
1000
0000
0010
1000
0001
0100
0010
0000
,
2000
0000
3001
0010
0200
0000
0310
0000
,
0002
0000
1003
0001
0200
0000
0310
0000
,
1000
0000
0000
1000
0000
0000
1000
0000
0000
0000
0001
0000
0000
0000
0001
0000
,
0000
0000
0100
0000
0100
0100
0100
0000
,
1002
0000
0013
0001
0200
0000
0310
0000
,
1000
0000
0001
0010
0100
1000
0100
0000
,
0021
0000
0031
1000
0200
0000
0310
0000
,
0100
0000
1000
0010
0100
0001
1000
0000
,
0020
0000
0130
0001
2000
0000
3100
0000
,
0020
0000
0130
1000
0002
0000
0103
0000
,
0010
0000
0000
0010
0000
0000
0010
0000
0000
0000
0100
0000
0000
0000
0100
0000
,
0000
0001
0001
0100
,
0001
2000
0000
3000
0010
0000
1000
0000
,
0100
0020
0000
0030
0001
0000
1000
0000
,
0001
0200
0000
0300
0010
0000
1000
0000
,
0001
1000
0001
0000
0010
0000
0001
0000
,
0100
0020
0000
0030
1000
0000
0001
0000
,
1000
0000
0200
0000
0000
0320
0000
0001
,
0000
0002
0000
0000
0000
0000
0000
0000
,
0033
1000
0010
0100
,
0001
0000
0000
1000
0100
0000
0000
0000
1000
0000
0000
0000
0010
0000
0000
0000
,
0100
0001
0010
0000
0100
0000
1000
0000
,
0001
0000
0000
0001
0100
0000
0000
0000
0010
0000
0000
0000
1000
0000
0001
0000
,
0010
0100
2002
0000
0003
0000
0001
0000
,
3020
0000
0200
0000
0030
0010
0310
1000
,
0001
2002
3000
0023
,
0230
0000
2000
0000
0300
0000
3001
0100
,
0000
0010
0000
1000
0000
0000
0000
0000
0000
0000
0000
0000
0001
0000
0000
0000
,
0100
0010
1000
0001
,
1000
0100
0010
0001
,
1000
0001
1000
0000
,
1002
0000
0103
0001
0020
0000
0130
0000
,
1000
0000
0010
1000
0100
1000
0001
0000
,
0201
0000
0310
1000
0200
0000
1300
0000
,
0010
0000
0100
0001
0100
0010
1000
0000
,
0200
0000
0310
0001
2000
0000
3001
0000
,
0020
0000
0031
1000
0002
0000
0103
0000
,
0010
0000
0000
0010
0000
0000
0010
0000
0000
0000
1000
0000
0000
0000
0001
0000
,
0000
0000
0010
0000
0010
0010
0010
0000
,
2001
0000
3010
1000
0200
0000
0310
0000
,
0001
0000
1000
0001
0010
0001
1000
0000
,
0120
0000
1030
0001
0020
0000
0031
0000
,
1000
0000
0010
1000
0001
0010
0001
0000
,
0200
0000
0310
1000
0002
0000
0103
0000
,
0020
0000
0130
0001
2000
0000
3001
0000
,
0100
0000
0000
0100
0000
0000
0100
0000
0000
0000
0001
0000
0000
0000
0002
0000
,
0000
0003
0000
0000
0000
0000
0000
0000
;

//---------------dance-single - ----------------
#NOTES:
     dance-single:
     :
     Easy:
     4:
     0.289559,0.277218,0.100627,0.258755,0.000000,232.000000,14.000000,36.000000,0.000000,0.000000,0.000000,0.289559,0.277218,0.100627,0.258755,0.000000,232.000000,14.000000,36.000000,0.000000,0.000000,0.000000:
0000
0000
0000
0000
,
0000
0000
0000
0000
,
0000
0000
0000
0000
,
0000
0000
0000
0000
,
0010
0010
0010
0010
,
1000
1000
1000
1000
,
0001
0001
0001
0001
,
0100
0100
0100
0100
,
1000
1000
1000
1000
,
0010
0010
0010
0010
,
0001
0001
0001
0001
,
0100
0100
0100
0000
,
0010
1000
0001
0100
,
0001
1000
0100
0010
,
0001
0100
0001
1000
,
0100
0010
0100
1000
,
0010
0100
0001
1000
,
0100
0010
0001
0100
,
0010
0010
0010
0010
,
0010
0010
0010
0010
,
1001
1000
0200
0000
,
0310
0001
1000
0001
,
0100
0010
2000
0000
,
3100
1000
0100
1000
,
0002
0000
0013
0001
,
0200
0000
0310
1000
,
0001
0011
1000
1100
,
0010
0100
0001
1000
,
1001
0010
0002
0000
,
0103
0001
1000
0010
,
1000
0100
0020
0000
,
0130
1000
0001
1000
,
0200
0000
1300
0001
,
0020
0000
0130
1000
,
0100
0011
0100
1010
,
0001
0000
1000
1000
,
0100
2000
0000
3020
,
0000
0130
0001
0001
,
0010
0002
0000
0203
,
0000
0310
1000
0001
,
1000
0200
0000
0320
,
0000
0031
0100
0010
,
1000
2002
0000
0000
,
3003
0010
0100
0010
,
1000
0001
0010
0002
,
0203
0310
1000
0001
,
1000
0100
0010
0001
,
1001
1020
1000
1000
,
2030
3200
0010
0310
,
0001
0020
0001
0001
,
0032
2003
0100
0100
,
3200
0320
0030
0001
,
0000
0100
0000
0010
,
0000
1000
0000
0001
,
1000
0100
0010
0000
,
1001
0100
0002
0000
,
1003
0010
0100
0001
,
1000
0100
2000
0000
,
3001
0010
0100
1000
,
0020
0000
0130
0001
,
2000
0000
3100
1000
,
0010
0101
0010
1100
,
0001
0001
1000
0001
,
0110
1000
0200
0000
,
0310
0001
1000
0001
,
0010
0100
2000
0000
,
3010
0100
0001
1000
,
0020
0000
0130
0001
,
0200
0000
0310
1000
,
0001
0010
1000
0010
,
2002
3003
0000
0000
0000
0000
0000
0000
;

//---------------dance-single - ----------------
#NOTES:
     dance-single:
     :
     Beginner:
     1:
     0.131431,0.151210,0.057501,0.194066,0.000000,93.000000,8.000000,27.000000,0.000000,0.000000,0.000000,0.131431,0.151210,0.057501,0.194066,0.000000,93.000000,8.000000,27.000000,0.000000,0.000000,0.000000:
0000
0000
0000
0000
,
0000
0000
0000
0000
,
0000
0000
0000
0000
,
0000
0000
0000
0000
,
0002
0000
0003
0000
,
0200
0000
0300
0000
,
0020
0000
0030
0000
,
2000
0000
3000
0000
,
0200
0000
0300
0000
,
0020
0000
0030
0000
,
0002
0000
0003
0000
,
2000
0000
3000
0000
,
0010
0000
0010
0000
,
0010
0000
0000
0000
,
1000
0000
1000
0000
,
1000
0000
0000
0000
,
0001
0000
0001
0000
,
0001
0000
0000
0000
,
0100
0000
0100
0000
,
0200
0000
0300
0000
,
1001
0000
0010
0000
,
0000
0000
0001
0000
,
1001
0000
0010
0000
,
0000
0000
0001
0000
,
2000
0000
3000
0000
,
0002
0000
0003
0000
,
0100
0000
0100
0000
,
0200
0000
0300
0000
,
1001
0000
0100
0000
,
0000
0000
0010
0000
,
1001
0000
0100
0000
,
0000
0000
0010
0000
,
2000
0000
3000
0000
,
0002
0000
0003
0000
,
0010
0000
0001
0000
,
2000
3000
0000
0000
,
0000
0010
0000
0000
,
0000
0100
0000
0000
,
0000
0001
0000
0000
,
0000
0010
0000
0000
,
0000
1000
0000
0000
,
0000
0010
0000
0000
,
0000
0002
0000
0003
,
0000
0100
0000
0100
,
0100
0100
0000
0010
,
0010
0010
0000
1000
,
1000
1000
0000
0001
,
0001
0002
0000
0003
,
0001
0001
0000
1000
,
1000
2000
0000
3000
,
1000
1000
0000
0200
,
0000
0300
0000
0020
,
0000
0030
0000
0002
,
0000
0003
0000
2000
,
0000
3000
0000
0000
,
0110
0000
0001
0000
,
0000
0000
0001
0000
,
0110
0000
1000
0000
,
0000
0000
0001
0000
,
0020
0000
0030
0000
,
0200
0000
0300
0000
,
1000
0000
0001
0000
,
1000
0000
0000
0000
,
0110
0000
1000
0000
,
0000
0000
1000
0000
,
0110
0000
0001
0000
,
0000
0000
0001
0000
,
0200
0000
0300
0000
,
0020
0000
0030
0000
,
2000
0000
0000
0000
,
0000
3000
0000
0000
0000
0000
0000
0000
;

//---------------dance-double - ----------------
#NOTES:
     dance-double:
     :
     Hard:
     8:
     0.481571,0.403226,0.115002,0.143753,0.122190,433.000000,16.000000,20.000000,0.000000,0.000000,0.000000,0.481571,0.403226,0.115002,0.143753,0.122190,433.000000,16.000000,20.000000,0.000000,0.000000,0.000000:
00000000
00000000
00000000
00000000
,
00000000
00000000
00000000
00000000
,
00000000
00000000
00000000
00000000
,
00000000
00000000
00000000
00000000
,
00001000
00100000
00000000
00010000
10000000
00010000
00000000
01000000
,
00100000
01000000
00000000
00010000
00100000
00010000
00000000
10000000
,
01000000
10000000
00000000
01000000
00100000
01000000
00000000
00100000
,
00010000
00100000
00000000
00001000
00010000
00001000
00000000
00010000
,
00000100
00010000
00000000
00000100
00001000
00000100
00000000
00001000
,
00000001
00001000
00000000
00000010
00000100
00000010
00000000
00000100
,
00000001
00000100
00000000
00000001
00000010
00000001
00000000
00001000
,
00000100
00001000
00000000
00000001
00000100
00000001
00000100
00000000
,
00000010
00001000
00000000
00000100
00010000
00001000
00000000
00010000
,
00001000
00100000
00000000
00001000
00100000
00010000
00000000
00100000
,
00010000
01000000
00000000
00010000
01000000
00100000
00000000
01000000
,
00100000
10000000
00000000
00100000
10000000
01000000
00000000
10000000
,
01000000
00100000
00000000
01000000
00100000
00001000
00000000
00010000
,
00000100
00001000
00000000
00000010
00000100
00000001
00000000
00001000
,
00000010
00000100
00000010
00000100
00000010
00000100
00000010
00000100
,
00000001
00000010
00000100
00001000
00000100
00010000
00001000
00000000
,
00100000
00010000
00100000
00010000
10000000
01000000
10000000
01000000
,
00100000
00010000
01000000
00100000
10000000
01000000
00100000
00001000
,
00010000
00000100
00010000
00000100
00001000
00000010
00001000
00000010
,
00000100
00000001
00000010
00000100
00001000
00000001
00000100
00000000
,
00000020
00000000
00001030
00000100
00000010
00000000
00001001
00000001
,
00000200
00000000
00000310
00010000
00001000
00000000
00011000
00001000
,
00100000
00000000
00000000
00010000
00000000
00000000
01000000
00000000
00000000
00000000
10000000
00000000
01000000
00000000
00010000
00000000
,
01000000
00000000
00010000
10000000
00010000
10000000
01000000
00000000
,
01000000
10000000
01000000
10000000
00010000
00100000
00010000
00100000
,
00001000
00010000
00000100
00000010
00000100
00001000
00000001
00000001
,
00000100
00000010
00000100
00000010
00001000
00000001
00001000
00000001
,
00000100
00000010
00001000
00000100
00010000
00001000
00100000
00000000
,
02000000
00000000
13000000
00100000
01000000
00000000
10010000
00010000
,
02000000
00000000
03010000
00100000
01000000
00000000
10000000
01000000
,
00100000
00000000
00000000
00001000
00000000
00000000
00010000
00000000
00000000
00000000
00000100
00000000
00000010
00000000
00000100
00000000
,
00001000
00000101
00001200
00000310
,
00000100
00001000
00000001
00000000
00000201
00000000
00001300
00000100
,
00000001
00001000
00000100
00000000
00020100
00000000
00032000
00000000
,
00103000
01000000
10000000
00000000
10020000
00000000
00130000
00001000
,
01000000
00100000
00010000
00000000
00021000
00000000
00030200
00000000
,
00000310
00000100
00001000
00000000
00000021
00000000
00000130
00000010
,
00000001
00000000
00000100
00000000
00001000
00000000
00000000
00010000
00000000
00000000
00100000
00000000
00000000
00000000
02000000
00000000
,
00000000
20000000
00000000
00000000
00000000
00000000
00000000
00000000
,
33000000
00000000
00000000
00000000
01010000
00000000
00000000
00000000
00100000
00000000
00000000
00000000
00010000
00000000
00000000
10000000
,
01000000
00100000
00000000
00001000
00010000
00000000
00000000
00000000
00000100
00000000
00000000
00001000
00000010
00000000
00000100
00000001
,
00000000
00000010
00000000
00000100
00001000
00000000
00000000
00000000
00001001
00000000
00000000
00000100
00010000
00000000
00000000
00000000
,
00001000
00000000
00000000
00100000
00010000
00000000
00000000
00000000
01000000
00000000
00100000
01000000
00100000
00000000
10000000
00010000
,
00000000
01000000
00000000
00010000
10000000
00000000
00000000
00000000
11000000
00000000
00000000
00000000
00100000
00000000
00000000
00001000
,
00010000
00001000
00000000
00010000
00000100
00000000
00000000
00000000
00000010
00000000
00000100
00000010
00000001
00000000
00000100
00001000
,
00000000
00000100
00000000
00000001
00001000
00000000
00000000
00000000
00000001
00000000
00000000
00000000
00000010
00000000
00000000
00000100
,
00001000
00000100
00000000
00010000
00001000
00000000
00000000
00000000
00100000
00000000
00010000
10000000
01000000
00000000
00100000
01000000
,
00000000
10000000
00000000
00010000
02000000
00000000
00000000
00000000
03000000
00000000
00000000
00000000
00010000
00000000
00100000
00000000
,
00000000
10000000
00100000
00010000
00000000
00001000
00000100
00000001
,
00000000
00000100
00001000
00000001
00000000
00000010
00000100
00001000
,
00000000
00010000
00100000
01000000
00000000
10000000
00020000
00000000
,
00130000
00001000
00100000
00001000
00010000
00000100
00010000
00000100
,
00001000
00000010
00000001
00000010
00001000
00000010
00010000
00000000
,
00000100
00010000
00000100
00010000
00001000
00100000
00001000
00100000
,
00010000
00100000
10000000
00100000
00010000
10000000
01000000
00000000
,
00210000
00000000
10300000
00100000
00010000
00000000
10000000
01000000
,
00010000
00000000
00001000
00000010
00000001
00000000
00001000
00000001
,
00000100
00000000
00000100
00000001
00000000
00000001
00001000
00000000
00000100
00000000
00000010
00000000
00000100
00000000
00001000
00000000
,
00000100
00000000
00010000
00001000
00010000
00001000
00010000
00000000
,
00001000
00100000
00001000
00100000
00010000
01000000
00010000
01000000
,
00100000
10000000
01000000
00100000
00010000
00100000
00001000
00000000
,
00010000
00000100
00010000
00000100
00001000
00000010
00001000
00000010
,
00000100
00000001
00000010
00000100
00001000
00000001
00000100
00000000
,
00000120
00000000
00001030
00000010
00000001
00000000
00000001
00000010
,
00001000
00000000
00010000
01000000
10000000
00000000
10000000
01000000
,
00010000
00000000
00010000
00100000
00000000
00100000
00001000
00000000
00010000
00000000
00000100
00000000
00010000
00000000
00001000
00000000
,
00022000
00033000
00000000
00000000
00000000
00000000
00000000
00000000
;

//---------------dance-double - ----------------
#NOTES:
     dance-double:
     :
     Medium:
     6:
     0.347060,0.302419,0.050313,0.194066,0.075470,304.000000,7.000000,27.000000,0.000000,0.000000,0.000000,0.347060,0.302419,0.050313,0.194066,0.075470,304.000000,7.000000,27.000000,0.000000,0.000000,0.000000:
00000000
00000000
00000000
00000000
,
00000000
00000000
00000000
00000000
,
00000000
00000000
00000000
00000000
,
00000000
00000000
00000000
00000000
,
00000002
00001000
00001000
00001000
,
00001000
00000000
00001003
00000001
00000010
00000100
00010000
00000000
,
00021000
00001000
00001000
00001000
,
00031000
00000000
00010000
00001000
00100000
01000000
10000000
00000000
,
20010000
00010000
00010000
00010000
,
30010000
01000000
00010000
00000000
10000000
00000000
01000000
00100000
,
00001000
00001000
00001000
00001000
,
00010000
00010000
00010000
00000000
,
00001000
00010000
00000000
00000100
00000000
00000010
00000000
00000001
,
00000000
00000100
00000000
00000010
00000000
00001000
00000000
00000001
,
00000010
00000100
00000000
00000010
00000000
00000100
00000000
00010000
,
00000000
00001000
00000000
00100000
00000000
00010000
00000000
01000000
,
00100000
01000000
00000000
00010000
00000000
10000000
00000000
01000000
,
00000000
00100000
00000000
00010000
00000000
10000000
00000000
00010000
,
01000000
01000000
01000000
01000000
,
00100000
10000000
00100000
10000000
00100000
10000000
00100000
00000000
,
01000000
00000000
00010000
00200000
00001000
00000000
00301000
00000000
,
00010000
00000000
00000100
00000000
00000010
00000100
00001000
00000000
,
00000001
00000000
00000100
00000020
00001000
00000000
00001030
00000000
,
00000001
00000000
00000100
00000000
00000001
00001000
00000100
00000000
,
00020000
00000000
00000000
00031000
00100000
00000000
00010000
10000000
,
00020000
00000000
00000000
00130000
01000000
00000000
10000000
00000000
,
00010000
00000000
00000000
00010000
00000000
00000000
00010000
00000000
00000000
00000000
10000000
00000000
00000000
00000000
00100000
00000000
,
01000000
00010000
10010000
01000000
,
10010000
00000000
10000000
00020000
00100000
00000000
00130000
00000000
,
00001000
00000000
00010000
00000000
00000100
00000010
00000100
00000000
,
00001000
00000000
00000001
00000200
00000010
00000000
00000310
00000000
,
00001000
00000000
00000100
00000000
00000010
00000100
00001000
00000000
,
00000200
00000000
00000000
00010300
00001000
00000000
00100000
00001000
,
00200000
00000000
00000000
00310000
10000000
00000000
01000000
00000000
,
00100000
00000000
00000000
00100000
00000000
00000000
00100000
00000000
00000000
00000000
01000000
00000000
00000000
00000000
01000000
00000000
,
10000000
10010000
00100000
00010000
,
01000000
00010000
00000000
00000000
00100000
00000000
00001000
00000000
,
00001000
00010000
00000000
00000000
00000100
00000000
00000010
00000000
,
00000100
00001000
00000000
00000000
00000001
00000000
00001000
00000000
,
00001000
00000100
00000000
00000000
00000010
00000000
00000100
00000000
,
00001000
00000001
00000000
00000000
00000100
00000000
00000010
00000000
,
00000010
00000000
00000000
00000000
00001000
00000000
00000000
00000001
00000000
00000000
00001000
00000000
00000000
00000000
00000002
00000000
,
00000000
00002000
00000000
00000000
00000000
00000000
00000000
00000000
,
00003003
00000010
00001000
00000100
,
00010000
00000000
00000000
00001000
00010000
00000000
00000000
00000000
00001000
00000000
00000000
00000000
00100000
00000000
00000000
00010000
,
00000000
10000000
00000000
02000000
00000000
00000000
03000000
00000000
00100000
00000000
00000000
00000000
01000000
00000000
00000000
00000000
,
10000000
00000000
00000000
00010000
10000000
00000000
00000000
00000000
00100000
00000000
00000000
00000000
01000000
00000000
00000000
00001000
,
00000000
00010000
00000000
00001000
00010000
00000000
00000000
00000000
00000100
00000000
00000000
00000000
00000010
00000000
00000000
00000000
,
00000001
00000000
00000000
00001000
00000001
00000000
00000000
00000000
00000100
00000000
00000000
00000000
00000010
00000000
00000000
00001000
,
00000000
00000010
00000000
00020000
00000000
00000000
00030000
00000000
00001000
00000000
00000000
00000000
00100000
00000000
00000000
00000000
,
00010000
00000000
00000000
00100000
00000000
00000000
00000000
00000000
01000000
00000000
00000000
00000000
10000000
00000000
00000000
00100000
,
00000000
02000000
00000000
00200000
00000000
00000000
00000000
00000000
03300000
00000000
00000000
00000000
00100000
00000000
00000000
00000000
,
00000000
10000000
01000000
00000000
00000000
00100000
00010000
00000000
,
00000000
00001000
00000100
00000000
00000000
00000010
00000001
00000000
,
00000000
00000001
00000100
00000000
00000000
00000010
00020000
00000000
,
00031000
00000000
00100000
00020000
10000000
00000000
10030000
00000000
,
01000000
00000000
10000000
00000000
00010000
00100000
00010000
00000000
,
01000000
00000000
00001000
00020000
00000100
00000000
00030100
00000000
,
00000010
00000000
00000100
00000000
00001000
00000001
00001000
00000000
,
00000020
00000000
00000000
00000130
00000001
00000000
00001000
00000001
,
00002000
00000000
00000000
00003100
00010000
00000000
00001000
00000000
,
00010000
00000000
00000000
00010000
00000000
00000000
00010000
00000000
00000000
00000000
00001000
00000000
00000000
00000000
00100000
00000000
,
00010000
10000000
10010000
00100000
,
10010000
00000000
00100000
02000000
10000000
00000000
13000000
00000000
,
01000000
00000000
00100000
00000000
00001000
00010000
00000100
00000000
,
00000010
00000000
00000100
00000020
00000001
00000000
00000031
00000000
,
00000100
00000000
00000010
00000000
00001000
00000001
00001000
00000000
,
00000200
00000000
00000000
00010300
00001000
00000000
00010000
00000100
,
00002000
00000000
00000000
00003010
00000100
00000000
00000001
00000000
,
00001000
00000000
00000000
00000100
00000000
00000000
00010000
00000000
00000000
00000000
00001000
00000000
00000000
00000000
00100000
00000000
,
00020000
00030000
00000000
00000000
00000000
00000000
00000000
00000000
;

//---------------dance-double - ----------------
#NOTES:
     dance-double:
     :
     Easy:
     4:
     0.269023,0.252016,0.086252,0.330631,0.000000,204.000000,12.000000,46.000000,0.000000,0.000000,0.000000,0.269023,0.252016,0.086252,0.330631,0.000000,204.000000,12.000000,46.000000,0.000000,0.000000,0.000000:
// measure 0
00000000
00000000
00000000
00000000
,  // measure 1
00000000
00000000
00000000
00000000
,  // measure 2
00000000
00000000
00000000
00000000
,  // measure 3
00000000
00000000
00000000
00000000
,  // measure 4
00010000
00010000
00010000
00010000
,  // measure 5
00010000
00010000
00010000
00010000
,  // measure 6
00000100
00000100
00000100
00000100
,  // measure 7
00000100
00000100
00000100
00000100
,  // measure 8
00000010
00000010
00000010
00000010
,  // measure 9
00000010
00000010
00000010
00000010
,  // measure 10
00000001
00000001
00000001
00000001
,  // measure 11
00000001
00000001
00000001
00000000
,  // measure 12
00001000
00000000
00000100
00000000
,  // measure 13
00010000
00000000
00001000
00100000
,  // measure 14
00010000
00000000
10000000
00000000
,  // measure 15
00100000
00000000
01000000
00010000
,  // measure 16
10000000
00000000
01000000
00000000
,  // measure 17
00100000
00000000
00001000
00010000
,  // measure 18
00000100
00001000
00000100
00001000
,  // measure 19
00000001
00000010
00000100
00001000
,  // measure 20
00002002
00000003
00000200
00003300
,  // measure 21
00000001
00000010
00001000
00010000
,  // measure 22
00022000
00030000
00200000
00303000
,  // measure 23
00100000
00010000
01000000
00100000
,  // measure 24
20000000
00000000
02000000
33000000
,  // measure 25
00020000
00000000
02000000
03030000
,  // measure 26
10000000
01000000
00100000
00001000
,  // measure 27
00010000
00000000
00001000
00000000
,  // measure 28
00022000
00030000
00000200
00003300
,  // measure 29
00000001
00001000
00000001
00000010
,  // measure 30
00002200
00003000
00020000
00030300
,  // measure 31
00001000
00010000
00001000
00100000
,  // measure 32
00020000
00000000
02000000
03030000
,  // measure 33
20000000
00000000
02000000
33000000
,  // measure 34
00010000
10000000
01000000
00100000
,  // measure 35
00011000
00011000
00000100
00000010
,  // measure 36
00000001
00001000
00000000
00000001
,  // measure 37
00000000
00000100
00000010
00001000
,  // measure 38
00000100
00010000
00000000
00001000
,  // measure 39
00000000
00100000
00010000
01000000
,  // measure 40
10000000
01000000
00000000
00010000
,  // measure 41
00000000
10000000
01000000
00100000
,  // measure 42
00001000
00020000
00000000
00030000
,  // measure 43
00000000
00001000
00010000
00001000
,  // measure 44
00000100
00000001
00000010
00000100
,  // measure 45
00010000
00001000
00100000
00010000
,  // measure 46
10000000
01000000
00010000
01000000
,  // measure 47
10000000
10020000
00100000
00130000
,  // measure 48
00001000
00020000
00000100
00030100
,  // measure 49
00001000
00000001
00000100
00000010
,  // measure 50
00001000
00000100
00010000
00001000
,  // measure 51
00100000
00002000
00003000
00010000
,  // measure 52
00000000
00001000
00000000
00100000
,  // measure 53
00000000
00010000
00000000
10000000
,  // measure 54
00000000
01000000
00000000
00100000
,  // measure 55
00220000
00030000
00002000
00303000
,  // measure 56
00010000
00000100
00001000
00000100
,  // measure 57
00002200
00003000
00020000
00030300
,  // measure 58
00001000
00010000
00000100
00000010
,  // measure 59
00000002
00000000
00000200
00000303
,  // measure 60
00002000
00000000
00000200
00003300
,  // measure 61
00000001
00000010
00000100
00010000
,  // measure 62
00001000
00000000
00100000
00010000
,  // measure 63
02020000
00030000
00200000
03300000
,  // measure 64
10000000
00010000
01000000
00100000
,  // measure 65
20200000
30000000
02000000
03300000
,  // measure 66
00001000
00010000
00000100
00001000
,  // measure 67
00000002
00000000
00000020
00000033
,  // measure 68
00002000
00000000
00000020
00003030
,  // measure 69
00000001
00001000
00000100
00000010
,  // measure 70
00002002
00003003
00000000
00000000
00000000
00000000
00000000
00000000
;
