#TITLE:소원을 말해봐;
#SUBTITLE:(ROBOTAKI Remix);
#ARTIST:GIRLS' GENERATION;
#TITLETRANSLIT:Genie;
#SUBTITLETRANSLIT:;
#ARTISTTRANSLIT:;
#GENRE:K-Pop;
#CREDIT:;
#BANNER:Genie (ROBOTAKI Remix)-bn.png;
#BACKGROUND:Genie (ROBOTAKI Remix)-bg.png;
#LYRICSPATH:;
#CDTITLE:PROJECT GOLDENROD-cdtitle.png;
#MUSIC:Genie (ROBOTAKI Remix).mp3;
#OFFSET:-1.960000;
#SAMPLESTART:46.248001;
#SAMPLELENGTH:14.789000;
#SELECTABLE:YES;
#DISPLAYBPM:130.000000;
#BPMS:0.000000=130.000000
,79.000000=65.000000
,79.250000=195.000000
,80.000000=130.000000
,94.000000=260.000000
,96.000000=130.000000
,158.000000=260.000000
,160.000000=130.000000
;
#STOPS:94.000000=0.038000,
94.166664=0.038000,
94.333336=0.038000,
94.500000=0.038000,
94.666664=0.038000,
94.833336=0.038000,
95.000000=0.038000,
95.166664=0.038000,
95.333336=0.038000,
95.500000=0.038000,
95.666664=0.038000,
95.833336=0.038000,
158.000000=0.058000,
158.250000=0.058000,
158.500000=0.058000,
158.750000=0.058000,
159.000000=0.038000,
159.166672=0.038000,
159.333328=0.038000,
159.500000=0.038000,
159.666672=0.038000,
159.833328=0.038000
;
#BGCHANGES:;
#KEYSOUNDS:;
#ATTACKS:;

//---------------dance-single - ----------------
#NOTES:
     dance-single:
     :
     Hard:
     8:
     0.543584,0.520320,0.158876,0.325697,0.226399,418.000000,20.000000,41.000000,0.000000,0.000000,0.000000,0.543584,0.520320,0.158876,0.325697,0.226399,418.000000,20.000000,41.000000,0.000000,0.000000,0.000000:
// measure 0
0000
0000
0000
0000
,  // measure 1
0000
0000
0000
0000
,  // measure 2
0000
0000
0000
0000
,  // measure 3
0000
0000
0000
0000
,  // measure 4
1000
0000
0101
0000
0001
1000
0000
1000
,  // measure 5
0010
0000
0000
0000
0101
0000
0000
0000
1000
0000
0001
0100
0000
0000
0100
1000
,  // measure 6
0001
0000
0110
0000
1000
0001
0100
0001
,  // measure 7
2000
0000
0000
0000
0000
0000
0000
0000
3001
0000
0000
0101
0000
0000
1000
0000
,  // measure 8
1010
0100
0002
0000
0103
0010
0100
0001
,  // measure 9
1000
0000
0100
0010
0100
0000
0010
0000
0001
0000
0010
0000
0100
0000
1000
0000
,  // measure 10
0001
1000
0200
0000
0310
0100
1000
0010
,  // measure 11
0100
0001
0010
0100
0010
0001
1000
0001
,  // measure 12
0100
0010
2000
0000
3010
0100
0001
1000
,  // measure 13
0100
0010
0001
1000
0100
1000
0001
0100
,  // measure 14
0010
0100
0002
0000
0013
0100
2000
0000
,  // measure 15
3010
0000
0100
0000
0002
0000
0000
0000
1003
0000
0000
0101
0000
0000
0010
0000
,  // measure 16
1001
0000
1000
0100
1000
0000
0001
0000
0100
0000
0010
0000
0100
0000
0001
1000
,  // measure 17
0000
0000
0001
0000
0001
0000
1000
0000
0010
0000
0100
0000
0010
0000
1000
0100
,  // measure 18
0000
0000
1000
0001
1000
0000
0001
0000
0010
0000
0100
0000
1000
0000
0001
0000
,  // measure 19
0200
0000
0320
0000
2030
0001
0002
3003
,  // measure 20
0101
0000
0001
1000
0001
0000
0010
0000
0100
0000
1000
0000
0001
0000
0100
0001
,  // measure 21
0000
0000
1000
0010
1000
0000
0001
0000
1000
0000
0100
0000
1000
0000
0010
0100
,  // measure 22
0000
0000
0001
1000
0001
0000
0010
0000
0100
0000
1000
0000
0100
0000
0010
0000
,  // measure 23
0001
0200
0020
0000
0000
0000
0330
0000
,  // measure 24
1001
0000
0101
0000
1100
0000
0010
0100
,  // measure 25
0001
1000
0100
0010
0002
0000
1003
0000
,  // measure 26
0110
0000
1010
0000
0101
0000
1000
0100
,  // measure 27
0010
0100
1000
0001
0200
0010
0310
0000
,  // measure 28
0101
0000
1100
0000
1001
0000
1000
0001
,  // measure 29
0010
0000
0001
1000
0001
0000
0100
0000
0002
0000
0000
0000
0013
0000
0000
0000
,  // measure 30
0200
0000
1300
0001
1000
0100
0010
0001
,  // measure 31
0100
0010
0100
0000
0100
0000
0010
0000
1000
0000
0001
0000
0001
0000
0100
0000
,  // measure 32
0110
0000
0000
0000
1000
0000
0001
0000
0100
0000
0001
1000
0000
0001
1000
0000
,  // measure 33
0010
0100
0001
2000
0000
3100
0010
0002
,  // measure 34
1000
0000
0000
0000
0103
0000
0001
0000
0010
0000
0100
0010
0000
0100
0010
0000
,  // measure 35
0001
1000
0001
0200
0000
0310
1000
0020
,  // measure 36
0100
0000
0000
0000
1030
0000
0001
0000
0010
0000
0100
1000
0000
0100
1000
0000
,  // measure 37
0001
1000
0010
0200
0000
0301
1000
0002
,  // measure 38
0100
0000
0000
0000
0013
0000
0001
0000
1000
0000
0001
0010
0000
0001
0010
0000
,  // measure 39
0100
0000
0000
0000
1000
0001
1000
0001
2000
0000
0000
0000
3002
0000
0000
0000
,  // measure 40
0203
0010
0010
0010
,  // measure 41
0320
1000
1000
1000
,  // measure 42
2030
0001
0001
0001
,  // measure 43
3002
0010
0010
0010
,  // measure 44
0013
0100
0010
0100
0020
0000
0000
0000
0030
0000
0000
0000
0000
0000
0000
0000
,  // measure 45
0001
1000
0001
1000
0002
0000
0000
0000
0003
0000
0000
0000
0000
0000
0000
0000
,  // measure 46
1000
0010
1000
0010
2000
0000
0000
0000
3000
0000
0000
0000
0000
0000
0000
0000
,  // measure 47
0100
0010
0100
0010
0200
0000
0000
0000
0300
0000
0000
0000
0000
0000
0000
0000
,  // measure 48
0010
0001
0010
0001
0010
0000
0000
0000
0100
0000
0000
0000
1000
0000
0000
0000
,  // measure 49
0100
0010
0100
0010
0100
0000
0000
0000
1000
0000
0000
0000
0010
0000
0000
0000
,  // measure 50
1000
0100
1000
0100
1000
0000
0000
0000
0001
0000
0000
0000
0010
0000
0000
0000
,  // measure 51
0001
0100
0001
0100
0001
0000
0000
0000
1000
0000
0000
0000
0100
0000
0000
0000
,  // measure 52
1000
0001
1000
0001
1000
0000
0001
0000
0010
0000
0100
0000
1000
0000
0001
0000
,  // measure 53
0100
0010
0100
0010
0100
0000
0001
0000
1000
0000
0100
0000
0010
0000
0001
0000
,  // measure 54
1000
0100
1000
0100
1000
0000
0001
0000
0100
0000
0010
0000
1000
0000
0100
0000
,  // measure 55
0010
0000
0001
0000
1000
0000
0001
0000
0100
0000
0010
0000
0110
0000
0100
0001
,  // measure 56
1000
0000
0100
0000
1000
0000
0001
0000
0100
0000
0001
1000
0000
0001
1000
0000
,  // measure 57
0010
0100
0001
0020
0000
0031
1000
0200
,  // measure 58
0010
0000
0000
0000
1300
0000
0001
0000
0100
0000
0010
1000
0000
0010
1000
0000
,  // measure 59
0001
0010
0100
2000
0000
3010
0100
0002
,  // measure 60
0010
0000
0000
0000
1003
0000
0001
0000
1000
0000
0100
0010
0000
0100
0010
0000
,  // measure 61
0001
1000
0001
0020
0000
0031
1000
0002
,  // measure 62
0100
0000
0000
0000
0013
0000
0001
0000
0100
0000
0010
1000
0000
0010
1000
0000
,  // measure 63
0001
1000
0100
0010
0001
0100
0010
1000
,  // measure 64
2002
0000
0000
0000
,  // measure 65
0000
0000
3003
0000
;

//---------------dance-double - ----------------
#NOTES:
     dance-double:
     :
     Hard:
     8:
     0.551528,0.520320,0.182708,0.317753,0.218455,423.000000,23.000000,40.000000,0.000000,0.000000,0.000000,0.551528,0.520320,0.182708,0.317753,0.218455,423.000000,23.000000,40.000000,0.000000,0.000000,0.000000:
00000000
00000000
00000000
00000000
,
00000000
00000000
00000000
00000000
,
00000000
00000000
00000000
00000000
,
00000000
00000000
00000000
00000000
,
00100000
00000000
10010000
00000000
10000000
00010000
00000000
00010000
,
00100000
00000000
00000000
00000000
00011000
00000000
00000000
00000000
00000100
00000000
00001000
00000100
00000000
00000000
00000100
00000001
,
00001000
00000000
00000110
00000000
00000001
00001000
00000100
00010000
,
00002000
00000000
00000000
00000000
00000000
00000000
00000000
00000000
00103000
00000000
00000000
00110000
00000000
00000000
00010000
00000000
,
10010000
10000000
02000000
00000000
03100000
00010000
00100000
00001000
,
00010000
00000100
00000010
00000001
00000010
00000100
00001000
00000001
,
00000100
00000010
00020000
00000000
00031000
00100000
00010000
10000000
,
01000000
10000000
00010000
00100000
00001000
00010000
00000100
00000010
,
00000100
00001000
00000002
00000000
00000103
00000010
00001000
00000001
,
00000100
00001000
00000100
00000010
00001000
00000100
00001000
00010000
,
00100000
00010000
20000000
00000000
30100000
10000000
00020000
00000000
,
00130000
00000000
00010000
00000000
20000000
00000000
00000000
00000000
30010000
00000000
00000000
01010000
00000000
00000000
00100000
00000000
,
10010000
00000000
00010000
01000000
00010000
00000000
00100000
00000000
00001000
00000000
00010000
00000000
00000010
00000000
00000100
00000010
,
00000000
00000000
00001000
00000000
00001000
00000000
00000100
00000000
00000010
00000000
00000100
00000000
00001000
00000000
00000001
00001000
,
00000000
00000000
00000100
00010000
00000100
00000000
00001000
00000000
00010000
00000000
00001000
00000000
00000100
00000000
00010000
00000000
,
00002000
00000000
00203000
00000000
02300000
10000000
20000000
33000000
,
10010000
00000000
00100000
10000000
00100000
00000000
01000000
00000000
00010000
00000000
00100000
00000000
00010000
00000000
10000000
01000000
,
00000000
00000000
00100000
00010000
00100000
00000000
00001000
00000000
00010000
00000000
00000100
00000000
00000010
00000000
00000100
00001000
,
00000000
00000000
00000001
00000010
00000001
00000000
00001000
00000000
00000100
00000000
00000010
00000000
00000100
00000000
00001000
00000000
,
00000100
00020000
00002000
00000000
00000000
00000000
00033000
00000000
,
00011000
00000000
00101000
00000000
00011000
00000000
00001100
00000100
,
00000010
00000001
00001000
00000100
00020000
00000000
00031000
00000000
,
00101000
00000000
00110000
00000000
01100000
00000000
00110000
00010000
,
10000000
01000000
10000000
00100000
02000000
00010000
03010000
00000000
,
10100000
00000000
11000000
00000000
10100000
00000000
10010000
00010000
,
00100000
00010000
00001000
00000100
00002000
00000000
00003010
00000000
,
00000200
00000000
00000301
00000010
00000100
00001000
00000010
00010000
,
00000100
00001000
00000100
00000000
00000100
00000000
00010000
00000000
00001000
00000000
00100000
00000000
00100000
00000000
00010000
00000000
,
01010000
00000000
00000000
00000000
00100000
00000000
10000000
00000000
00010000
00000000
00100000
00001000
00000000
00100000
00001000
00000000
,
00010000
00000100
00000010
00000200
00000000
00001300
00000001
00000020
,
00000100
00000000
00000000
00000000
00000031
00000000
00001000
00000000
00000010
00000000
00001000
00000100
00000000
00001000
00000100
00000000
,
00010000
00001000
00100000
02000000
00000000
13000000
00010000
00200000
,
00010000
00000000
00000000
00000000
01300000
00000000
00100000
00000000
00001000
00000000
00010000
00000100
00000000
00010000
00000100
00000000
,
00001000
00000001
00000100
00000020
00000000
00001030
00000001
00000200
,
00000001
00000000
00000000
00000000
00000310
00000000
00010000
00000000
00001000
00000000
00100000
00010000
00000000
00100000
00010000
00000000
,
10000000
00000000
00010000
00000000
01000000
00010000
01000000
00010000
00200000
00000000
00000000
00000000
02300000
00000000
00000000
00000000
,
23000000
01000000
01000000
32000000
,
00100000
00100000
00100000
03200000
,
00010000
00010000
00010000
00320000
,
00001000
00001000
00001000
00032000
,
00003100
00001000
00000100
00001000
00000200
00000000
00000000
00000000
00000300
00000000
00000000
00000000
00000000
00000000
00000000
00000000
,
00000010
00000001
00000010
00000001
00000020
00000000
00000000
00000000
00000030
00000000
00000000
00000000
00000000
00000000
00000000
00000000
,
00000001
00001000
00000001
00001000
00000002
00000000
00000000
00000000
00000003
00000000
00000000
00000000
00000000
00000000
00000000
00000000
,
00000100
00000010
00000100
00000010
00000200
00000000
00000000
00000000
00000300
00000000
00000000
00000000
00000000
00000000
00000000
00000000
,
00000010
00010000
00000010
00010000
00000020
00000000
00000000
00000000
00001030
00000000
00000000
00000000
00000100
00000000
00000000
00000000
,
00010000
00001000
00010000
00001000
00020000
00000000
00000000
00000000
01030000
00000000
00000000
00000000
10000000
00000000
00000000
00000000
,
00100000
10000000
00100000
10000000
00200000
00000000
00000000
00000000
01300000
00000000
00000000
00000000
00010000
00000000
00000000
00000000
,
10000000
01000000
10000000
01000000
20000000
00000000
00000000
00000000
30010000
00000000
00000000
00000000
00100000
00000000
00000000
00000000
,
00001000
01000000
00001000
01000000
00001000
00000000
00010000
00000000
00001000
00000000
00000100
00000000
00000001
00000000
00000010
00000000
,
00000100
00001000
00000100
00001000
00000100
00000000
00000010
00000000
00000001
00000000
00001000
00000000
00000100
00000000
00010000
00000000
,
00001000
00100000
00001000
00100000
00001000
00000000
00010000
00000000
01000000
00000000
00100000
00000000
00010000
00000000
10000000
00000000
,
00100000
00000000
01000000
00000000
01000000
00000000
00010000
00000000
10000000
00000000
00100000
00000000
01100000
00000000
01000000
00001000
,
00010000
00000000
00000100
00000000
00000010
00000000
00000001
00000000
00001000
00000000
00000010
00000100
00000000
00000010
00000100
00000000
,
00000001
00001000
00000100
00010000
00001000
01000000
00100000
01000000
,
00010000
00000000
10000000
00000000
01000000
00000000
00100000
00000000
00010000
00000000
10000000
00100000
00000000
10000000
00100000
00000000
,
01000000
00001000
00100000
00010000
01000000
00001000
00010000
00000100
,
00000010
00000000
00000001
00000000
00001000
00000000
00000010
00000000
00001000
00000000
00000001
00000100
00000000
00000001
00000100
00000000
,
00000001
00001000
00000100
00000010
00000100
00010000
00001000
01000000
,
00100000
00000000
10000000
00000000
00010000
00000000
00100000
00000000
00001000
00000000
00100000
00010000
00000000
00100000
00010000
00000000
,
01000000
00001000
00010000
00000100
00000010
00000001
00001000
00000001
,
00000022
00000000
00000000
00000000
,
00000000
00000000
00000033
00000000
;

//---------------dance-single - ----------------
#NOTES:
     dance-single:
     :
     Medium:
     6:
     0.392652,0.390240,0.119157,0.293921,0.051635,294.000000,15.000000,37.000000,0.000000,0.000000,0.000000,0.392652,0.390240,0.119157,0.293921,0.051635,294.000000,15.000000,37.000000,0.000000,0.000000,0.000000:
0000
0000
0000
0000
,
0000
0000
0000
0000
,
0000
0000
0000
0000
,
0000
0000
0000
0000
,
0001
0000
1001
0000
1000
0010
0000
0010
,
0100
0000
0001
0000
1000
0001
0000
0001
,
1000
0110
0001
1000
,
0200
0000
0000
0000
0310
0001
0010
0100
,
1000
0001
1000
0000
0010
0000
0100
0000
,
0001
1000
0001
0000
0010
0100
0100
0000
,
1000
0100
0010
0000
0001
0000
1000
0001
,
0100
0010
0100
0000
0001
1000
1000
0000
,
0001
0100
0010
0000
0100
0000
0001
1000
,
0010
1000
0001
0000
1000
0010
0010
0000
,
0100
0001
1000
0000
0001
1000
0100
0000
,
1000
0000
0001
0000
0100
0000
0000
0000
0010
0000
0000
1000
0000
0000
0001
0000
,
1001
0000
0000
0000
0010
0000
0001
0000
0010
0000
0000
0000
0001
0000
0000
1000
,
0000
0000
0100
0000
0100
0000
1000
0000
0010
0000
0000
0000
0100
0000
0000
0001
,
0000
0001
0010
0100
0010
0000
0001
0000
,
2000
3200
0320
0032
,
0103
0000
0000
0000
0010
0000
1000
0000
0001
0000
0000
0000
1000
0000
0000
0100
,
0000
0000
0100
0000
0010
0000
0100
0000
1000
0000
0000
0000
0001
0000
0000
0100
,
0000
0001
0001
1000
0010
0000
0100
0000
,
0001
2000
0002
0000
0000
0000
3003
0000
,
1001
0000
0110
0000
1001
0000
0010
0100
,
0000
0001
0001
1000
2000
0000
3200
0000
,
0310
0000
1001
0000
0110
0000
1000
0010
,
0000
1000
1000
0001
0002
0000
0023
0000
,
0130
0000
1001
0000
0110
0000
0100
0001
,
0000
0010
0010
0100
0200
0000
0320
0000
,
0032
0000
2003
0000
3001
0100
0001
1000
,
0000
0010
0100
0010
0000
1000
0001
1000
,
0010
0000
0000
0000
0101
0000
0000
0000
1000
0000
0000
1000
0000
0000
1000
0000
,
0010
0100
0000
0100
0000
0001
1000
0001
,
0010
0000
0000
0000
1001
0000
0000
0000
0010
0000
0000
0010
0000
0000
0010
0000
,
0100
0001
0000
0001
0000
1000
0010
1000
,
0001
0000
0000
0000
0110
0000
0000
0000
1000
0000
0000
1000
0000
0000
1000
0000
,
0001
0010
0000
0010
0000
0001
1000
0001
,
0100
0000
0000
0000
1001
0000
0000
0000
0001
0000
0000
0001
0000
0000
0001
0000
,
2000
3200
0320
0032
,
0103
0200
0000
0000
,
0301
0002
0000
0000
,
1003
2000
0000
0000
,
3010
0020
0000
0000
,
0130
0001
2000
0000
0000
0000
0000
0000
,
3010
1000
0200
0000
0000
0000
0000
0000
,
0310
0001
0020
0000
0000
0000
0000
0000
,
0130
1000
0002
0000
0000
0000
0000
0000
,
0013
0000
0001
0000
0010
0000
0001
1000
,
0000
0010
0200
0302
,
1003
0000
0010
0000
0100
0000
0001
0010
,
0000
0001
2000
3020
,
0130
0000
0010
0000
1000
0000
0001
0100
,
0000
0010
2000
3002
,
2003
0000
3002
0000
0013
0000
0100
1000
,
0000
0001
0000
0001
0000
1000
0100
0010
,
0110
0000
0000
0000
0010
0000
0001
0000
1000
0000
0000
1000
0000
0000
1000
0000
,
0001
0100
0000
0100
0000
0010
1000
0001
,
0100
0000
0000
0000
0010
0000
1000
0000
0001
0000
0000
0001
0000
0000
0001
0000
,
0010
0100
0000
0100
0000
1000
0001
0100
,
0010
0000
0000
0000
1000
0000
0001
0000
0100
0000
0000
0100
0000
0000
0100
0000
,
0001
1000
0000
1000
0000
0001
0010
0100
,
0010
0000
0000
0000
0001
0000
1000
0000
0010
0000
0000
0010
0000
0000
0010
0000
,
1000
0001
0000
0001
0000
1000
0010
0200
,
0020
0000
0000
0000
,
0000
0000
0330
0000
;

//---------------dance-double - ----------------
#NOTES:
     dance-double:
     :
     Medium:
     6:
     0.386978,0.390240,0.127101,0.230371,0.051635,296.000000,16.000000,29.000000,0.000000,0.000000,0.000000,0.386978,0.390240,0.127101,0.230371,0.051635,296.000000,16.000000,29.000000,0.000000,0.000000,0.000000:
00000000
00000000
00000000
00000000
,
00000000
00000000
00000000
00000000
,
00000000
00000000
00000000
00000000
,
00000000
00000000
00000000
00000000
,
00000010
00000000
00001001
00000000
00000010
00000001
00000000
00000001
,
00000100
00000000
00001010
00000000
00000001
00001000
00000000
00001000
,
00000100
00011000
00100000
00010000
,
02000000
00000000
00000000
00000000
03100000
10000000
00010000
10000000
,
01000000
00000000
01100000
00000000
00010000
00000000
10000000
00010000
,
00100000
00000000
00010000
00000000
01000000
00001000
00001000
00000000
,
00010000
00000100
00001000
00000000
00000001
00000000
00000010
00000000
,
00000001
00001000
00000010
00000000
00000100
00000010
00000010
00000000
,
00001000
00000100
00010000
00000000
00001000
00000000
00100000
00000000
,
00010000
10000000
00010000
00000000
01000000
00100000
00100000
00000000
,
10000000
01000000
00100000
00000000
00001000
00010000
00001000
00000000
,
00010000
00000000
00000100
00000000
00000010
00000000
00000000
00000000
00000001
00000000
00000000
00000010
00000000
00000000
00000100
00000000
,
00001000
00000000
00000010
00000000
00000010
00000000
00000000
00000000
00000100
00000000
00000000
00000000
00000001
00000000
00000000
00001000
,
00000000
00000000
00000100
00000000
00000100
00000000
00000000
00000000
00010000
00000000
00000000
00000000
00001000
00000000
00000000
01000000
,
00000000
00010000
00010000
00000000
10000000
00010000
10000000
01000000
,
00020000
00032000
00003200
00000302
,
00000013
00000000
00000100
00000000
00000100
00000000
00000000
00000000
00010000
00000000
00000000
00000000
00001000
00000000
00000000
00100000
,
00000000
00000000
00010000
00000000
00010000
00000000
00000000
00000000
10000000
00000000
00000000
00000000
01000000
00000000
00000000
00100000
,
00000000
00001000
00001000
00000000
00010000
00000000
00000100
00010000
,
00001000
01000000
00020000
00000000
00200000
00000000
00330000
00000000
,
11000000
00000000
00110000
00000000
11000000
00000000
00100000
00001000
,
00000000
00010000
00001000
00010000
00000200
00000000
00000310
00000000
,
00000011
00000000
00001100
00000000
00000011
00000000
00000100
00000010
,
00000000
00001000
00000001
00000100
00000020
00000000
00001030
00000000
,
00000101
00000000
00001010
00000000
00000101
00000000
00000010
00001000
,
00000000
00000100
00010000
00001000
00020000
00000000
00230000
00000000
,
02300000
00000000
03020000
00000000
10030000
01000000
00100000
00010000
,
00000000
10000000
00000000
10000000
00000000
00010000
00100000
00010000
,
01000000
00000000
00000000
00000000
00100000
00000000
00000000
00000000
10000000
00000000
00000000
10000000
00000000
00000000
10000000
00000000
,
00010000
00100000
00000000
00100000
00000000
00001000
00010000
00001000
,
00010000
00000000
00000000
00000000
00000100
00000000
00000000
00000000
00000010
00000000
00000000
00000010
00000000
00000000
00000010
00000000
,
00000001
00001000
00000000
00001000
00000000
00000010
00000100
00000010
,
00000100
00000000
00000000
00000000
00001001
00000000
00000000
00000000
00000100
00000000
00000000
00000100
00000000
00000000
00000100
00000000
,
00010000
00001000
00000000
00001000
00000000
00100000
00010000
00100000
,
00010000
00000000
00000000
00000000
10000000
00000000
00000000
00000000
00010000
00000000
00000000
00010000
00000000
00000000
00010000
00000000
,
01000000
00000000
00100000
20000000
00020000
00000000
30030000
00000000
,
00100000
01000000
00100000
01000000
,
00010000
01000000
00010000
01000000
,
00001000
00100000
00001000
00100000
,
00002000
00200000
00000000
00003000
,
00301000
00010000
00001000
00010000
,
00000100
00000010
00000100
00000010
,
00000001
00001000
00000001
00001000
,
00000002
00000020
00000000
00000003
,
00000130
00000000
00001000
00000000
00000100
00000000
00010000
00001000
,
00000000
00100000
00020000
20030000
,
30100000
00000000
01000000
00000000
00100000
00000000
10000000
00010000
,
00000000
00100000
00002000
00023000
,
00030100
00000000
00000010
00000000
00000100
00000000
00000010
00000001
,
00000000
00001000
00000200
00020300
,
00032000
00000000
00203000
00000000
00310000
00000000
01000000
00100000
,
00000000
10000000
00010000
10000000
00000000
00010000
01000000
00010000
,
00110000
00000000
00000000
00000000
00101000
00000000
00000000
00000000
00010000
00000000
00000000
00010000
00000000
00000000
00010000
00000000
,
00000100
00001000
00000000
00001000
00000000
00000001
00000100
00000010
,
00000100
00000000
00000000
00000000
00000001
00000000
00000010
00000000
00000100
00000000
00000000
00000100
00000000
00000000
00000100
00000000
,
00001000
00000100
00000000
00000100
00000000
00010000
00001000
00010000
,
00100000
00000000
00000000
00000000
01000000
00000000
00000000
00000000
00010000
00000000
00000000
00010000
00000000
00000000
00010000
00000000
,
00100000
01000000
00000000
01000000
00000000
10000000
00010000
10000000
,
01000000
00000000
00000000
00000000
10000000
00000000
00000000
00000000
00100000
00000000
00000000
00100000
00000000
00000000
00100000
00000000
,
01000000
00001000
00000000
00001000
00000000
00100000
00010000
00200000
,
02000000
00000000
00000000
00000000
,
00000000
00000000
03300000
00000000
;

//---------------dance-single - ----------------
#NOTES:
     dance-single:
     :
     Easy:
     3:
     0.264416,0.286176,0.150933,0.341584,0.000000,171.000000,19.000000,43.000000,0.000000,0.000000,0.000000,0.264416,0.286176,0.150933,0.341584,0.000000,171.000000,19.000000,43.000000,0.000000,0.000000,0.000000:
0000
0000
0000
0000
,
0000
0000
0000
0000
,
0000
0000
0000
0000
,
0000
0000
0000
0000
,
0100
1001
0000
0110
,
0000
1001
0000
0110
,
0000
1100
0000
0101
,
0020
0000
1000
0100
,
2030
0002
0000
3003
,
0010
0100
0001
0010
,
0200
2000
0000
3300
,
1000
0001
0100
0010
,
0200
0002
0000
0303
,
0001
0010
0100
1000
,
0001
0100
1000
0100
,
0001
0200
0000
0300
,
0110
0010
1000
1000
,
0000
0001
0001
0010
,
0000
0100
0100
1000
,
0002
0023
0230
2300
,
3001
0100
0010
0010
,
0000
1000
0100
0100
,
0000
0010
0001
1000
,
0002
2000
0000
3003
,
1001
0110
1001
0010
,
0000
1000
0002
0003
,
0110
1001
0110
1000
,
0000
0010
0200
0300
,
0101
1100
0101
0010
,
0000
1000
0200
0300
,
0020
0030
0001
0100
,
0000
0010
0000
1000
,
0002
0000
0103
0001
,
0020
0000
0031
1000
,
0200
0000
0310
0001
,
2000
0000
3010
1000
,
0200
0000
0310
0001
,
2000
0000
3100
1000
,
0002
0000
0103
0001
,
0020
0100
0200
0330
,
2001
0000
0000
0000
,
3020
0000
0000
0000
,
0230
0000
0000
0000
,
0302
0000
0000
0000
,
0013
0010
0010
0000
,
0100
0100
0100
0000
,
1000
1000
1000
0000
,
0001
0001
0001
0000
,
0100
0010
0100
0010
,
0000
1000
0001
0000
,
0010
0001
0010
0001
,
0000
1000
0100
0000
,
1000
0010
1000
0010
,
0000
0100
0002
0003
,
2000
3000
0010
0100
,
0000
0001
0000
1000
,
2001
0000
3100
1000
,
0002
0000
0013
0001
,
0200
0000
0310
0100
,
0002
0000
0103
0001
,
2000
0000
3001
0010
,
0200
0000
0310
0100
,
2000
0000
3001
0100
,
0020
0000
1030
0100
,
2002
0000
0000
0000
,
0000
0000
3003
0000
;

//---------------dance-double - ----------------
#NOTES:
     dance-double:
     :
     Easy:
     3:
     0.231506,0.286176,0.150933,0.190652,0.000000,161.000000,19.000000,24.000000,0.000000,0.000000,0.000000,0.231506,0.286176,0.150933,0.190652,0.000000,161.000000,19.000000,24.000000,0.000000,0.000000,0.000000:
00000000
00000000
00000000
00000000
,
00000000
00000000
00000000
00000000
,
00000000
00000000
00000000
00000000
,
00000000
00000000
00000000
00000000
,
00000000
00011000
00000000
00001001
,
00000000
00011000
00000000
10010000
,
00000000
00011000
00000000
00001001
,
00000020
00000000
00000100
00000130
,
00000002
00002000
00000000
00003003
,
00000010
00001000
00000100
00010000
,
00002000
00020000
00000000
00033000
,
00001000
00100000
00010000
10000000
,
02000000
00200000
00000000
03300000
,
00010000
10000000
00010000
00100000
,
00002000
00000000
00023000
00000000
,
00030200
00000000
00000310
00000001
,
00001000
00000010
00000100
00000100
,
00000000
00000001
00001000
00001000
,
00000000
00000100
00010000
00010000
,
00002000
00203000
02300000
23000000
,
30010000
01000000
01000000
00100000
,
00000000
10000000
10000000
00010000
,
00000000
00100000
00100000
00001000
,
00020000
00002000
00000000
00033000
,
00011000
00011000
00011000
00001000
,
00000000
00000100
00000001
00000000
,
00000110
00000110
00000110
00000100
,
00000000
00001000
00000001
00000000
,
00001001
00001001
00001001
00000010
,
00000000
00001000
00000200
00000300
,
00020000
00030000
00001000
00100000
,
00000000
00010000
00000000
10000000
,
10010000
00000000
00100000
01000000
,
00000000
00010000
00000000
10000000
,
01000000
00000000
00100000
00001000
,
00000000
00010000
00000000
00000100
,
00001000
00000000
00000010
00000000
,
00000100
00000001
00000000
00000010
,
00000100
00000000
00001000
00000000
,
00000100
00020000
00002000
00033000
,
00011000
00000000
00001000
00000000
,
00100000
00000000
00100000
00000000
,
00010000
00000000
00010000
00000000
,
10000000
00000000
10000000
00000000
,
01000000
00000000
00100000
00000000
,
00001000
00000000
00010000
00000000
,
00000100
00000000
00000010
00000000
,
00000001
00000000
00001000
00000000
,
00000010
00000010
00000010
00000100
,
00000000
00000001
00001000
00000000
,
00000100
00000100
00000100
00000010
,
00000000
00000100
00010000
00000000
,
00001000
00001000
00001000
00100000
,
00000000
00010000
20000000
30000000
,
02000000
03000000
00100000
00010000
,
00000000
10000000
00000000
00010000
,
01010000
00000000
00100000
10000000
,
00000000
00010000
00000000
00100000
,
00001000
00000000
00010000
00000010
,
00000000
00000100
00000000
00000010
,
00001000
00000000
00000001
00000010
,
00000000
00000001
00000000
00001000
,
00000100
00000000
00010000
00001000
,
00000000
00100000
00000000
00001000
,
00022000
00000000
00000000
00000000
,
00000000
00000000
00033000
00000000
;

//---------------dance-single - ----------------
#NOTES:
     dance-single:
     :
     Beginner:
     2:
     0.155472,0.152521,0.031775,0.174764,0.000000,111.000000,4.000000,22.000000,0.000000,0.000000,0.000000,0.155472,0.152521,0.031775,0.174764,0.000000,111.000000,4.000000,22.000000,0.000000,0.000000,0.000000:
0000
0000
0000
0000
,
0000
0000
0000
0000
,
0000
0000
0000
0000
,
0000
0000
0000
0000
,
0020
0000
0030
0000
,
0200
0000
0300
0000
,
0000
0001
0000
1000
,
0000
0000
0010
0000
,
2002
0000
3003
0000
,
0010
0000
1000
0000
,
0200
0000
0300
0000
,
1000
0000
0001
0000
,
0020
0000
0030
0000
,
0001
0000
0100
0000
,
0010
0000
0010
0000
,
0020
0000
0030
0000
,
1001
0000
1000
0000
,
0100
0000
0000
0000
,
1001
0000
0001
0000
,
0200
0000
0300
0000
,
0010
0000
0100
0000
,
0010
0000
0000
0000
,
1000
0000
0001
0000
,
2000
0000
3000
0000
,
0001
0001
0001
0000
,
0100
0000
0010
0000
,
1000
1000
1000
0000
,
0010
0000
1000
0000
,
0100
0100
0100
0000
,
0010
0000
0001
0000
,
1000
0000
0010
0000
,
0000
0100
0000
0100
,
0100
0000
0002
0000
,
0003
0001
0000
1000
,
1000
0000
0200
0000
,
0300
0100
0000
0010
,
0010
0000
0200
0000
,
0300
0100
0000
1000
,
1000
0000
0020
0000
,
0030
0010
0010
0000
,
0220
0000
0330
0000
,
2000
0000
3000
0000
,
0002
0000
0003
0000
,
0020
0000
0030
0000
,
0100
0000
0100
0000
,
1000
0000
1000
0000
,
0001
0000
0001
0000
,
0100
0000
0100
0000
,
0010
0010
0010
0000
,
0000
0000
1000
0000
,
0001
0001
0001
0000
,
0000
0000
1000
0000
,
0010
0010
0010
0000
,
1000
0000
0001
0000
,
0100
0000
0010
1000
,
0000
0001
0000
0100
,
0100
0000
0020
0000
,
0030
0010
0000
1000
,
1000
0000
0200
0000
,
0300
0100
0000
0010
,
0010
0000
0002
0000
,
0003
0001
0000
1000
,
1000
0000
0020
0000
,
0030
0010
0000
0100
,
0100
0000
0000
0000
;
