#TITLE:FLOW;
#SUBTITLE:;
#ARTIST:Eiko Shimamiya;
#TITLETRANSLIT:;
#SUBTITLETRANSLIT:;
#ARTISTTRANSLIT:;
#GENRE:J-Pop;
#CREDIT:;
#BANNER:FLOW-bn.png;
#BACKGROUND:FLOW-bg.png;
#LYRICSPATH:;
#CDTITLE:PROJECT GOLDENROD-cdtitle.png;
#MUSIC:FLOW.mp3;
#OFFSET:-3.371000;
#SAMPLESTART:71.300003;
#SAMPLELENGTH:16.020000;
#LASTBEATHINT:220.000000;
#SELECTABLE:YES;
#BPMS:0.000000=120.000000
;
#STOPS:
;
#BGCHANGES:;
#KEYSOUNDS:;
#ATTACKS:;

//---------------dance-single - ----------------
#NOTES:
     dance-single:
     :
     Hard:
     6:
     0.400556,0.349662,0.197922,0.329870,0.032987,276.000000,24.000000,40.000000,0.000000,0.000000,0.000000,0.400556,0.349662,0.197922,0.329870,0.032987,276.000000,24.000000,40.000000,0.000000,0.000000,0.000000:
// measure 0
0000
0000
0000
0000
,  // measure 1
0000
0000
0000
0000
,  // measure 2
1000
0001
1000
0010
,  // measure 3
1000
0100
0001
0100
,  // measure 4
1002
1000
0203
0001
,  // measure 5
0320
0100
2030
3001
,  // measure 6
0010
0000
0101
0000
1000
0100
0010
0000
,  // measure 7
0001
0000
1001
0000
0010
1000
0001
0000
,  // measure 8
1000
0000
1100
0000
0010
0001
0100
0000
,  // measure 9
0010
1001
0200
0300
,  // measure 10
1001
0000
0110
0010
0000
1000
0001
1000
,  // measure 11
0001
0100
0010
0000
1000
0100
1000
0001
,  // measure 12
0010
0000
1001
1000
0000
0001
0100
0001
,  // measure 13
0020
0000
0230
0000
1300
0001
1000
0001
,  // measure 14
0100
0000
0101
0001
0000
0010
0001
0010
,  // measure 15
0100
0000
1000
0000
0010
0100
0001
1000
,  // measure 16
0100
0000
1100
1000
0000
0010
0100
0001
,  // measure 17
0010
0000
0001
0010
1000
0010
0001
1000
,  // measure 18
1001
0000
0010
0000
1001
0000
0100
0010
,  // measure 19
1000
0001
0010
0001
0000
1000
1000
1000
,  // measure 20
1100
0001
1100
0010
,  // measure 21
1000
0001
0010
0100
0000
0000
0010
0001
,  // measure 22
0011
1000
0011
0100
,  // measure 23
0001
1000
0100
1000
0000
0010
0010
0010
,  // measure 24
0110
0000
1000
0000
0110
0000
0001
2000
,  // measure 25
0000
3001
0200
0000
0310
1000
1000
0001
,  // measure 26
0002
0203
2300
3200
,  // measure 27
0310
0100
0010
1000
0001
0010
0010
0000
,  // measure 28
0100
1000
0100
0010
0001
0000
1000
0010
,  // measure 29
0100
0020
0000
2030
0001
0001
3001
1000
,  // measure 30
0200
0320
0032
0023
,  // measure 31
0130
1000
0001
0100
0001
1000
1000
0000
,  // measure 32
0010
1000
0100
0010
0002
0000
0103
0010
,  // measure 33
0200
0000
1000
0000
0010
0000
0301
1000
,  // measure 34
1001
0000
0000
0000
0010
0000
0000
0100
0010
0000
0010
0000
0000
0000
1000
0000
,  // measure 35
1100
0000
0000
0000
1000
0000
0000
0001
0100
0000
0100
0000
0000
0000
0010
0000
,  // measure 36
1000
0001
1000
0100
2000
0000
3002
0000
,  // measure 37
0013
0100
0010
0001
1000
0000
0010
0100
,  // measure 38
0110
0000
0000
0100
0010
0000
0000
1000
0001
0000
0001
0000
0000
0000
0010
0000
,  // measure 39
0011
0000
0000
0010
0001
0000
0000
0010
0100
0000
0100
0000
0000
0000
1000
0000
,  // measure 40
0200
0320
0002
0030
,  // measure 41
2000
0000
0003
0000
0020
0000
3030
1000
,  // measure 42
1001
0000
0000
0000
1000
0000
0000
0010
0100
0000
0010
0000
0000
0000
1000
0000
,  // measure 43
1001
0000
0000
0000
0001
0000
0000
0010
0001
0000
1000
0000
0000
0000
0100
0000
,  // measure 44
0010
0001
1000
0001
0200
0000
0320
0000
,  // measure 45
1030
0100
0010
0001
0000
0010
0100
2000
,  // measure 46
0100
0000
3010
0000
1000
0100
1000
0002
,  // measure 47
0010
0000
0100
0000
1003
0200
0000
0310
,  // measure 48
0002
0100
0203
0010
,  // measure 49
0320
0000
1000
0000
1030
0001
1000
0100
,  // measure 50
1000
0010
0000
0010
0000
0010
0000
0010
,  // measure 51
0200
0000
0302
0000
,  // measure 52
2003
0000
3200
0000
,  // measure 53
0300
0000
0000
0000
;

//---------------dance-single - ----------------
#NOTES:
     dance-single:
     :
     Medium:
     4:
     0.268608,0.259772,0.181428,0.189675,0.000000,183.000000,22.000000,23.000000,0.000000,0.000000,0.000000,0.268608,0.259772,0.181428,0.189675,0.000000,183.000000,22.000000,23.000000,0.000000,0.000000,0.000000:
0000
0000
0000
0000
,
0000
0000
0000
0000
,
0002
0000
0023
0000
,
0032
0000
0203
0000
,
0310
1000
0010
1000
,
0100
0010
0001
0010
,
0001
0000
1001
0000
0000
0100
0001
0000
,
1000
0000
1100
0000
0000
0001
0010
0000
,
0100
0000
1001
0000
0000
1000
0010
0000
,
0100
0110
2000
0000
,
3001
0101
0001
1000
,
0010
0000
1100
0000
0001
0100
0100
0000
,
0010
0000
1000
0100
0010
0000
0001
0010
,
0100
1000
0001
0100
,
0010
1010
1000
0100
,
0010
0000
0011
0000
1000
0010
0010
0000
,
0100
0001
1000
0000
0010
1000
0001
0000
,
0100
0000
0010
0000
0100
0000
0001
1000
,
0002
0000
0010
0000
0013
0000
0000
0100
,
1000
0001
1000
0000
,
0200
0010
0010
0310
,
0001
1000
0001
0000
0010
0000
0100
0000
,
2000
0001
0001
3001
,
0100
0000
0010
0100
0000
0000
0100
0000
,
0002
0000
0010
0000
0013
0000
0001
1000
,
0000
0001
0000
0000
1000
0000
0010
0000
,
0100
0010
0100
0010
,
1000
0000
0100
0020
0000
0030
0000
0000
,
0001
0000
1000
0000
0010
0000
0100
0001
,
0000
0100
0000
0200
0000
0000
0300
0000
,
0010
1000
0001
0010
,
0100
0000
1000
0002
0000
0003
0000
0000
,
1000
0000
0010
0000
0100
0000
0001
0010
,
0200
0000
1300
0001
,
1001
0100
1001
0000
,
0110
0001
0110
0000
,
2000
3020
0230
0301
,
0010
0001
1000
0000
0010
0000
1000
0000
,
1100
0001
0101
0000
,
0011
1000
1010
0000
,
0002
0000
2000
0003
,
3100
0100
1000
0010
,
0110
1000
0110
0000
,
1001
0010
1001
0000
,
0001
1000
0010
1000
,
0100
0000
0010
0200
0000
0000
0300
0000
,
0110
0000
0001
0000
,
1100
0000
0000
0000
1000
0001
0000
1000
,
0020
0000
2000
0030
,
0002
3000
0200
0003
,
0310
0000
1000
0000
,
0100
0000
0010
0000
,
0001
0000
0010
0000
;

//---------------dance-single - ----------------
#NOTES:
     dance-single:
     :
     Easy:
     2:
     0.161401,0.176480,0.008247,0.206169,0.000000,111.000000,1.000000,25.000000,0.000000,0.000000,0.000000,0.161401,0.176480,0.008247,0.206169,0.000000,111.000000,1.000000,25.000000,0.000000,0.000000,0.000000:
0000
0000
0000
0000
,
0000
0000
0000
0000
,
2000
0000
3000
0000
,
0020
0000
0030
0000
,
0100
0000
0001
0000
,
0100
0000
0001
0000
,
1000
0100
0000
1000
,
0001
1000
0000
0010
,
0100
0010
0000
0100
,
0002
0000
2000
3003
,
1001
0000
1000
0000
,
0010
0100
0010
0000
,
1000
0000
0001
0000
,
0010
0001
0010
0000
,
0100
0000
1000
0000
,
0010
1000
0010
0000
,
0100
0000
0001
0000
,
1000
0100
1000
0000
,
0020
0000
0230
0000
,
0301
1000
0001
0000
,
0010
0000
0001
0000
,
1000
0000
0010
0000
,
2000
0000
3200
0000
,
0310
0001
0010
0000
,
0001
0000
0100
0000
,
0010
0000
0100
0100
,
0002
0000
0000
0000
,
2003
0000
3100
0000
,
0020
0000
0000
0000
,
0230
0000
1300
0000
,
0020
0000
0000
0000
,
2030
0000
3001
0000
,
0200
0000
0000
0000
,
0310
0000
0100
0000
,
0010
0010
0010
0000
,
1000
1000
1000
0000
,
0001
0000
0010
0000
,
0001
1000
0010
0000
,
0100
0100
0100
0000
,
0001
0001
0001
0000
,
0020
0000
0230
0000
,
2300
0000
3001
0000
,
0100
0100
0100
0000
,
0010
0010
0010
0000
,
1000
0000
0001
0000
,
1000
0000
0010
0000
,
0200
0000
0000
0000
,
0320
0000
0000
0000
,
2030
0000
3200
0000
,
0320
0000
0032
0000
,
0103
0000
0001
0000
,
1000
0000
0001
0000
,
0010
0000
0200
0000
,
0000
0000
0300
0000
;

//---------------dance-single - ----------------
#NOTES:
     dance-single:
     :
     Beginner:
     1:
     0.107208,0.129886,0.008247,0.156688,0.000000,71.000000,1.000000,19.000000,0.000000,0.000000,0.000000,0.107208,0.129886,0.008247,0.156688,0.000000,71.000000,1.000000,19.000000,0.000000,0.000000,0.000000:
0000
0000
0000
0000
,
0000
0000
0000
0000
,
2000
0000
3000
0000
,
0002
0000
0003
0000
,
0100
0000
0000
0000
,
0010
0000
0000
0000
,
0110
0000
0000
0000
,
0010
0000
0000
0000
,
1000
0000
0000
0000
,
0002
0000
0003
0000
,
0010
0000
0010
0000
,
0100
0000
0000
0000
,
2000
0000
3000
0000
,
0002
0000
0003
0000
,
1000
0000
1000
0000
,
0010
0000
0000
0000
,
0200
0000
0300
0000
,
0020
0000
0030
0000
,
1000
0000
1000
0000
,
0010
0000
0010
0000
,
0100
0000
0100
0000
,
0001
0000
0000
0000
,
0010
0000
0010
0000
,
0001
0000
0001
0000
,
1000
0000
1000
0000
,
0200
0000
0300
0000
,
2000
0000
0000
0000
,
0000
0000
3000
0000
,
0200
0000
0000
0000
,
0300
0000
0010
0000
,
0002
0000
0000
0000
,
0000
0000
0003
0000
,
0200
0000
0000
0000
,
0300
0000
0010
0000
,
1000
1000
1000
0000
,
0001
0001
0001
0000
,
1000
0000
0000
0000
,
0010
0000
0000
0000
,
0100
0100
0100
0000
,
0010
0010
0010
0000
,
2000
0000
3000
0000
,
0200
0000
0300
0000
,
0010
0010
0010
0000
,
0001
0001
0001
0000
,
1000
0000
0000
0000
,
0010
0000
0000
0000
,
2000
0000
3000
0000
,
0020
0000
0030
0000
,
0100
0000
0100
0000
,
0100
0000
0100
0000
,
0002
0000
0003
0000
,
2000
0000
3000
0000
,
0002
0000
0003
0000
;

//---------------dance-double - ----------------
#NOTES:
     dance-double:
     :
     Hard:
     7:
     0.424118,0.393370,0.148441,0.272142,0.049480,309.000000,18.000000,33.000000,0.000000,0.000000,0.000000,0.424118,0.393370,0.148441,0.272142,0.049480,309.000000,18.000000,33.000000,0.000000,0.000000,0.000000:
00000000
00000000
00000000
00000000
,
00000000
00000000
00000000
00000000
,
00001000
00010000
00001000
00010000
,
00000100
00001000
00000100
00001000
,
00000001
00000100
00000001
00000000
00001000
00000000
00000010
00000000
,
00010000
00001000
00010000
00000000
01000000
00000000
10000000
00000000
,
00010000
00000000
01010000
00000000
10000000
01000000
11000000
00000000
,
00100000
00000000
00110000
00000000
00010000
01000000
01010000
00000000
,
00100000
00000000
00101000
00000000
00001000
00010000
00011000
00000000
,
00010000
00000100
00002100
00000000
,
00003010
00000000
00000100
00000000
00000001
00001000
00000001
00000010
,
00000100
00001000
00000001
00000100
00000010
00001000
00000100
00010000
,
00001000
00100000
00001000
00010000
01000000
00100000
01000000
20000000
,
00000000
30020000
00000000
01030000
00100000
01000000
01000000
00100000
,
20000000
00000000
30200000
00000000
00320000
00001000
00032000
00010000
,
00013000
00000100
00001000
00000001
00001000
00000100
00000100
00000000
,
00010000
00001000
00100000
00010000
00001000
00000100
00000100
00000010
,
00000001
00000000
00001000
00000000
00000001
00001000
00001000
00000001
,
00000100
00000000
00000100
00000000
00000110
00000001
00000100
00000010
,
00001000
00000001
00000010
00000100
00001000
00000000
00000100
00000000
,
00010000
00000000
00010000
00000000
00011000
00001000
00010000
00001000
,
00100000
00010000
01000000
10000000
01000000
00000000
00100000
10000000
,
20100000
30020000
00230000
02300000
,
13000000
01000000
00100000
00001000
00010000
00000000
00001000
00010000
,
00010200
00000000
00002300
00000000
00003002
00000000
00000013
00000001
,
00000100
00000001
00000010
00000000
00000100
00001000
00000010
00010000
,
00002000
00010000
00100000
00010000
,
00103000
00001000
00010000
01000000
10000000
00010000
01000000
00100000
,
01000000
00000000
00010000
00000000
00100000
00000000
00001000
00000000
00010000
00000000
00000000
00000000
00000100
00001000
00000001
00000000
,
00000100
00001000
00011000
00010000
00001000
00100000
00001000
02000000
,
00100000
00010000
00100000
00010000
,
03100000
00000000
10000000
00000000
01000000
00000000
00100000
00000000
00001000
00010000
00000100
00000000
00001000
00000000
00000100
00000000
,
00000010
00000001
00001000
00000010
00000200
00000000
00000301
00000010
,
00000100
00000000
00001000
00000000
00000001
00000010
00000010
00000001
,
00000011
00000000
00000000
00000000
00000101
00000000
00000000
00000001
00001000
00000000
00000100
00000000
00001000
00000000
00001000
00000000
,
00010000
00000000
00000000
00000000
01010000
00000000
00000000
00010000
00100000
00000000
01000000
00000000
01000000
00000000
00100000
00000000
,
10000000
00000000
00100000
00000000
00010000
00000000
01000000
00000000
00200000
00000000
00000000
00000000
20300000
00000000
30000000
10000000
,
00010000
00100000
00001000
00010000
00000010
00000100
00000001
00000100
,
00000110
00000000
00000000
00000010
00001000
00000000
00000000
00001000
00000100
00000000
00010000
00000000
00001000
00000000
00001000
00000000
,
00100000
00000000
00000000
00100000
01000000
00000000
00000000
01000000
00100000
00000000
00010000
00000000
10000000
00000000
00020000
00000000
,
00100000
00230000
00302000
00010000
,
00023000
00000000
00000010
00000000
00030010
00001000
00000100
00000010
,
00001001
00000000
00000000
00000000
00000010
00000000
00000000
00001000
00000100
00000000
00010000
00000000
00000010
00000000
00000100
00000000
,
00000110
00000000
00000000
00000000
00000010
00000000
00000000
00000100
00000001
00000000
00000010
00000000
00000001
00000000
00001000
00000000
,
00000100
00000000
00010000
00000000
00001000
00000000
00100000
00000000
01000000
00000000
10000000
00000000
00020000
00000000
00030000
00010000
,
00100000
01000000
10000000
01000000
00100000
00100000
00010000
20000000
,
01000000
00000000
30100000
00000000
10000000
00010000
00100000
00002000
,
00010000
00000000
00000100
00000000
00013000
00001000
00001000
00000100
,
00000002
00000100
00002003
00000010
,
00003200
00000000
00001000
00000000
00010300
00001000
00010000
00001000
,
00010000
00100000
00000000
01000000
00000000
00010000
00000000
00010000
,
20000000
00000000
32000000
00000000
,
03020000
00000000
00002000
00000000
,
00033000
00000000
00000000
00000000
;

//---------------dance-double - ----------------
#NOTES:
     dance-double:
     :
     Medium:
     4:
     0.248580,0.218539,0.107208,0.181428,0.000000,176.000000,13.000000,22.000000,0.000000,0.000000,0.000000,0.248580,0.218539,0.107208,0.181428,0.000000,176.000000,13.000000,22.000000,0.000000,0.000000,0.000000:
00000000
00000000
00000000
00000000
,
00000000
00000000
00000000
00000000
,
00020000
00000000
00032000
00000000
,
00203000
00000000
02300000
00000000
,
13000000
00010000
10000000
00010000
,
01000000
00100000
01000000
00100000
,
10000000
11000000
00000000
00100000
,
00001000
00101000
00000000
00001000
,
00010000
00010100
00000000
00000100
,
00001000
00000002
00000200
00000303
,
00000010
00001000
00000010
00001000
,
00000001
00000010
00000100
00000000
,
00001000
00000100
00010000
00001000
,
00010000
00100000
20000000
30000000
,
00010000
00100000
00010000
00100000
,
00001000
00010000
00000100
00000000
,
00001000
00000010
00000001
00000010
,
00001000
00000000
00000001
00000000
00001000
00000000
00000010
00000100
,
00000010
00000000
00001000
00000000
00001100
00000000
00000000
00000100
,
00010000
00000000
00001000
00100000
00000000
00000000
00010000
00000000
,
10000000
00010000
10010000
00100000
,
10000000
00000000
00100000
01000000
00000000
00000000
00010000
00100000
,
00001000
00010000
00011000
00010000
,
00000100
00000000
00000010
00000100
00000000
00000000
00001000
00000000
,
00000001
00000000
00000100
00000000
00000001
00000000
00001000
00000100
,
00000000
00001000
00000100
00000000
00000000
00000000
00010000
00000000
,
00002000
00100000
00100000
00103000
,
00001000
00000000
00100000
00010000
00000000
00000000
10000000
00000000
,
02000000
00000000
00100000
00000000
03100000
00000000
00001000
00100000
,
00000000
00010000
00000000
00100000
00000000
00000000
00001000
00000000
,
00020000
00000100
00000100
00030100
,
00010000
00000000
00000100
00000010
00000000
00000000
00000001
00000000
,
00000100
00000000
00000010
00000000
00001000
00000000
00000001
00000100
,
00000002
00000000
00000003
00001000
,
00001100
00000000
00000100
00000000
00000010
00000100
00000000
00000000
,
00011000
00000000
00001000
00000000
00010000
00001000
00000000
00000000
,
00110000
00010000
10000000
10000000
,
00100000
00000000
01000000
00100000
00000000
00000000
00000000
00000000
,
10010000
00000000
10000000
00000000
00010000
01000000
00000000
00000000
,
01100000
00000000
01000000
00000000
00010000
01000000
00000000
00000000
,
00200000
00000000
02300000
00000000
,
03020000
00000000
00130000
00000000
,
00101000
00000000
00001000
00000000
00010000
00000100
00000000
00000000
,
00001100
00000000
00001000
00000000
00000001
00000100
00000000
00000000
,
00000010
00000100
00000001
00000010
,
00000100
00001000
00000000
00000100
,
00020000
00000000
00031000
00100000
,
02000000
00000000
13000000
00010000
,
00200000
00000000
00302000
00000000
,
00023000
00000000
00030200
00000000
,
00001300
00000000
00000001
00000000
,
00000010
00000000
00000100
00000000
,
00002000
00000000
00023000
00000000
,
00030000
00000000
00000000
00000000
;

//---------------dance-double - ----------------
#NOTES:
     dance-double:
     :
     Easy:
     3:
     0.220306,0.262246,0.156688,0.206169,0.000000,143.000000,19.000000,25.000000,0.000000,0.000000,0.000000,0.220306,0.262246,0.156688,0.206169,0.000000,143.000000,19.000000,25.000000,0.000000,0.000000,0.000000:
00000000
00000000
00000000
00000000
,
00000000
00000000
00000000
00000000
,
00002000
00000000
00023000
00000000
,
00030200
00000000
00000320
00000000
,
00000031
00000100
00000000
00000010
,
00001000
00000100
00000000
00010000
,
00001000
00010000
00000000
00001000
,
00100000
01000000
10000000
00010000
,
01000000
00100000
00000000
01000000
,
00001000
00020000
00002000
00033000
,
00010000
00000100
00010000
00000100
,
00001000
00000000
00000001
00000000
,
00000010
00000001
00000100
00000010
,
00001000
00000000
00000100
00000000
,
00010000
00001000
00010000
00001000
,
00100000
00000000
01000000
00000000
,
10000000
00010000
01000000
00100000
,
01000000
00000000
00010000
00000000
,
00100000
00100000
00100000
00000000
,
00001000
00010000
00000100
00000000
,
00000010
00000010
00000010
00000000
,
00000001
00001000
00000001
00000000
,
00000100
00000100
00000100
00000000
,
00000010
00010000
00001000
00000000
,
01000000
01000000
01000000
00100000
,
00200000
00000000
00300000
10000000
,
10020000
00000000
02030000
00000000
,
03100000
10000000
01000000
00000000
,
00200000
00000000
00302000
00000000
,
00013000
00000100
00001000
00000010
,
00000200
00000000
00000302
00000000
,
00000013
00000100
00001000
00000000
,
00000002
00000000
00000203
00000000
,
00000310
00000000
00001000
00000001
,
00001001
00001001
00001001
00000000
,
00001100
00001100
00001100
00000000
,
00000100
00010000
00001000
00100000
,
01000000
00000000
10000000
00000000
,
01010000
01010000
01010000
00000000
,
10100000
10100000
10100000
00000000
,
00010000
00100000
01000000
00000000
,
10000000
00000000
00010000
00000000
,
00110000
00110000
00110000
00000000
,
00011000
00011000
00011000
00000000
,
00001000
00000100
00000001
00000000
,
00000010
00000000
00000100
00002000
,
00000200
00003300
00000010
00000002
,
00000200
00000303
00000010
00001000
,
00000200
00000000
00020300
00000000
,
00032000
00000000
00203000
00000000
,
00310000
00000000
10000000
00000000
,
01000000
00000000
00100000
00000000
,
00020000
00000000
02030000
00000000
,
03000000
00000000
00000000
00000000
;
