#TITLE:Everlasting Love + You;
#SUBTITLE:;
#ARTIST:Akitaka Toyama;
#TITLETRANSLIT:;
#SUBTITLETRANSLIT:;
#ARTISTTRANSLIT:;
#GENRE:Dance;
#CREDIT:;
#BANNER:Everlasting Love + You-bn.png;
#BACKGROUND:Everlasting Love + You-bg.png;
#LYRICSPATH:;
#CDTITLE:;
#MUSIC:Everlasting Love + You.mp3;
#OFFSET:-0.164000;
#SAMPLESTART:6.294000;
#SAMPLELENGTH:12.387000;
#LASTBEATHINT:404.000000;
#SELECTABLE:YES;
#BPMS:0.000000=155.000000
;
#STOPS:
;
#BGCHANGES:;
#KEYSOUNDS:;
#ATTACKS:;

//---------------dance-single - ----------------
#NOTES:
     dance-single:
     :
     Hard:
     7:
     0.506551,0.470934,0.220044,0.559541,0.000000,440.000000,35.000000,89.000000,0.000000,0.000000,0.000000,0.506551,0.470934,0.220044,0.559541,0.000000,440.000000,35.000000,89.000000,0.000000,0.000000,0.000000:
0000
0000
0000
0000
,
0000
0000
0000
0000
,
0000
0000
0000
0000
,
0000
0000
0000
0000
,
2001
0010
3002
0010
,
0203
0001
0320
1000
,
0230
0010
0302
1000
,
0023
0100
0230
1000
,
0320
0100
0032
0010
,
2003
0001
3020
1000
,
0230
0001
0320
0100
,
2030
0100
3200
0310
,
0110
0000
0010
0001
1000
0000
0010
0000
,
1000
0000
0100
1000
0001
0000
0000
0000
,
0010
0000
0001
0010
0100
0000
1000
0000
,
0001
0000
0100
0010
1000
0000
0000
0000
,
0010
0000
0100
0001
0010
0000
0100
0000
,
1000
0000
0010
1000
0100
0000
0000
0000
,
0010
0000
0100
0010
0001
0000
1000
0000
,
0000
0001
0000
0100
0010
0000
1000
0000
,
0110
0000
0001
1000
0001
0000
1000
0000
,
0100
1000
0001
0100
0010
0100
0001
0000
,
0010
0000
0100
1000
0001
0000
1000
0010
,
0000
0200
0000
0301
0010
0000
0100
0000
,
1100
0000
1000
0001
0100
0000
0010
0100
,
0001
0000
1000
0001
1000
0100
1000
0000
,
0001
0000
0100
0010
2000
0000
3100
0010
,
0000
0001
1000
0001
0100
0000
0010
0000
,
1001
0000
0010
0100
0001
0000
0010
0100
,
1000
0000
1000
0100
0010
0001
0100
0000
,
0010
0000
0100
0001
1000
0000
0001
0020
,
0000
0032
0000
1003
0010
0100
0020
0000
,
1030
0000
0100
0010
0001
0000
1000
0001
,
0000
0100
0000
0001
1000
0100
0010
0000
,
1001
0000
0100
0010
0001
1000
0001
0010
,
0000
0001
1000
0100
2000
0000
3000
0000
,
1002
0000
0023
0032
,
2003
0000
3100
1000
0002
0000
0103
0000
,
0210
0000
0302
0023
,
0230
0000
2300
0000
3020
0000
0130
0001
,
2000
0001
3020
1000
,
0230
0001
0320
0100
,
2030
0100
3002
0010
,
0203
0010
0302
1003
,
2001
0000
3020
2030
,
3002
0000
0013
0001
0200
0000
0310
0000
,
1020
0000
2030
3002
,
0023
0000
0031
1000
0100
0000
0010
0001
,
0200
0001
0320
0100
,
2030
0100
3002
0010
,
2003
0010
3200
0010
,
0320
0001
0230
1300
,
1100
0000
0101
0000
1100
0000
0001
0100
,
0001
1000
0100
1000
0001
0000
0010
0000
,
0011
0000
1010
0000
0011
0000
0010
0001
,
1000
0010
1000
0001
0100
0000
0010
0100
,
0020
2030
3002
0000
,
0023
0000
0230
0000
,
2300
0010
3002
0010
,
2003
0100
3002
0103
,
1010
0000
0011
0000
1010
0000
1000
0100
,
1000
0001
0100
0001
0010
0000
0001
0000
,
0101
0000
1100
0000
0101
0000
0100
0010
,
0100
0001
1000
0100
1000
0000
0010
0100
,
0010
1000
0001
0000
0020
0000
0000
0000
,
0230
0000
2300
0000
,
3002
0010
2003
0010
,
3002
0100
2003
0100
,
3001
0000
1000
0000
0100
0000
1000
0001
,
0000
1000
0000
0000
0020
0000
0000
0000
,
0230
0000
0002
0003
,
0020
0030
2000
3000
,
0310
0000
0100
0010
0100
0000
0001
1000
,
0000
0001
0000
0000
2000
0000
0000
0000
,
3020
0000
0002
0003
,
0200
0300
2000
3030
,
0001
0000
1000
0100
1000
0000
0001
0100
,
0000
0010
0000
1000
0001
0000
1000
0000
,
0100
0000
1000
0001
1000
0000
0010
0100
,
0000
0010
0000
1000
0001
0000
0010
0000
,
0001
1000
0001
1000
,
0010
0100
0010
1000
,
0001
1000
0000
0100
1000
0000
0000
0001
,
0000
0100
0001
0100
0010
0000
0110
0000
,
1001
0000
1100
0000
1001
0000
0001
0100
,
0001
1000
0100
1000
0001
0000
0100
0000
,
0110
0000
0101
0000
0110
0000
1000
0100
,
1000
0001
0010
0001
0100
0000
0010
0100
,
0002
0023
0100
0100
,
1000
1000
0100
0100
,
0230
0010
0001
0001
,
0010
0010
1000
1300
,
1100
0000
1001
0000
0101
0000
1000
0010
,
1000
0001
0010
0100
0010
0000
0001
0000
,
0011
0000
1001
0000
1010
0000
0001
1000
,
0010
0100
0010
1000
0001
0000
1000
0100
,
2000
3020
1000
1000
,
0100
0100
0001
0001
,
0130
0000
0100
0000
0001
0000
0001
1000
,
0010
0100
0010
1000
0001
0010
0001
1000
;

//---------------dance-single - ----------------
#NOTES:
     dance-single:
     :
     Medium:
     5:
     0.391589,0.439538,0.232618,0.377219,0.000000,339.000000,37.000000,60.000000,0.000000,0.000000,0.000000,0.391589,0.439538,0.232618,0.377219,0.000000,339.000000,37.000000,60.000000,0.000000,0.000000,0.000000:
0000
0000
0000
0000
,
0000
0000
0000
0000
,
0000
0000
0000
0000
,
0000
0000
0000
0000
,
2100
0000
3002
0000
,
0023
0000
0230
0000
,
2300
0000
3020
0000
,
0032
0000
0023
0000
,
0230
0000
0302
0000
,
0023
0000
0230
0000
,
2300
0000
3002
0000
,
2003
0000
3200
0000
,
0310
0001
1000
0010
,
1000
0000
0100
0010
0001
0000
0000
0000
,
1000
0001
0100
0010
,
1000
0000
0001
1000
0100
0000
0000
0000
,
0110
0100
1000
0001
,
0100
0000
0010
1000
0100
0000
0000
0000
,
0010
0001
0100
0001
,
0000
1000
0000
0100
0020
0000
0030
0000
,
1001
1000
0001
0001
,
1000
0000
0010
1000
0001
1000
0010
0000
,
1000
0000
0001
0000
0100
0000
0000
0001
,
0000
0010
0000
0001
0200
0000
0310
0000
,
1001
0001
1000
1000
,
0010
0000
1000
0001
1000
0100
0010
0000
,
0001
0000
1000
0000
0001
0000
0000
0010
,
0000
0100
0020
0000
0200
0000
0330
0000
,
1100
1000
0100
0100
,
0010
0000
0100
1000
0001
1000
0100
0000
,
1000
0000
0010
0000
0100
0000
0000
0001
,
0000
0010
0000
0001
2000
0000
3000
0000
,
0011
0010
0001
0001
,
0100
0000
0010
1000
0001
1000
0010
0000
,
0100
0000
0001
0000
1000
0000
0000
0010
,
0000
1000
0001
2000
0002
0000
3003
0000
,
0202
0300
1000
1000
,
1000
0000
1003
0001
1000
0000
0000
0000
,
2200
0300
0010
0010
,
0001
0001
0010
0001
,
3002
0000
0020
0030
,
2000
3000
0200
0300
,
2003
0000
0200
0300
,
0020
0030
0002
3003
,
2020
0030
0001
0001
,
0001
0000
3001
1000
0001
0000
0100
0000
,
0022
0030
1000
1000
,
0100
0100
1000
0100
,
2003
0000
0002
0003
,
0020
0030
0200
0300
,
3002
0000
2000
3000
,
0200
0000
0300
0000
0013
0000
0001
1000
,
0010
1001
0110
0010
,
1000
0000
0100
0010
0001
0000
1000
0000
,
1100
0011
1100
0001
,
0010
0001
1000
0000
0010
0000
0100
0000
,
0001
1000
0002
0000
0100
0000
0000
0000
,
1000
0000
0100
0000
,
2003
0000
0010
0000
,
0001
0000
3010
0000
,
1001
0110
1001
1000
,
0001
0010
0100
0000
1000
0000
0010
0000
,
0101
1010
0101
1000
,
0010
0100
0010
0000
1000
0000
0100
0000
,
0010
0001
0200
0000
0010
0000
0000
0000
,
1000
0000
0001
0000
,
0320
0000
0001
0000
,
0100
0000
1000
0030
,
1001
0000
1000
0000
1000
0000
0000
0001
,
0000
1000
0000
0000
0010
0000
0000
0000
,
0200
0000
0302
0000
,
2003
0000
3200
0000
,
0310
0000
0010
0000
0010
0000
0000
0001
,
0000
1000
0000
0000
0010
0000
0000
0000
,
2000
0000
3002
0000
,
0203
0000
0302
0000
,
0013
0000
0010
0000
0010
0000
0000
0100
,
0000
0010
0000
0000
0001
0000
0000
0000
,
1000
0000
1000
0000
1000
0000
0000
0001
,
0000
0100
0000
0000
0010
0000
0000
0000
,
1000
0000
0001
0000
,
1000
0000
0001
0000
,
0100
0000
0010
0100
0010
0000
1000
0001
,
0000
1000
0001
0000
0010
0000
1001
0000
,
1100
0101
1100
0001
,
0010
0001
1000
0001
0010
0000
0001
0000
,
1010
0011
1010
0001
,
1000
0010
0100
0001
0010
0000
0100
0000
,
1000
0001
2000
0000
0100
0000
0000
0000
,
0010
0000
3001
0100
,
1001
0010
1000
0001
,
0100
0000
0010
0000
1000
0100
0010
0000
,
1100
0101
0011
1000
,
0001
0010
0100
1000
0001
0000
1000
0000
,
0011
1010
1100
0001
,
1000
0100
0010
0001
1000
0000
0110
0000
,
0001
1000
0002
0000
0010
0000
0000
0000
,
0100
0000
0000
0000
1003
0000
0001
1000
,
0100
0000
1000
0000
0010
0100
0000
0001
,
0000
1000
0000
0100
0000
0010
0000
0001
;

//---------------dance-single - ----------------
#NOTES:
     dance-single:
     :
     Easy:
     3:
     0.238905,0.250850,0.144600,0.075444,0.000000,231.000000,23.000000,12.000000,0.000000,0.000000,0.000000,0.238905,0.250850,0.144600,0.075444,0.000000,231.000000,23.000000,12.000000,0.000000,0.000000,0.000000:
0000
0000
0000
0000
,
0000
0000
0000
0000
,
0000
0000
0000
0000
,
0000
0000
0000
0000
,
0010
0000
0010
0000
,
1000
0000
1000
0000
,
0100
0000
0100
0000
,
0010
0000
0010
0000
,
0001
0000
0001
0000
,
1000
0000
1000
0000
,
0010
0000
0010
0000
,
0100
0000
0100
0000
,
0001
0000
0010
0000
,
0100
0000
1000
0000
,
0010
0000
0001
0000
,
0010
0000
1000
0000
,
0100
0000
0010
0000
,
0001
0000
1000
0000
,
0001
0000
0100
0000
,
0220
0000
0330
0001
,
1001
1000
0010
0000
,
0100
0000
0001
0010
,
0100
0000
1000
0000
,
0001
0100
0001
0000
,
1000
0000
0010
0000
,
1000
0100
0010
0000
,
0001
0000
0010
0000
,
0100
1000
0010
0000
,
0100
0000
0001
0000
,
1000
0001
1000
0000
,
0010
0000
1000
0000
,
0100
0010
0001
0000
,
0100
0000
0010
0000
,
1000
0100
1000
0000
,
0001
0000
0010
0000
,
0001
0010
0100
0000
,
2001
0000
0010
0000
,
0002
0000
3003
0000
,
1002
0000
0010
0000
,
0100
0000
1003
0000
,
1000
0000
0100
0000
,
0010
0000
0001
0000
,
1000
0000
0100
0000
,
0010
0000
0001
0000
,
2001
0000
0001
0000
,
0200
0000
3300
0000
,
1002
0000
1000
0000
,
0010
0000
0103
0000
,
0001
0000
0010
0000
,
0100
0000
1000
0000
,
0001
0000
0010
0000
,
0100
0000
1000
0000
,
1001
0010
1001
0000
,
1000
0100
0010
0000
,
1001
0100
1001
0000
,
0001
0010
0100
0000
,
1000
0100
0010
0000
,
0001
0000
1000
0000
,
0010
0000
0100
0000
,
0001
0000
1000
0001
,
1001
0010
1001
0000
,
1000
0001
0100
0000
,
1001
0100
1001
0000
,
0010
1000
0001
0000
,
0010
0100
1000
0000
,
0010
0000
0100
0000
,
0001
0100
0001
0000
,
1000
0100
1000
0000
,
0010
0000
0010
0000
,
0010
0100
0010
0000
,
0200
0000
0000
0000
,
0302
0000
0000
0000
,
1003
0000
1000
0000
,
0100
1000
0001
0000
,
2000
0000
0000
0000
,
3020
0000
0000
0000
,
0130
0000
0001
0000
,
1000
0001
1000
0000
,
0010
0000
0100
0000
,
0001
1000
0001
0000
,
0010
0000
0010
0000
,
0010
0000
0010
0000
,
0100
1000
0001
0000
,
0010
0001
0100
1001
,
0110
0001
0110
0000
,
1000
0001
0100
0000
,
0110
1000
0110
0000
,
0001
1000
0010
0000
,
1000
0010
0100
0000
,
0001
0000
1000
0000
,
0001
0010
0001
0000
,
1000
0100
1000
0000
,
0110
1000
0110
0000
,
1000
0010
0100
0000
,
0110
0001
0110
0000
,
0001
0100
0010
0000
,
1000
0001
0010
0000
,
0001
0000
1000
0000
,
0100
1000
0001
0100
,
0001
1000
0010
1000
;

//---------------dance-single - ----------------
#NOTES:
     dance-single:
     :
     Beginner:
     1:
     0.134721,0.218944,0.069157,0.188609,0.000000,109.000000,11.000000,30.000000,0.000000,0.000000,0.000000,0.134721,0.218944,0.069157,0.188609,0.000000,109.000000,11.000000,30.000000,0.000000,0.000000,0.000000:
0000
0000
0000
0000
,
0000
0000
0000
0000
,
0000
0000
0000
0000
,
0000
0000
0000
0000
,
0020
0000
0000
0000
,
0030
0000
0000
0000
,
2000
0000
0000
0000
,
3000
0000
0000
0000
,
0002
0000
0000
0000
,
0003
0000
0000
0000
,
0200
0000
0000
0000
,
0300
0000
0000
0000
,
0001
0000
0001
0000
,
0001
0000
0000
0000
,
0010
0000
0010
0000
,
0010
0000
0000
0000
,
0100
0000
0100
0000
,
0100
0000
0000
0000
,
1000
0000
1000
0000
,
1000
0000
0000
0000
,
1001
0000
0000
0000
,
0100
0000
0000
0000
,
0010
0000
0000
0000
,
1000
0000
0001
0000
,
0100
0000
0000
0000
,
0010
0000
0000
0000
,
1000
0000
0000
0000
,
0100
0000
0010
0000
,
0001
0000
0000
0000
,
1000
0000
0000
0000
,
0010
0000
0000
0000
,
0100
0000
0010
0000
,
1000
0000
0000
0000
,
0001
0000
0000
0000
,
0010
0000
0000
0000
,
0100
0000
0010
0000
,
0002
0000
0000
0000
,
0003
0000
0000
0000
,
0200
0000
0000
0000
,
0300
0000
0000
0000
,
0010
0000
1000
0000
,
0010
0000
0000
0000
,
0100
0000
0001
0000
,
0100
0000
0000
0000
,
0020
0000
0000
0000
,
0030
0000
0000
0000
,
2000
0000
0000
0000
,
3000
0000
0000
0000
,
0100
0000
0010
0000
,
0100
0000
0000
0000
,
1000
0000
0001
0000
,
1000
0000
0000
0000
,
0220
0000
0330
0000
,
0001
0000
1000
0000
,
2002
0000
3003
0000
,
0100
0000
0010
0000
,
0100
0000
0000
0000
,
1000
0000
0000
0000
,
0001
0000
0000
0000
,
0010
0000
0000
0000
,
2002
0000
3003
0000
,
0010
0000
1000
0000
,
0220
0000
0330
0000
,
0100
0000
0001
0000
,
1000
0000
0000
0000
,
0001
0000
0000
0000
,
0010
0000
0000
0000
,
0100
0000
0000
0000
,
0020
0000
0000
0000
,
0030
0000
0000
0000
,
0001
0000
0000
0000
,
1000
0000
0000
0000
,
0020
0000
0000
0000
,
0030
0000
0000
0000
,
0100
0000
0000
0000
,
0001
0000
0000
0000
,
2000
0000
0000
0000
,
3000
0000
0100
0000
,
0002
0000
0000
0000
,
0003
0000
0100
0000
,
1000
0000
0000
0000
,
0001
0000
0000
0000
,
1001
0000
0100
0000
,
2002
0000
3003
0000
,
0220
0000
0330
0000
,
1000
0000
0001
0000
,
2002
0000
3003
0000
,
0010
0000
0001
0000
,
1000
0000
0000
0000
,
0100
0000
0000
0000
,
0010
0000
0000
0000
,
0001
0000
0000
0000
,
2002
0000
3003
0000
,
1000
0000
0010
0000
,
0220
0000
0330
0000
,
0100
0000
0001
0000
,
1000
0000
0000
0000
,
0001
0000
0000
0000
,
0100
0000
0010
0000
,
1000
0000
0001
0000
;

//---------------dance-double - ----------------
#NOTES:
     dance-double:
     :
     Hard:
     7:
     0.497569,0.470934,0.157174,0.509245,0.000000,448.000000,25.000000,81.000000,0.000000,0.000000,0.000000,0.497569,0.470934,0.157174,0.509245,0.000000,448.000000,25.000000,81.000000,0.000000,0.000000,0.000000:
// measure 0
00000000
00000000
00000000
00000000
,  // measure 1
00000000
00000000
00000000
00000000
,  // measure 2
00000000
00000000
00000000
00000000
,  // measure 3
00000000
00000000
00000000
00000000
,  // measure 4
20000000
01000000
30020000
00100000
,  // measure 5
02030000
00100000
03002000
00100000
,  // measure 6
00023000
00001000
00030020
00001000
,  // measure 7
00000230
00000010
00000302
00000010
,  // measure 8
00002003
00000100
00003020
00001000
,  // measure 9
00020030
00000100
00032000
00010000
,  // measure 10
02003000
00100000
03020000
01000000
,  // measure 11
20030000
01000000
30200000
01000000
,  // measure 12
20300000
00000000
30100000
01000000
00010000
00000000
01000000
00000000
,  // measure 13
00100000
10000000
00010000
00100000
00002000
00000000
00003000
00000000
,  // measure 14
00020000
00000000
00030100
00000010
00000100
00000000
00001000
00000000
,  // measure 15
00000010
00000100
00000001
00000010
00000200
00000000
00000300
00000000
,  // measure 16
00020000
00000000
00031000
00100000
00010000
00000000
01000000
00000000
,  // measure 17
00100000
10000000
01000000
00100000
00020000
00000000
00030000
00000000
,  // measure 18
00200000
00000000
00301000
00010000
00000100
00000000
00001000
00000000
,  // measure 19
00000000
00000010
00000000
00000010
00000100
00000000
00001001
00000000
,  // measure 20
00000010
00000001
00000100
00000010
,  // measure 21
00001000
00000100
00010000
00000000
00001000
00100000
01000000
00000000
,  // measure 22
00100000
00000000
00010000
01000000
10000000
00000000
01000000
00010000
,  // measure 23
00000000
10000000
00000000
01000000
00100000
00000000
00010000
00000000
,  // measure 24
00110000
00000000
00001000
00010000
00000100
00000000
00000010
00000100
,  // measure 25
00001000
00000000
00000100
00000010
00000001
00001000
00000100
00000000
,  // measure 26
00010000
00000000
00001000
00100000
00010000
00000000
01000000
00100000
,  // measure 27
00000000
10000000
00010000
10000000
01000000
00000000
00100000
00000000
,  // measure 28
10010000
00000000
00100000
10000000
00010000
00000000
00100000
00001000
,  // measure 29
00010000
00000000
00000100
00000000
00001000
00000100
00000010
00000000
,  // measure 30
00000001
00000000
00000010
00000100
00001000
00000000
00000010
00000100
,  // measure 31
00000000
00000001
00000000
00001000
00000100
00000000
00000010
00000000
,  // measure 32
00001001
00000000
00000010
00001000
00000100
00000000
00010000
00001000
,  // measure 33
00010000
00000000
00001000
00100000
01000000
00100000
00010000
00000000
,  // measure 34
10000000
00000000
00100000
01000000
00010000
00000000
00100000
01000000
,  // measure 35
00000000
10000000
00010000
10000000
00100000
00000000
01000000
00000000
,  // measure 36
01020000
00000000
00230000
02300000
,  // measure 37
23000000
00000000
31000000
00100000
00002000
00000000
00010000
00000000
,  // measure 38
00003200
00000000
00000010
00000301
,  // measure 39
00001000
00000000
00000100
00000000
00000010
00000000
00000001
00001000
,  // measure 40
00000200
00000000
00000320
00000000
,  // measure 41
00000032
00000000
00002003
00000000
,  // measure 42
00003200
00001000
00020300
00001000
,  // measure 43
00032000
00100000
02003000
00100000
,  // measure 44
03020000
00000000
20030000
32000000
,  // measure 45
03200000
00000000
00301000
00010000
00000200
00000000
00001000
00000000
,  // measure 46
00000320
00000000
00000032
00000203
,  // measure 47
00000320
00000000
00001030
00000100
00020000
00000000
00031000
00100000
,  // measure 48
02000000
00000000
23000000
00000000
,  // measure 49
30200000
00000000
00320000
00000000
,  // measure 50
00032000
00010000
00023000
00001000
,  // measure 51
00030200
00000000
00000010
00000000
00001300
00000000
00000010
00000100
,  // measure 52
00000001
00000000
00000011
00000000
00001010
00000000
00000100
00000001
,  // measure 53
00000010
00000100
00010000
00001000
00010000
00000000
00001000
00100000
,  // measure 54
00010000
00000000
01010000
00000000
11000000
00000000
00100000
01000000
,  // measure 55
00010000
10000000
01000000
00100000
00001000
00000000
00010000
00000100
,  // measure 56
00000010
00000100
00002000
00000000
00003020
00000000
00000000
00000000
,  // measure 57
00000230
00000000
00000302
00000000
,  // measure 58
00002003
00000100
00003002
00000100
,  // measure 59
00002003
00000000
00000010
00000000
00003002
00000000
00000013
00000001
,  // measure 60
00000100
00000000
00000101
00000000
00001100
00000000
00001000
00000100
,  // measure 61
00010000
00001000
00100000
01000000
10000000
00000000
00100000
01000000
,  // measure 62
00010000
00000000
11000000
00000000
01010000
00000000
00100000
01000000
,  // measure 63
00010000
00100000
00001000
00010000
00000010
00000000
00000100
00000010
,  // measure 64
00001000
00000100
00000020
00000000
00000230
00000000
00000000
00000000
,  // measure 65
00020300
00000000
00032000
00000000
,  // measure 66
00203000
00010000
02300000
10000000
,  // measure 67
03200000
00010000
02300000
13000000
,  // measure 68
10010000
00000000
00010000
00100000
00010000
00000000
00010000
01000000
,  // measure 69
00000000
00100000
00000000
10000000
00010000
00000000
00100000
00000000
,  // measure 70
02000000
00000000
20000000
30000000
,  // measure 71
00200000
00300000
00020000
03030000
,  // measure 72
00001000
00000000
00010000
00001000
00010000
00000000
00001000
00000100
,  // measure 73
00000000
00000100
00000000
00000001
00001000
00000000
00000010
00000000
,  // measure 74
00000200
00000000
00000002
00000003
,  // measure 75
00000020
00000030
00002000
00003300
,  // measure 76
00010000
00000000
00001000
00010000
00001000
00000000
00001000
00100000
,  // measure 77
00000000
00100000
00000000
00010000
10000000
00000000
00100000
00000000
,  // measure 78
01000000
00010000
01000000
00000000
00100000
00000000
10000000
00010000
,  // measure 79
00000000
00010000
00000000
01000000
00001000
00000000
00010000
00000000
,  // measure 80
00000100
00000010
00000001
00001000
,  // measure 81
00000100
00010000
00001000
00100000
,  // measure 82
00010000
01000000
00000000
00100000
10000000
00100000
01000000
00010000
,  // measure 83
00000000
00100000
01000000
10000000
00010000
00000000
01100000
00000000
,  // measure 84
10010000
00000000
11000000
00000000
01010000
00000000
00100000
00001000
,  // measure 85
00010000
00000100
00000010
00000100
00001000
00000000
00000010
00000100
,  // measure 86
00000001
00000000
00001100
00000000
00000101
00000000
00000010
00001000
,  // measure 87
00000100
00000010
00000100
00010000
00001000
00000000
00001000
00100000
,  // measure 88
00010000
10000000
00200000
00000000
10000000
00000000
10000000
00000000
,  // measure 89
01000000
01000000
00010000
00310000
,  // measure 90
00001000
00000200
00001000
00001000
,  // measure 91
00000010
00000010
00000001
00000301
,  // measure 92
00001100
00000000
00000101
00000000
00001100
00000000
00001000
00000001
,  // measure 93
00001000
00000100
00010000
00001000
01000000
00000000
00100000
01000000
,  // measure 94
00010000
00000000
11000000
00000000
00110000
00000000
01000000
00100000
,  // measure 95
10000000
01000000
00100000
00001000
00010000
00000000
00001000
00100000
,  // measure 96
01000000
10000000
00200000
00000000
10000000
00000000
10000000
00000000
,  // measure 97
01000000
01000000
00010000
00310000
,  // measure 98
00001000
00000000
00100000
00000000
00010000
00000000
01000000
00010000
,  // measure 99
00100000
00001000
00010000
00000100
00001000
00000010
00000100
00000001
;

//---------------dance-double - ----------------
#NOTES:
     dance-double:
     :
     Medium:
     5:
     0.380811,0.439538,0.176035,0.358358,0.000000,339.000000,28.000000,57.000000,0.000000,0.000000,0.000000,0.380811,0.439538,0.176035,0.358358,0.000000,339.000000,28.000000,57.000000,0.000000,0.000000,0.000000:
// measure 0
00000000
00000000
00000000
00000000
,  // measure 1
00000000
00000000
00000000
00000000
,  // measure 2
00000000
00000000
00000000
00000000
,  // measure 3
00000000
00000000
00000000
00000000
,  // measure 4
20010000
00000000
32000000
00000000
,  // measure 5
03200000
00000000
00320000
00000000
,  // measure 6
00032000
00000000
00003200
00000000
,  // measure 7
00000320
00000000
00000032
00001003
,  // measure 8
00001002
00000000
00000023
00000000
,  // measure 9
00000230
00000000
00002300
00000000
,  // measure 10
00023000
00000000
00230000
00000000
,  // measure 11
02300000
00000000
23000000
30010000
,  // measure 12
10000000
00100000
01000000
00010000
,  // measure 13
00100000
00000000
01000000
10000000
00010000
00000000
00000000
00000000
,  // measure 14
00100000
00001000
00010000
00000010
,  // measure 15
00000100
00000000
00000010
00001000
00000001
00000000
00000000
00000000
,  // measure 16
00000100
00000010
00001000
00000100
,  // measure 17
00000010
00000000
00000100
00010000
00001000
00000000
00000000
00000000
,  // measure 18
00100000
00010000
10000000
00100000
,  // measure 19
00000000
01000000
00000000
00010000
01000000
00000000
00100000
00000000
,  // measure 20
10000000
10000000
01000000
01000000
,  // measure 21
00100000
00000000
00001000
00000000
00010000
00000100
00010000
00000000
,  // measure 22
00001000
00001000
00000100
00000100
,  // measure 23
00000001
00000000
00001000
00000001
00000010
00000000
00000100
00000000
,  // measure 24
00000010
00000010
00000001
00000001
,  // measure 25
00001000
00000000
00000100
00000000
00010000
00001000
00010000
00000000
,  // measure 26
00001000
00000000
00001000
00000000
00100000
00000000
00000000
00010000
,  // measure 27
00000000
10000000
00010000
00000000
01000000
00000000
00000000
00000000
,  // measure 28
00100000
10000000
00010000
10000000
,  // measure 29
00100000
00000000
01000000
00000000
00010000
00100000
00010000
00000000
,  // measure 30
10000000
00000000
01000000
00000000
00100000
00000000
00001000
00010000
,  // measure 31
00000000
00001000
00000000
00010000
00000100
00000000
00000010
00000000
,  // measure 32
00000100
00001000
00000001
00000100
,  // measure 33
00000010
00000000
00001000
00000000
00000100
00000010
00000001
00000000
,  // measure 34
00001000
00000000
00000010
00000000
00000100
00000000
00000010
00001000
,  // measure 35
00000000
00000001
00000100
00000002
00000200
00000000
00000303
00000000
,  // measure 36
00002010
00000000
00000100
00000100
,  // measure 37
00003200
00000000
00010300
00000100
00010000
00000000
00001000
00000000
,  // measure 38
00200000
00000000
00010000
00010000
,  // measure 39
00010000
01000000
00010000
01000000
,  // measure 40
02300000
00000000
20000000
30000000
,  // measure 41
00200000
00300000
20000000
33000000
,  // measure 42
00200000
00000000
00020000
00030000
,  // measure 43
02000000
03000000
00020000
00330000
,  // measure 44
00102000
00000000
00013000
00000100
,  // measure 45
00001000
00000000
00000010
00000100
00000010
00000000
00001000
00000000
,  // measure 46
00000002
00000000
00000010
00000010
,  // measure 47
00001003
00000000
00000001
00000100
00000001
00000000
00001000
00000100
,  // measure 48
00002000
00000000
00000020
00000030
,  // measure 49
00000002
00000003
00000200
00003300
,  // measure 50
00000002
00000000
00000020
00000030
,  // measure 51
00002000
00003000
00000200
00000303
,  // measure 52
00001001
00000110
00001001
00000010
,  // measure 53
00001000
00000100
00001000
00000100
00010000
00000000
00001000
00000000
,  // measure 54
00101000
00110000
10010000
00100000
,  // measure 55
01000000
00010000
01000000
00100000
10000000
00000000
00010000
00000000
,  // measure 56
00100000
00001000
00010000
00000000
00002000
00000000
00000000
00000000
,  // measure 57
00010000
00000000
00000100
00003000
,  // measure 58
00000200
00000000
00000010
00000000
,  // measure 59
00001000
00000000
00000001
00000300
,  // measure 60
00000101
00001100
00000101
00000010
,  // measure 61
00000001
00001000
00000100
00010000
00001000
00000000
00100000
00000000
,  // measure 62
00110000
10010000
10100000
01000000
,  // measure 63
00010000
10000000
01000000
00100000
00010000
00000000
01000000
00000000
,  // measure 64
00100000
10000000
00010000
00000000
02000000
00000000
00000000
00000000
,  // measure 65
10000000
00000000
00010000
03000000
,  // measure 66
00200000
00000000
10000000
00000000
,  // measure 67
00010000
00000000
01300000
00001000
,  // measure 68
00010000
00000000
00010000
00000000
00000100
00000000
00000000
00001000
,  // measure 69
00000000
00000001
00000000
00000000
00000100
00000000
00000000
00000000
,  // measure 70
00000020
00000000
00000001
00000000
,  // measure 71
00000100
00000000
00001030
00000000
,  // measure 72
00000010
00000000
00001000
00000000
00000100
00000000
00000000
00010000
,  // measure 73
00000000
00001000
00000000
00000000
00100000
00000000
00000000
00000000
,  // measure 74
02000000
00000000
00010000
00000000
,  // measure 75
00100000
00000000
10000000
03000000
,  // measure 76
01000000
00000000
00100000
00000000
01000000
00000000
00000000
00100000
,  // measure 77
00000000
00001000
00000000
00000000
00010000
00000000
00000000
00000000
,  // measure 78
00001000
00000000
00010000
00000000
00001000
00000000
00000000
00000100
,  // measure 79
00000000
00000010
00000000
00000000
00000100
00000000
00000000
00000000
,  // measure 80
00000010
00000000
00001000
00000000
,  // measure 81
00000001
00000000
00000100
00000000
,  // measure 82
00000010
00000000
00001000
00000000
00000100
00000000
00000000
00010000
,  // measure 83
00000000
00001000
00100000
00002000
00200000
00000000
00303000
00000000
,  // measure 84
00011000
00010100
00011000
00100000
,  // measure 85
00001000
00010000
00000100
00010000
00001000
00000000
00010000
00000000
,  // measure 86
00011000
00101000
00011000
00010000
,  // measure 87
00001000
00100000
00010000
00100000
00001000
00000000
00100000
00010000
,  // measure 88
10000000
01000000
00100000
00000000
00020000
00000000
00000000
00000000
,  // measure 89
20000000
30000000
02000000
03030000
,  // measure 90
20000000
00000000
00200000
00300000
,  // measure 91
00020000
00030000
02000000
33000000
,  // measure 92
11000000
01100000
00110000
00100000
,  // measure 93
00001000
00010000
00000100
00001000
00000100
00000000
00000010
00000000
,  // measure 94
00000011
00000110
00001100
00000010
,  // measure 95
00001000
00000001
00001000
00000010
00000100
00000000
00000001
00000000
,  // measure 96
00000010
00000100
00001000
00000000
00000002
00000000
00000000
00000000
,  // measure 97
00000020
00000030
00002000
00003003
,  // measure 98
00001000
00000000
00000100
00000000
00000010
00000001
00000000
00001000
,  // measure 99
00000000
00000010
00000000
00000100
00000000
00000001
00000000
00001000
;

//---------------dance-double - ----------------
#NOTES:
     dance-double:
     :
     Easy:
     3:
     0.263155,0.250850,0.138313,0.314349,0.000000,221.000000,22.000000,50.000000,0.000000,0.000000,0.000000,0.263155,0.250850,0.138313,0.314349,0.000000,221.000000,22.000000,50.000000,0.000000,0.000000,0.000000:
// measure 0
00000000
00000000
00000000
00000000
,  // measure 1
00000000
00000000
00000000
00000000
,  // measure 2
00000000
00000000
00000000
00000000
,  // measure 3
00000000
00000000
00000000
00000000
,  // measure 4
10000000
00000000
01000000
00000000
,  // measure 5
00100000
00000000
00010000
00000000
,  // measure 6
00001000
00000000
00000100
00000000
,  // measure 7
00000010
00000000
00000001
00000000
,  // measure 8
00000001
00000000
00000010
00000000
,  // measure 9
00000100
00000000
00001000
00000000
,  // measure 10
00010000
00000000
00100000
00000000
,  // measure 11
01000000
00000000
10000000
00000000
,  // measure 12
00020000
00030000
02000000
03000000
,  // measure 13
00200000
00300000
20000000
30000000
,  // measure 14
02000000
03000000
00200000
00300000
,  // measure 15
00002000
00003000
00020000
00030000
,  // measure 16
00000200
00000300
00000020
00000030
,  // measure 17
00000002
00000003
00002000
00003000
,  // measure 18
00000200
00000300
00002000
00003000
,  // measure 19
00000000
00000110
00000101
00000000
,  // measure 20
00001000
00001000
00000100
00000100
,  // measure 21
00000010
00000100
00001000
00000000
,  // measure 22
00000100
00000000
00010000
00000000
,  // measure 23
00001000
00010000
00001000
00000000
,  // measure 24
00100000
00100000
00010000
00010000
,  // measure 25
10000000
00100000
01000000
00000000
,  // measure 26
00010000
00000000
10000000
00000000
,  // measure 27
01000000
00100000
00010000
00000000
,  // measure 28
00000000
01000000
00000000
00001000
,  // measure 29
00000000
00010000
00000100
00000010
,  // measure 30
00000000
00000001
00000000
00000100
,  // measure 31
00000000
00000010
00001000
00000000
,  // measure 32
00001100
00000100
00000000
00010000
,  // measure 33
00000000
00001000
00100000
00010000
,  // measure 34
00000000
10000000
10000000
00000000
,  // measure 35
00010000
00100000
01000000
00000000
,  // measure 36
20000000
00000000
00000000
00000000
,  // measure 37
00100000
00000000
30100000
00000000
,  // measure 38
10020000
00000000
00000000
00000000
,  // measure 39
00100000
00000000
00130000
00000000
,  // measure 40
00200000
00300000
00002000
00003000
,  // measure 41
00020000
00030000
00000200
00000300
,  // measure 42
00000020
00000030
00000002
00000003
,  // measure 43
00000200
00000300
00000020
00000030
,  // measure 44
00001002
00000000
00000000
00000000
,  // measure 45
00000100
00000000
00000103
00000000
,  // measure 46
00002001
00000000
00000000
00000000
,  // measure 47
00000100
00000000
00003100
00000000
,  // measure 48
00020000
00030000
00002000
00003000
,  // measure 49
00200000
00300000
00020000
00030000
,  // measure 50
20000000
30000000
00200000
00300000
,  // measure 51
02000000
03000000
00010000
10000000
,  // measure 52
10010000
01000000
10010000
00000000
,  // measure 53
00100000
10000000
00010000
00000000
,  // measure 54
10010000
01000000
10010000
00000000
,  // measure 55
00100000
00001000
00010000
00000000
,  // measure 56
00000100
00000100
00000010
00000000
,  // measure 57
00000001
00000000
00000100
00000000
,  // measure 58
00000020
00000030
00002000
00003000
,  // measure 59
00000200
00000300
00000020
00000030
,  // measure 60
00001001
00000100
00001001
00000000
,  // measure 61
00000010
00001000
00000001
00000000
,  // measure 62
00001001
00000100
00001001
00000000
,  // measure 63
00000010
00000001
00001000
00000000
,  // measure 64
00000100
00010000
00002000
00003000
,  // measure 65
00200000
00300000
00020000
00030000
,  // measure 66
20000000
30000000
02000000
03000000
,  // measure 67
00200000
00300000
00002000
00003000
,  // measure 68
00010000
00000000
00000000
00000000
,  // measure 69
00000100
00000000
00001000
00000010
,  // measure 70
00000100
00000000
00000100
00000000
,  // measure 71
00000100
00000000
00000100
00000000
,  // measure 72
00000001
00000000
00001000
00000000
,  // measure 73
00000100
00010000
00001000
00000000
,  // measure 74
00100000
00000000
00100000
00000000
,  // measure 75
00100000
00000000
00100000
00000000
,  // measure 76
01000000
00000000
10000000
00000000
,  // measure 77
00010000
01000000
00010000
00000000
,  // measure 78
10000000
00000000
01000000
00000000
,  // measure 79
00100000
00001000
00010000
00000000
,  // measure 80
00000200
00000000
00000300
00000000
,  // measure 81
00000020
00000000
00000030
00000000
,  // measure 82
00000001
00000000
00001000
00000000
,  // measure 83
00000100
00010000
00001000
00000000
,  // measure 84
00011000
00100000
00011000
00000000
,  // measure 85
00010000
00000000
00001000
00000000
,  // measure 86
00011000
00000100
00011000
00000000
,  // measure 87
00010000
00000000
00000100
00000000
,  // measure 88
00000010
00000001
00001000
00000000
,  // measure 89
00000100
00000000
00010000
00000000
,  // measure 90
00002000
00003000
00200000
00300000
,  // measure 91
02000000
03000000
20000000
30000000
,  // measure 92
00110000
00100000
00110000
00000000
,  // measure 93
00001000
00000000
00010000
00000000
,  // measure 94
00001100
00001000
00001100
00000000
,  // measure 95
00000010
00000000
00000001
00000000
,  // measure 96
00001000
00000001
00001000
00000000
,  // measure 97
00000100
00000000
00010000
00000000
,  // measure 98
00001000
00000000
00010000
00000000
,  // measure 99
00000100
00001000
00010000
00100000
;
