#TITLE:Dance All Nite;
#SUBTITLE:;
#ARTIST:Anja;
#TITLETRANSLIT:;
#SUBTITLETRANSLIT:;
#ARTISTTRANSLIT:;
#GENRE:Dance;
#CREDIT:;
#BANNER:Dance All Nite-bn.png;
#BACKGROUND:Dance All Nite-bg.png;
#LYRICSPATH:;
#CDTITLE:PROJECT GOLDENROD-cdtitle.png;
#MUSIC:Dance All Nite.mp3;
#OFFSET:-0.263000;
#SAMPLESTART:58.678001;
#SAMPLELENGTH:16.716000;
#SELECTABLE:YES;
#BPMS:0.000000=115.000000
;
#STOPS:
;
#BGCHANGES:;
#KEYSOUNDS:;
#ATTACKS:;

//---------------dance-single - ----------------
#NOTES:
     dance-single:
     :
     Hard:
     7:
     0.479296,0.466762,0.224607,0.322873,0.063171,400.000000,32.000000,46.000000,0.000000,0.000000,0.000000,0.479296,0.466762,0.224607,0.322873,0.063171,400.000000,32.000000,46.000000,0.000000,0.000000,0.000000:
// measure 0
0000
0000
0000
0000
,  // measure 1
0000
0000
0000
0000
,  // measure 2
0000
0000
0000
0000
,  // measure 3
0000
0000
0000
0000
,  // measure 4
0011
0002
1000
2003
3100
0000
1100
0000
,  // measure 5
0010
0200
0010
0320
0031
0010
0100
1000
,  // measure 6
0001
2000
0010
3020
0130
0000
0101
0000
,  // measure 7
1000
0000
0002
0000
0010
0000
0023
0000
0130
0000
0000
1100
0000
0000
1000
0000
,  // measure 8
0001
0100
0010
1000
,  // measure 9
0001
0000
1000
0100
0110
0000
1001
0000
,  // measure 10
0010
0000
0001
0000
1000
0000
0010
1000
,  // measure 11
0001
0000
1000
0000
1100
0001
1000
0200
,  // measure 12
0000
0310
0001
0200
0000
0310
1000
0200
,  // measure 13
0010
1300
1001
0110
,  // measure 14
0001
0000
0000
0010
0001
0000
1000
0000
0100
0000
1000
0000
0010
0000
0100
0000
,  // measure 15
0010
0000
0000
1000
0001
0000
0010
0000
0110
0000
0000
0000
1001
0000
0000
0000
,  // measure 16
1010
0000
0000
0010
0100
0000
0001
0000
1000
0000
0100
0000
1000
0000
0100
0000
,  // measure 17
0010
0000
0000
0001
0100
0000
0001
0000
0011
0000
0000
0000
1001
0000
2000
0000
,  // measure 18
0000
3100
1000
0002
0000
0103
0001
0020
,  // measure 19
0100
0000
0031
0000
1100
0000
0101
0001
,  // measure 20
1000
0000
0010
0100
0010
0000
1000
0000
0001
0000
1000
0000
0100
0000
0000
0000
,  // measure 21
0010
0100
1000
0001
0020
0100
0130
0010
,  // measure 22
0001
0000
1000
0010
1000
0000
0001
0000
0100
0000
0001
0000
1000
0000
0000
0000
,  // measure 23
0010
1000
0001
1000
0200
0010
0310
0001
,  // measure 24
1000
0000
0010
1000
0010
0000
0100
0000
0001
0000
1000
0000
0001
0000
0000
0000
,  // measure 25
0010
0100
1000
0010
1000
0100
1000
0002
,  // measure 26
0000
0013
0010
0200
0000
1300
1000
0020
,  // measure 27
0130
0000
0100
0000
0000
0010
0010
1000
,  // measure 28
1001
0001
0001
0010
0200
1000
1300
0000
,  // measure 29
1000
0001
1000
0100
0100
0010
0100
1000
,  // measure 30
0010
1000
1000
0100
0020
0001
0031
0000
,  // measure 31
0100
0000
0001
0000
1000
0000
0001
0000
0010
0000
0000
0110
0000
0000
1000
0000
,  // measure 32
0001
0100
0100
0001
2000
0010
3010
0000
,  // measure 33
0100
0001
1000
0001
0010
0100
1000
0010
,  // measure 34
0000
0100
0001
1000
0100
0010
0001
0100
,  // measure 35
0000
0000
0110
0000
0000
0000
0110
0000
0002
0000
0000
0023
0000
0000
0130
1000
,  // measure 36
0001
1000
0010
1000
0010
0100
0001
0100
,  // measure 37
0002
0000
1003
0010
0100
0000
0001
0000
,  // measure 38
1000
0000
0100
1000
0100
1000
0001
0010
,  // measure 39
0001
1000
0100
1000
0001
0000
0100
0000
,  // measure 40
1001
0000
0001
0100
0001
0100
0010
0100
,  // measure 41
0010
1000
0001
2000
0000
3100
1000
0000
,  // measure 42
0010
0100
0010
0100
0001
1000
0001
1000
,  // measure 43
0100
0000
1000
0001
0100
0000
0001
0000
,  // measure 44
1000
1100
0001
0101
,  // measure 45
0010
0100
0110
0000
1000
0000
1001
0000
,  // measure 46
0002
0000
0020
0003
,  // measure 47
0200
0000
0000
0000
0030
0000
0000
0000
1300
0000
0001
1000
0001
1000
0000
0000
,  // measure 48
0020
0000
2000
0030
,  // measure 49
0002
0000
0000
3003
,  // measure 50
0110
0001
0001
0010
0200
1000
1300
0000
,  // measure 51
0010
0100
0100
0010
1000
0100
0010
0001
,  // measure 52
1000
0001
0001
0100
0002
0010
0013
0000
,  // measure 53
0001
0000
1000
0000
0100
0000
1000
0000
0100
0000
0000
0110
0000
0000
0001
0000
,  // measure 54
1000
0010
0010
1000
0200
0010
0310
0000
,  // measure 55
0001
0010
0100
0010
0001
0010
0100
1000
,  // measure 56
0000
0010
0100
0001
0010
0100
1000
0100
,  // measure 57
0000
0000
1001
0000
0000
0000
1001
0000
2000
0000
0000
3020
0000
0000
0130
0001
,  // measure 58
1000
0010
1000
0001
0100
0001
2000
0000
,  // measure 59
3100
0010
0001
0100
0001
0010
0100
1000
,  // measure 60
0001
1000
0100
0010
0100
0010
0002
0000
,  // measure 61
0103
0000
0010
0000
0010
0000
1000
0000
0002
0000
0000
2003
0000
0000
3020
0000
,  // measure 62
1030
0100
0010
0100
1000
0001
0020
0000
,  // measure 63
0130
0010
0001
1000
0100
0010
0001
1000
,  // measure 64
0010
1000
0001
0010
0100
1000
0200
0000
,  // measure 65
1300
0000
0010
0000
0100
0000
0001
0000
1001
0000
0000
1100
0000
0000
0202
0000
,  // measure 66
0000
0000
0303
0000
;

//---------------dance-single - ----------------
#NOTES:
     dance-single:
     :
     Medium:
     5:
     0.370000,0.350071,0.217588,0.259702,0.045623,301.000000,31.000000,37.000000,0.000000,0.000000,0.000000,0.370000,0.350071,0.217588,0.259702,0.045623,301.000000,31.000000,37.000000,0.000000,0.000000,0.000000:
0000
0000
0000
0000
,
0000
0000
0000
0000
,
0000
0000
0000
0000
,
0000
0000
0000
0000
,
1000
0200
0000
0310
0001
0000
1001
0000
,
0001
0020
0000
0130
1000
0001
0010
0000
,
0001
0200
0000
0310
1000
0000
1001
0000
,
1000
0000
0020
0000
0000
0000
0130
0000
0010
0000
0000
0010
0000
0000
0010
0000
,
1000
0100
0010
0001
,
0010
0100
1001
0110
,
0001
0010
0001
1000
,
0100
1000
1010
0101
,
1000
0100
0000
0100
0000
0010
0000
0010
,
0001
0100
0110
1001
,
0010
0000
0000
0001
0000
0000
0010
0000
0000
0001
0000
0000
1000
0000
0010
0000
,
1000
0000
0000
0100
0000
0000
1000
0000
0002
0000
0000
0000
0203
0000
0000
0000
,
0310
0000
0000
1000
0000
0000
0010
0000
0000
1000
0000
0000
0010
0000
0100
0000
,
0001
0000
0000
1000
0000
0000
0001
0000
0020
0000
0000
0000
0230
0000
0000
0000
,
0310
0001
0000
0001
0000
1000
0000
1000
,
0100
1000
0110
1001
,
0010
0010
0001
0001
,
1000
0100
0010
0001
0100
0000
0001
0000
,
1000
1000
0100
0100
,
1000
0001
0010
0100
1000
0000
0001
0000
,
0010
0011
0100
1100
,
0010
1000
0001
1000
0010
0000
0100
0000
,
0001
1000
0000
1000
0000
0100
0000
0100
,
0020
0000
0000
0000
0030
0001
1000
0001
,
0101
0000
1000
0100
0020
0000
0032
0000
,
1003
0010
1000
0001
0100
0000
0110
0000
,
1000
0000
0001
1000
0020
0000
0130
0000
,
1000
0000
0100
0000
0001
0000
1000
0000
0010
0000
0000
0010
0000
0000
0010
0000
,
0100
0000
0001
0010
0200
0000
1300
0000
,
0010
1000
0001
0010
0001
1000
1000
0000
,
0010
1000
0001
0010
0001
0100
0200
0000
,
0300
0000
0010
0000
0000
0000
0010
0000
1000
0000
0000
1000
0000
0000
0001
0000
,
0010
0002
0203
0320
,
1030
0000
0100
0010
0001
0000
1000
0000
,
0010
2000
3200
2300
,
3010
0000
0100
0001
1000
0000
0010
0000
,
0110
0020
2030
3001
,
0010
0001
0000
1000
0010
0000
0100
0000
,
0002
2003
3020
0130
,
0001
0000
1000
0100
0010
0000
0001
0000
,
0100
0110
0010
0110
,
1000
0001
1001
0000
0001
0000
1001
0000
,
2000
0000
3200
0000
,
0320
0000
0000
0000
0031
0100
0010
0000
,
0210
0000
0320
0000
,
2000
0000
0000
3030
,
1001
0000
1000
0001
0020
0000
0031
0000
,
0100
0010
1000
0001
1000
0000
1100
0000
,
0100
0000
0010
0100
2000
0000
3001
0000
,
0100
0000
0010
0000
0100
0000
0001
0000
0010
0000
0000
0010
0000
0000
0010
0000
,
0100
0000
1000
0100
0020
0000
0031
0000
,
0100
0010
1000
0001
1000
0100
0100
0000
,
1000
0001
1000
0010
0100
0001
0002
0000
,
0003
0000
0010
0000
0000
0000
0010
0000
0001
0000
0000
0001
0000
0000
1000
0000
,
0010
0100
0101
1100
,
1000
0000
0010
0000
1000
0001
1000
0000
,
0001
0010
0110
1001
,
0010
0000
0000
0000
0001
0000
0000
0000
1000
0000
0000
0010
0000
0000
1000
0000
,
0001
1000
0011
1100
,
0001
0000
0100
0000
0010
1000
0001
0000
,
0100
0010
1010
0101
,
1000
0000
0000
0000
0001
0000
0000
0000
0010
0000
0000
0100
0000
0000
2002
0000
,
0000
0000
3003
0000
;

//---------------dance-single - ----------------
#NOTES:
     dance-single:
     :
     Easy:
     3:
     0.294797,0.326733,0.175474,0.512385,0.003509,196.000000,25.000000,73.000000,0.000000,0.000000,0.000000,0.294797,0.326733,0.175474,0.512385,0.003509,196.000000,25.000000,73.000000,0.000000,0.000000,0.000000:
0000
0000
0000
0000
,
0000
0000
0000
0000
,
0000
0000
0000
0000
,
0000
0000
0000
0000
,
1000
1001
0002
0023
,
0130
0110
0200
2300
,
3001
0101
0200
0320
,
1030
1100
2002
3003
,
0100
0000
0100
0000
,
0001
1000
0001
0011
,
0100
0000
1000
0000
,
0010
0000
1000
1100
,
0002
0000
0203
0000
,
0310
0000
0110
1001
,
1000
0010
1000
0010
,
0100
0001
0200
0320
,
1030
0001
1000
0001
,
0010
0100
0020
0230
,
2300
0000
3200
0000
,
0310
0000
0101
1100
,
2001
0000
0100
0000
,
3001
1000
0001
0000
,
0101
0002
1000
0000
,
0103
0001
1000
0000
,
1100
2000
0010
0000
,
3001
1000
0010
0000
,
0200
0000
0302
0000
,
2000
0000
3003
0010
,
1001
0010
0002
2003
,
3100
1000
0020
0230
,
1300
0100
0002
0203
,
0310
1000
0220
0330
,
0001
1000
0002
0023
,
0031
1000
0200
0320
,
0030
0001
2000
3200
,
0020
0330
2002
3003
,
0010
1000
0010
0100
,
0002
0000
1003
0000
,
1000
0100
0010
0100
,
2000
0000
3010
0000
,
0100
0001
1000
0001
,
0020
0000
0130
0000
,
1000
0100
0010
0001
,
0200
0000
0301
0000
,
0000
0100
0000
0010
,
0000
1000
0000
1001
,
0020
0000
2030
0000
,
0002
0000
3003
0010
,
2000
0000
3002
0000
,
0020
0000
0000
0033
,
1001
0001
0200
0320
,
1030
0001
2000
3200
,
0310
0001
0020
0230
,
1300
0001
0220
0330
,
1000
0001
0020
0032
,
1003
0010
2000
3200
,
0300
0010
0002
0203
,
0020
0330
2002
3003
,
1000
0010
0100
0110
,
0001
1000
0100
1100
,
0001
0100
0010
0110
,
0010
2000
0002
3003
,
0001
0010
0001
0101
,
0100
0010
2000
3020
,
0130
0100
0002
0023
,
0130
0000
0000
0000
1000
0000
0000
0000
0010
0000
0000
0010
0000
0000
0020
0000
,
0000
0000
0030
0000
;

//---------------dance-single - ----------------
#NOTES:
     dance-single:
     :
     Beginner:
     1:
     0.139377,0.161831,0.063171,0.168455,0.000000,106.000000,9.000000,24.000000,0.000000,0.000000,0.000000,0.139377,0.161831,0.063171,0.168455,0.000000,106.000000,9.000000,24.000000,0.000000,0.000000,0.000000:
0000
0000
0000
0000
,
0000
0000
0000
0000
,
0000
0000
0000
0000
,
0000
0000
0000
0000
,
1000
0000
0010
0000
,
1000
0000
0000
0000
,
0001
0000
0100
0000
,
0002
0000
0003
0000
,
0100
0000
0000
0000
,
0100
0000
0010
0010
,
0010
0000
1000
0000
,
0001
0000
1000
1000
,
2000
0000
3000
0000
,
0200
0000
0300
0100
,
0100
0000
0010
0000
,
0100
0000
0010
0010
,
0010
0000
0001
0000
,
0010
0000
0001
0001
,
0002
0000
0003
0000
,
2000
0000
3000
1000
,
2000
0000
0000
0000
,
3000
0000
0100
0000
,
0020
0000
0000
0000
,
0030
0000
0001
0000
,
0200
0000
0000
0000
,
0300
0000
0010
0000
,
1000
0000
0001
0000
,
1000
0000
0000
0000
,
0110
0000
0001
0001
,
0000
0000
1000
1000
,
0000
0000
0100
0100
,
0000
0000
0020
0000
,
0030
0000
0001
0001
,
0000
0000
0010
0010
,
0000
0000
0100
0100
,
0000
0000
2002
3003
,
1001
0000
1000
0000
,
0200
0300
0100
0000
,
0010
0000
0001
0000
,
0020
0030
0010
0000
,
0001
0000
1000
0000
,
0002
0003
0001
0000
,
1000
0000
0010
0000
,
2000
3000
1000
0000
,
0010
0000
0010
0000
,
0100
0000
0100
0000
,
0220
0000
0000
0000
,
0330
0000
0000
0000
,
2002
0000
0000
0000
,
3003
0000
0000
0000
,
1001
0000
0100
0100
,
0000
0000
0001
0001
,
0000
0000
1000
1000
,
0000
0000
0020
0030
,
0010
0000
1000
1000
,
0000
0000
0010
0010
,
0000
0000
0100
0100
,
0000
0000
2002
3003
,
1001
0000
0100
0000
,
0001
0000
0000
0000
,
1000
0000
0100
0000
,
0010
0000
0000
0000
,
0100
0000
1000
0000
,
0001
0000
0000
0000
,
0100
0000
0010
0000
,
0100
0000
0000
0000
2002
0000
0000
3003
;

//---------------dance-double - ----------------
#NOTES:
     dance-double:
     :
     Hard:
     7:
     0.472277,0.466762,0.259702,0.252683,0.052642,398.000000,37.000000,36.000000,0.000000,0.000000,0.000000,0.472277,0.466762,0.259702,0.252683,0.052642,398.000000,37.000000,36.000000,0.000000,0.000000,0.000000:
00000000
00000000
00000000
00000000
,
00000000
00000000
00000000
00000000
,
00000000
00000000
00000000
00000000
,
00000000
00000000
00000000
00000000
,
00001000
00020000
00000100
00030100
00002000
00003001
00000101
00000000
,
00000010
00000002
00001000
00001003
00000100
00010000
00001000
00100000
,
01000000
20000000
00010000
30010000
02000000
03100000
10100000
00000000
,
01000000
00000000
00020000
00000000
00100000
00000000
00130000
00000000
00101000
00000000
00000000
00010000
00000000
00000000
00010100
00000000
,
00001000
00000000
00000010
00000000
00000100
00000001
00001000
00000000
,
00000001
00000010
00000100
00001000
00001010
00000000
00001100
00000000
,
00010000
00000000
00001000
00010000
00001000
00100000
00010000
00000000
,
01000000
00100000
10000000
00010000
01010000
00000000
11000000
20000000
,
00000000
31000000
10000000
00020000
00000000
00130000
00010000
02000000
,
00100000
03010000
11000000
01010000
,
00010000
00000000
00000000
00100000
00000000
00000000
00001000
00000000
00000000
00010000
00000000
00000000
00000100
00000000
00000010
00000000
,
00000001
00000000
00000000
00000100
00000000
00000000
00000010
00000000
00001000
00000000
00000000
00000000
00001001
00000000
00000000
00000000
,
00000010
00000000
00000000
00000001
00000000
00000000
00000010
00000000
00000000
00000100
00000000
00000000
00001000
00000000
00000100
00000000
,
00010000
00000000
00000000
00001000
00000000
00000000
00010000
00000000
00100000
00000000
00000000
00000000
01000000
00000000
00200000
00000000
,
00000000
10300000
00010000
02000000
00000000
03010000
00100000
00002000
,
00010000
00000000
00003100
00000000
00000110
00000000
00000101
00000001
,
00001000
00000100
00001000
00000100
00000010
00000100
00000010
00000001
,
00001000
00000100
00010000
00000000
00001000
00010000
00100000
00010000
,
00001000
00000000
00100000
00010000
00100000
00010000
10000000
01000000
,
10000000
00010000
01000000
00000000
00010000
00100000
01000000
10000000
,
00100000
00000000
01000000
00010000
01000000
00010000
00100000
00010000
,
00100000
00001000
00010000
00000000
00001000
00000100
00000001
00000200
,
00000000
00000310
00001000
00000002
00000000
00000013
00000100
00020000
,
00000000
00031000
00100000
00020000
00000000
01030000
01000000
00010000
,
10010000
10000000
01000000
00100000
00010000
00000000
00210000
00000000
,
00301000
00010000
00000010
00001000
00000100
00000010
00000001
00001000
,
00000010
00000100
00000001
00000010
00000100
00000000
00002100
00000000
,
00003001
00000000
00001000
00000000
00000100
00000000
00010000
00000000
00011000
00000000
00000000
00100000
00000000
00000000
01100000
00000000
,
01000000
10000000
00010000
01000000
00100000
00000000
10200000
00000000
,
01300000
00010000
10000000
01000000
00100000
00001000
00010000
00001000
,
00000000
00010000
00000010
00000100
00000001
00000010
00000100
00010000
,
00000000
00000000
00011000
00000000
00000000
00000000
00011000
00000000
00020000
00000000
00000000
00230000
00000000
00000000
20300000
00000000
,
30010000
00100000
00010000
10000000
00100000
10000000
00010000
00000000
,
01000000
00100000
10000000
01000000
00000000
00100000
00001000
00010000
,
00000100
00001000
00000001
00001000
00000010
00000100
00000001
00000000
,
00000010
00000001
00001000
00000100
00000000
00001000
00000010
00010000
,
00001000
00010000
00001000
00100000
00010000
10000000
00100000
00000000
,
10000000
01000000
00100000
00010000
00000000
00100000
00001000
00001000
,
00010000
00000100
00001000
00000010
00000100
00001000
00000100
00000001
,
00001000
00000100
00001000
00010000
00000000
00100000
00010000
10000000
,
00100000
01100000
10000000
10010000
,
00010000
00100000
00110000
00000000
01000000
00000000
11000000
00000000
,
00020000
00100000
02030000
00100000
,
03002000
00000000
00000000
00000000
00010000
00000000
00000000
00000000
00003100
00000000
00000010
00000100
00000010
00000100
00000000
00000000
,
00000002
00000010
00002003
00000100
,
00000020
00000000
00000000
00003030
,
00001001
00000001
00000010
00000100
00001000
00000000
00002010
00000000
,
00003100
00010000
00001000
00010000
01000000
10000000
00010000
10000000
,
00100000
10000000
01000000
00010000
00001000
00000000
00021000
00000000
,
00030100
00000000
00001000
00000000
00000010
00000000
00000100
00000000
00000101
00000000
00000000
00000010
00000000
00000000
00001100
00000000
,
00000100
00001000
00010000
00100000
00010000
00000000
10020000
00000000
,
01030000
00010000
10000000
01000000
00010000
01000000
10000000
00010000
,
00000000
00100000
00001000
00010000
00000100
00001000
00000100
00000001
,
00000000
00000000
00000101
00000000
00000000
00000000
00001100
00000000
00002000
00000000
00000000
00003002
00000000
00000000
00000023
00000000
,
00000130
00010000
00001000
00010000
01000000
00100000
00010000
00000000
,
10000000
00100000
01000000
00001000
00010000
00001000
00000100
00000010
,
00000100
00000001
00000010
00001000
00010000
00100000
10000000
00000000
,
00010000
00000000
01000000
00000000
00010000
00000000
10000000
00000000
10100000
00000000
00000000
00010000
00000000
00000000
00110000
00000000
,
01000000
10000000
01000000
00100000
00001000
00010000
00000010
00000000
,
00000100
00001000
00000100
00000001
00000010
00000100
00010000
00001000
,
00100000
00010000
00100000
00001000
00010000
00000010
00001000
00000000
,
00000100
00000000
00001000
00000000
00010000
00000000
00100000
00000000
11000000
00000000
00000000
00100000
00000000
00000000
02002000
00000000
,
00000000
00000000
03003000
00000000
;

//---------------dance-double - ----------------
#NOTES:
     dance-double:
     :
     Medium:
     5:
     0.372006,0.373409,0.182493,0.315854,0.024566,300.000000,26.000000,45.000000,0.000000,0.000000,0.000000,0.372006,0.373409,0.182493,0.315854,0.024566,300.000000,26.000000,45.000000,0.000000,0.000000,0.000000:
00000000
00000000
00000000
00000000
,
00000000
00000000
00000000
00000000
,
00000000
00000000
00000000
00000000
,
00000000
00000000
00000000
00000000
,
00011000
00001000
00000000
00100000
00020000
00000000
20030000
00000000
,
31000000
00100000
00000000
01000000
00100000
00000000
00001000
00000000
,
00010000
00000100
00000000
00000100
00002000
00000000
00003002
00000000
,
00000013
00000000
00000001
00000000
00000000
00000000
00000010
00000000
00000001
00000000
00000000
00001000
00000000
00000000
00000001
00000000
,
00000010
00000000
00000001
00000000
00001000
00000100
00001000
00000000
,
00000010
00010000
00011000
00101000
,
00100000
00000000
00010000
00000000
10000000
00000000
00100000
01000000
,
00100000
00000000
10000000
00000000
11000000
00000000
00010000
02000000
,
00000000
03100000
00000000
20000000
00000000
31000000
00000000
00200000
,
00010000
00310000
00110000
00101000
,
00001000
00010000
00000100
00000000
00001000
00000001
00000010
00000000
,
00000100
00000000
00000010
00000100
00001000
00000000
00001001
00000000
,
00000010
00000000
00001000
00000000
00000100
00010000
00001000
00000000
,
00100000
00000000
00010000
00100000
01000000
00000000
10010000
20000000
,
00000000
30100000
00000000
02000000
00000000
03010000
00000000
00200000
,
01000000
01300000
10010000
01100000
,
00020000
10000000
00100000
01030000
,
00001000
00000000
00010000
00000000
00000100
00001000
00000100
00000010
,
00000100
00002000
00000010
00000001
,
00003100
00000000
00010000
00000000
00001000
00100000
00010000
00100000
,
01000000
00200000
00010000
10000000
,
01300000
00000000
00100000
00010000
00100000
00001000
00010000
00002000
,
00000000
00000100
00000000
00003200
00000000
00000010
00000000
00000320
,
00000000
00000100
00000000
00000130
00000000
00000001
00000001
00000000
,
00001001
00000000
00000010
00010000
00001000
00000000
00001000
00000000
,
00100000
00000000
00010000
00000000
10000000
01000000
00100000
00000000
,
00010000
00000000
10000000
00100000
01000000
00000000
01000000
00000000
,
00010000
00000000
00000000
00000000
00100000
00000000
00000000
00000000
00001000
00000000
00000000
00010000
00000000
00000000
00001000
00000000
,
00100000
00000000
00010000
00000000
00001000
00000100
00000010
00000000
,
00000001
00000000
00001000
00000000
00000010
00000100
00000010
00000100
,
00000001
00000000
00001000
00000000
00000100
00010000
00000100
00010000
,
00002000
00000000
00100000
00000000
00000000
00000000
00103000
00000000
00010000
00000000
00000000
10000000
00000000
00000000
00010000
00000000
,
01000000
00200000
20300000
30020000
,
00130000
00010000
01000000
00001000
00000000
00001000
00010000
00000000
,
00000100
00002000
00003020
00000032
,
00000013
00001000
00000100
00000010
00000000
00000010
00000001
00000000
,
00001010
00002000
00003200
00020300
,
00031000
00100000
01000000
00100000
00000000
00100000
00010000
00000000
,
10000000
00020000
02030000
03200000
,
10300000
00010000
00100000
00001000
00000000
00001000
00010000
00000000
,
00000100
00001100
00001000
00001001
,
00000001
00000010
00000011
00000000
00000100
00000000
00000110
00000000
,
00002000
00000000
00003200
00000000
,
00020300
00000000
00000000
00000000
00031000
00100000
00010000
00000000
,
20000000
00000000
30200000
00000000
,
00020000
00000000
00000000
00330000
,
00011000
00000000
00010000
00001000
00000020
00000000
00000032
00000000
,
00000103
00000000
00000010
00000000
00001000
00000100
00010000
00001000
,
00010000
00000000
00100000
10000000
00020000
00000000
02030000
00000000
,
03100000
00000000
00000000
00000000
10000000
00000000
01000000
00000000
10000000
00000000
00000000
00100000
00000000
00000000
00010000
00000000
,
00001000
00000000
00010000
00000100
00010000
00000000
00001000
00000000
,
00000100
00000000
00000001
00000000
00001000
00000010
00001000
00000010
,
00000200
00000000
00001300
00000000
00010000
00001000
00010000
00001000
,
00200000
00000000
00010000
00000000
00000000
00000000
00310000
00000000
10000000
00000000
00000000
01000000
00000000
00000000
00100000
00000000
,
00010000
01000000
01100000
10010000
,
10000000
00000000
01000000
00000000
00100000
00001000
00010000
00000000
,
00001000
00000010
00000101
00001001
,
00000010
00000000
00000000
00000000
00000100
00000000
00000000
00000000
00000001
00000000
00000000
00001000
00000000
00000000
00000010
00000000
,
00000100
00000010
00001100
00001010
,
00000100
00000000
00010000
00000000
00001000
00100000
00001000
00100000
,
00020000
10030000
01100000
01010000
,
00002000
00000000
00000000
00000000
00013000
00000000
00000000
00000000
00000100
00000000
00000000
00001000
00000000
00000000
00000022
00000000
,
00000000
00000000
00000033
00000000
;

//---------------dance-double - ----------------
#NOTES:
     dance-double:
     :
     Easy:
     3:
     0.252683,0.256719,0.140379,0.329892,0.003509,185.000000,20.000000,47.000000,0.000000,0.000000,0.000000,0.252683,0.256719,0.140379,0.329892,0.003509,185.000000,20.000000,47.000000,0.000000,0.000000,0.000000:
00000000
00000000
00000000
00000000
,
00000000
00000000
00000000
00000000
,
00000000
00000000
00000000
00000000
,
00000000
00000000
00000000
00000000
,
00011000
00001000
00100000
00100000
,
00010000
10000000
00200000
00300000
,
01000000
00001000
00010000
00010000
,
00000100
00000010
00000002
00000003
,
00001000
00000100
00000010
00000000
,
00000001
00000100
00000110
00001001
,
00000010
00010000
00001000
00000000
,
00100000
00010000
10010000
01200000
,
00000000
20300000
00000000
30020000
,
02000000
03030000
01100000
10010000
,
10000000
01000000
00100000
00001000
,
00010000
00000010
00000100
00000100
,
00000001
00000010
00000100
00001000
,
00000100
00010000
00001000
00002000
,
00000000
02003000
00000000
03020000
,
00200000
00330000
00110000
00101000
,
00010000
00001000
00010000
00000100
,
00000020
00000000
00000031
00000000
,
00000100
00000001
00000010
00000100
,
00002000
00000000
00003100
00000000
,
00010000
00001000
00100000
00010000
,
00200000
00000000
01300000
00000000
,
00010000
00000000
00010000
00000000
,
00001000
00000000
00001000
00000000
,
00001001
00000010
00000002
00000003
,
00001000
00000100
00010000
00010000
,
00011000
00100000
02000000
03000000
,
10000000
00010000
02200000
03300000
,
10000000
00010000
00200000
00300000
,
00001000
00010000
00000200
00000300
,
00001000
00000001
00000200
00000000
,
00000020
00000330
00001001
00000000
,
00000010
00001000
00000010
00010000
,
00002000
00000000
00003000
00000000
,
00100000
00010000
10000000
01000000
,
00200000
00000000
00300000
00000000
,
00010000
01000000
00001000
00010000
,
00000020
00000000
00000030
00000000
,
00000100
00000001
00000010
00000100
,
00020000
00000000
00030000
00000000
,
00000000
00011000
00000000
00011000
,
00000000
00011000
00000000
00011000
,
00002000
00000000
00203000
00000000
,
02300000
00000000
13000000
00010000
,
00200000
00000000
00320000
00000000
,
00002000
00000000
00000000
00033000
,
00011000
00000100
00000020
00000030
,
00000001
00001000
00000100
00000100
,
00010000
00001000
02000000
03000000
,
00100000
10000000
20020000
30030000
,
00100000
00010000
02000000
03000000
,
00010000
00100000
00002000
00003000
,
00010000
00000100
00000020
00000000
,
00000002
00000033
00001001
00000000
,
00000010
00001000
00000200
00000300
,
00010000
00001000
00100000
00100000
,
00010000
10000000
00200000
00300000
,
01000000
00010000
20000000
32000000
,
13000000
00010000
00200000
00300000
,
00001000
00010000
00000100
00000100
,
00001000
00000001
00000020
00000030
,
00000100
00000000
00000000
00000000
00010000
00000000
00000000
00000000
00001000
00000000
00000000
00020000
00000000
00000000
00002000
00000000
,
00000000
00000000
00033000
00000000
;
