#TITLE:DISCORD;
#SUBTITLE:The Living Tombstone Remix;
#ARTIST:Eurobeat Brony;
#TITLETRANSLIT:;
#SUBTITLETRANSLIT:;
#ARTISTTRANSLIT:;
#GENRE:Funk;
#CREDIT:;
#BANNER:DISCORD The Living Tombstone Remix-bn.png;
#BACKGROUND:DISCORD The Living Tombstone Remix-bg.png;
#LYRICSPATH:;
#CDTITLE:;
#MUSIC:DISCORD The Living Tombstone Remix.mp3;
#OFFSET:-0.080000;
#SAMPLESTART:27.489000;
#SAMPLELENGTH:18.306000;
#SELECTABLE:YES;
#BPMS:0.000000=105.000000
;
#STOPS:
;
#BGCHANGES:;
#KEYSOUNDS:;
#ATTACKS:;

//---------------dance-single - ----------------
#NOTES:
     dance-single:
     :
     Hard:
     9:
     0.636191,0.539580,0.395692,0.093527,0.618718,551.000000,55.000000,13.000000,0.000000,0.000000,0.000000,0.636191,0.539580,0.395692,0.093527,0.618718,551.000000,55.000000,13.000000,0.000000,0.000000,0.000000:
0000
0000
0000
0000
,
0000
0000
0000
0000
,
0000
0000
0000
0000
,
0000
0000
0000
0000
0000
0000
0000
0110
,
1001
0000
1000
0000
0010
0100
0010
1000
0100
0010
0000
0001
0000
1000
0001
0100
,
0010
1000
0000
0001
0000
0010
0001
0010
0000
0100
1000
0001
0100
0010
1000
0000
,
0001
0000
0010
0001
1000
0000
0010
1000
0001
1000
0000
0100
0000
0010
0001
1000
,
0001
0100
0000
0010
0000
1000
0001
1000
0000
0100
0010
0000
0001
1000
0001
0000
,
0101
1000
0100
0010
0200
0000
2300
0001
,
3001
0100
0010
0100
0100
0000
0101
1000
,
0001
0000
0010
0001
1000
0000
0000
0010
1000
0000
0001
0100
0000
0010
0000
2000
,
0100
0000
0100
0000
0002
0000
3003
0110
,
1001
0000
1001
0000
0010
0000
1000
0000
0001
0010
0100
1000
0001
0000
1000
0100
,
1000
0000
0010
0100
0001
0000
0010
0000
0100
1000
0001
0100
0001
0000
1000
0000
,
1100
0000
1100
0000
0010
0000
0001
0000
1000
0001
1000
0010
0100
0000
0010
1000
,
0001
0000
0010
0001
0000
0100
0010
0100
0001
0000
0010
0000
0001
0000
1000
0000
,
0011
0000
0011
0000
1000
0000
0100
0000
1000
0010
1000
0001
0010
0000
0100
1000
,
0001
0000
0010
0001
1000
0000
0010
0000
0100
0010
0100
0001
0010
0000
0100
0000
,
1001
0000
1001
0000
0100
0000
1000
0000
0001
1000
0100
0010
0001
0000
0100
0010
,
0100
0000
0001
1000
0000
0100
0010
0100
2000
0000
0000
0000
3001
0000
0110
0000
,
1001
0000
0010
0000
0002
0000
0000
0000
1003
0010
0100
0000
0000
0001
0010
0000
,
0000
0100
1000
0000
0000
0010
1000
0000
0000
0001
0010
0000
0000
0100
1000
0000
,
0001
1000
0010
0000
0000
0100
0001
0000
0000
0010
0100
0000
0000
1000
0100
0000
,
0010
0000
0001
0000
1000
0000
0010
0000
0100
0000
0001
1000
0000
0000
0110
0000
,
1001
0000
1000
0000
0010
0000
1000
0000
0001
0010
0001
0000
0000
1000
0001
0000
,
0000
0100
0001
0000
0000
0010
0100
0000
0000
1000
0100
0000
0000
0010
0001
0000
,
1000
0010
0100
0000
0000
0001
1000
0000
0000
0010
1000
0000
0000
0100
0010
0000
,
0001
1000
0010
0010
2002
0000
3003
0000
,
0110
0000
1000
0000
0001
1000
0100
0000
0010
0001
0000
1000
0000
0010
0100
0000
,
0001
1000
0000
0100
0000
1000
0001
1000
0000
0010
0100
0000
0001
0010
0000
0001
,
1000
0000
0001
0000
0010
0100
1000
0000
0001
0010
0000
0100
0000
1000
0010
0000
,
0100
0001
0000
0010
0000
0001
1000
0001
0000
1000
0100
0000
0010
0001
0000
0001
,
0010
0100
0100
1000
0020
0000
0031
0010
,
1000
0010
0200
0001
0301
1001
0100
0001
,
1000
0000
0010
1000
0001
0000
0010
0001
0100
0000
0010
1000
0000
0001
0000
0020
,
0100
0000
0100
0000
0001
0001
0031
1100
,
0011
0000
0101
0000
1000
0000
0010
0000
0100
0001
0100
0010
1000
0000
0001
0100
,
0010
0000
1000
0100
0010
0000
0001
1000
0100
1000
0001
0100
0010
0000
0100
0000
,
0110
0000
1001
0000
0001
0000
1000
0000
0010
1000
0100
0010
0001
0000
0100
0010
,
0100
0000
0001
0010
0000
0001
1000
0100
0010
0000
0100
0000
1000
0000
0001
0000
,
1010
0000
0101
0000
1000
0000
0100
0000
1000
0001
0010
0001
1000
0000
0100
0010
,
0001
0000
0010
0100
1000
0000
0001
0010
0001
0010
0100
0010
0001
0000
1000
0000
,
0011
0000
1100
0000
0010
0000
1000
0001
1000
0100
0010
0001
0100
0000
0010
1000
,
0001
0000
0010
0001
0000
1000
0001
1000
0200
0000
0000
0000
0300
0000
0110
0000
,
1001
0000
0001
0000
0110
0000
0010
0000
1000
0100
1000
0000
0001
0010
0001
0000
,
0100
0010
0100
0000
0001
1000
0001
0000
1000
0100
1000
0000
0010
0100
0010
0000
,
1000
0001
0010
0000
0100
1000
0010
0000
0100
0001
1000
0000
0001
0010
0100
0000
,
0010
0000
0001
0000
1000
0000
0010
0000
1000
0000
0100
0020
0000
0000
0031
0000
,
0101
0000
1000
0000
1100
0000
0100
0000
0010
0001
1000
0000
0010
1000
0100
0000
,
0010
0100
0010
0000
0001
1000
0010
0000
0100
0001
0100
0000
0010
1000
0001
0000
,
0110
0000
1001
0000
0101
0101
1100
0001
,
0110
0000
0000
0000
1001
0000
0000
0000
1100
0000
1001
0000
0001
0100
0001
0000
,
1010
0000
0101
0000
0010
0000
0001
0000
1000
0100
0010
0001
0100
0000
0010
1000
,
0001
0000
0010
0001
0100
0000
0010
0000
1000
0001
1000
0100
0010
0000
0001
0000
,
1010
0000
1100
0000
0010
0000
0100
0000
0010
0001
0010
0100
1000
0000
0001
0100
,
0010
0000
1000
0001
0000
0010
0100
0010
0001
0000
1000
0000
0010
0000
0101
0000
,
0011
0000
1001
0000
0010
0000
0100
0000
1000
0001
0010
0100
1000
0000
0010
1000
,
0001
0000
0100
0010
1000
0000
0001
0000
1000
0100
0010
0100
1000
0000
0110
0000
,
1001
0000
0101
0000
1000
0000
0010
1000
0100
0010
0001
0100
0010
0000
1000
0001
,
0100
0000
0010
0100
0000
0001
0010
0001
1000
0000
0100
0000
0010
0000
0110
0000
,
1001
0000
0000
0000
;

//---------------dance-single - ----------------
#NOTES:
     dance-single:
     :
     Medium:
     6:
     0.416247,0.366914,0.194249,0.093527,0.025180,365.000000,27.000000,13.000000,0.000000,0.000000,0.000000,0.416247,0.366914,0.194249,0.093527,0.025180,365.000000,27.000000,13.000000,0.000000,0.000000,0.000000:
0000
0000
0000
0000
,
0000
0000
0000
0000
,
0000
0000
0000
0000
,
0000
0000
0000
0000
0000
0000
0000
1100
,
1001
0001
0100
0100
0010
0000
1000
1000
,
0100
0000
0010
0001
1000
0001
0100
0010
,
0110
0100
0001
0001
1000
0000
0100
1000
,
0001
0000
0010
0010
0001
0001
1000
0010
,
1010
1000
0001
0010
0002
0000
0013
0100
,
1000
0100
0010
0001
2000
0000
3010
0100
,
0001
1000
0000
0000
0010
0100
0010
1000
,
0001
0000
0001
0000
1000
1000
1000
0101
,
1010
1000
0000
0010
0100
0010
1000
0000
,
0001
0001
1000
1000
0100
0010
0001
0000
,
0110
0010
0000
1000
0001
1000
0100
0000
,
0010
0000
0000
0001
0000
0000
1000
0000
0010
0000
0010
0000
0100
0000
0100
0000
,
1001
0001
0000
0010
0001
1000
0010
0000
,
1000
1000
0100
0100
0001
0100
1000
0000
,
0101
0100
0000
0010
1000
0001
0100
0000
,
0001
0000
0000
0001
0000
0000
0010
0000
0200
0000
0000
0000
0300
0000
1001
0000
,
0010
0000
0110
0000
0001
1000
0001
1000
,
0010
0100
0010
0100
0001
1000
0001
1000
,
0100
0010
0100
0010
0001
1000
0001
1000
,
0001
0000
0010
0000
0100
0000
1000
0000
0001
0000
0000
0100
0000
0000
0010
0000
,
1000
0000
1001
0000
0010
0100
0010
0100
,
1000
0001
1000
0001
0010
0100
0010
0100
,
1000
1100
0001
0101
,
0100
0010
2000
0000
0200
0000
3300
0000
,
0110
0010
0001
1000
0001
0000
0100
0010
,
1000
0000
0001
1000
0001
0010
0100
1000
,
0010
0010
0100
0001
1000
0000
0010
0100
,
0010
1000
0001
0000
0010
0001
1000
0010
,
0110
0010
2000
0000
3001
0001
0010
0100
,
1000
1000
0002
0000
0013
0010
0001
1000
,
0100
0100
0020
0000
0130
0100
1000
0001
,
0010
0000
0100
0000
1000
0001
1000
0110
,
0001
0001
0000
1000
0001
1000
0010
0000
,
0100
0100
0001
0001
1000
0100
0010
0000
,
0011
0001
0000
1000
0001
0010
0100
0000
,
1000
0000
0000
0100
0000
0000
0010
0000
0200
0000
0000
0000
1300
0000
1000
0000
,
0110
0010
0000
0001
1000
0100
1000
0000
,
0010
0010
0100
0100
0001
0010
1000
0000
,
0110
0010
0000
0001
0100
0010
0100
0000
,
0010
0000
0000
1000
0000
0000
0001
0000
0020
0000
0000
0000
0030
0000
0110
0000
,
0001
0000
1001
0000
0010
1000
0010
1000
,
0001
0100
0001
0100
0010
1000
0010
1000
,
0100
1000
0100
1000
0001
0010
0001
0010
,
0001
0000
1000
0000
0100
0000
0010
0001
,
1000
0000
0110
0000
0001
0010
0001
0010
,
0100
1000
0100
1000
0010
0100
0010
0100
,
0001
0000
0002
0000
1003
1000
0100
0010
,
0001
0001
0200
0000
0310
0100
0010
0100
,
0001
0001
0000
1000
0100
1000
0001
0000
,
0100
0100
0010
0010
1000
0001
1000
0000
,
1001
0100
0000
1000
0001
0010
0100
0000
,
0010
0000
0000
0010
0000
0000
0001
0000
2000
0000
0000
0000
3100
0000
0000
0000
,
1100
0001
0000
0010
0001
0100
0010
0000
,
1000
1000
0001
0001
0010
0100
1000
0000
,
0110
0100
0000
0010
1000
0010
0100
0000
,
0001
0000
0000
1000
0000
0000
0001
0000
0100
0000
0100
0000
0010
0000
0010
0000
,
1001
0000
0000
0000
;

//---------------dance-single - ----------------
#NOTES:
     dance-single:
     :
     Easy:
     3:
     0.301137,0.280582,0.230221,0.330942,0.000000,215.000000,32.000000,46.000000,0.000000,0.000000,0.000000,0.301137,0.280582,0.230221,0.330942,0.000000,215.000000,32.000000,46.000000,0.000000,0.000000,0.000000:
0000
0000
0000
0000
,
0000
0000
0000
0000
,
0000
0000
0000
0000
,
0000
0000
0000
0000
,
0011
0001
2000
3001
,
0200
0310
1000
0001
,
0010
0010
0002
1003
,
0020
0130
0001
0010
,
1100
1000
0002
2003
,
3100
0010
0110
0000
,
0002
0010
2003
0010
,
3100
0100
1000
0001
,
0110
0001
2000
3200
,
0310
0001
1000
0010
,
0110
0001
1000
0010
,
2000
3002
0200
0303
,
1001
0010
0200
0320
,
0031
0100
0010
1000
,
0110
0001
0010
0100
,
0020
0230
2000
3300
,
1001
0010
0001
0100
,
0001
0100
0010
1000
,
0001
0010
0100
1000
,
0100
0010
0002
0003
,
1100
1000
0001
0100
,
0010
1000
0010
1000
,
0001
1000
0100
0010
,
0001
1000
0020
0030
,
0110
0001
2000
3100
,
0020
0130
0010
1000
,
0100
0010
0002
1003
,
0200
0310
0100
1000
,
1001
0110
0001
1100
,
0010
0101
0010
1001
,
0001
0110
1000
1001
,
0010
0010
2000
3001
,
1001
0010
0002
2003
,
3010
0100
0001
1000
,
1100
0100
0010
0100
,
2000
3002
0020
0033
,
1001
0010
0200
0302
,
1003
0010
1000
0100
,
0110
0010
0001
1000
,
0200
2300
0020
3030
,
1001
0001
1000
0001
,
0010
0100
0010
0001
,
1000
0100
1000
0100
,
0010
0001
0200
0300
,
0110
0010
1000
0001
,
1000
0001
0100
0010
,
1000
1001
0010
1001
,
0100
1001
0010
0011
,
0110
1000
0002
0203
,
0310
0010
1000
0001
,
1100
1000
0100
0010
,
0002
0023
0200
0330
,
1001
0001
2000
3020
,
0130
0001
1000
0010
,
0101
0100
0001
1000
,
0020
0230
0002
0303
,
1100
0000
0000
0000
;

//---------------dance-single - ----------------
#NOTES:
     dance-single:
     :
     Beginner:
     1:
     0.121277,0.107916,0.057555,0.201443,0.000000,82.000000,8.000000,28.000000,0.000000,0.000000,0.000000,0.121277,0.107916,0.057555,0.201443,0.000000,82.000000,8.000000,28.000000,0.000000,0.000000,0.000000:
0000
0000
0000
0000
,
0000
0000
0000
0000
,
0000
0000
0000
0000
,
0000
0000
0000
0000
,
1000
0000
0100
0000
,
1000
0000
0000
0000
,
0001
0000
0100
0000
,
0001
0000
0000
0000
,
0010
0000
0200
0300
,
0100
0000
1000
0000
,
0002
0000
0003
0000
,
0100
0000
0100
0100
,
0200
0000
0300
0000
,
0010
0000
1000
0000
,
0002
0000
0003
0000
,
1000
1000
1000
0000
,
0020
0000
0030
0000
,
0100
0000
0001
0000
,
2000
0000
3000
0000
,
0010
0000
0100
0000
,
2002
0000
0000
0000
,
3003
0000
0000
0000
,
0020
0000
0030
0000
,
2000
0000
3000
0000
,
0220
0000
0000
0000
,
0330
0000
0000
0000
,
0200
0000
0300
0000
,
0002
0000
0003
0000
,
1000
0000
0100
0000
,
1000
0000
0000
0000
,
0001
0000
0010
0000
,
0001
0000
0000
0000
,
0100
0000
2000
3000
,
1000
0000
0001
0000
,
0020
0000
0030
0000
,
0001
0000
0010
0010
,
0020
0000
0030
0000
,
0100
0000
1000
0000
,
0002
0000
0003
0000
,
0010
0000
0100
0000
,
2000
0000
3000
0000
,
0001
0000
0010
0000
,
0200
0000
0300
0000
,
1000
0000
0001
0000
,
0220
0000
0000
0000
,
0330
0000
0000
0000
,
0002
0000
0003
0000
,
0020
0000
0030
0000
,
2002
0000
0000
0000
,
3003
0000
0000
0000
,
0200
0000
0300
0000
,
2000
0000
3000
0000
,
1001
0000
0010
0000
,
0001
0000
1000
0000
,
0110
0000
0001
0000
,
1000
0000
1000
0000
,
1001
0000
0100
0000
,
0001
0000
0010
0000
,
0110
0000
0100
0000
,
1000
0000
0001
0000
,
0100
0000
0000
0000
;

//---------------dance-double - ----------------
#NOTES:
     dance-double:
     :
     Hard:
     9:
     0.631052,0.561163,0.410081,0.043166,0.647496,551.000000,57.000000,6.000000,0.000000,0.000000,0.000000,0.631052,0.561163,0.410081,0.043166,0.647496,551.000000,57.000000,6.000000,0.000000,0.000000,0.000000:
00000000
00000000
00000000
00000000
,
00000000
00000000
00000000
00000000
,
00000000
00000000
00000000
00000000
,
00000000
00000000
00000000
00000000
00000000
00000000
00000000
00011000
,
00010100
00000000
00001000
00000000
00000001
00000000
00000100
00000001
00000100
00000010
00000000
00001000
00000000
00000100
00001000
00000000
,
00000100
00010000
00000000
00001000
00000000
00100000
00010000
01000000
00000000
00100000
10000000
00010000
01000000
00010000
10000000
00000000
,
01000000
00000000
00100000
00000000
01000000
00000000
10000000
00100000
01000000
00010000
00000000
00010000
00000000
10000000
01000000
00100000
,
01000000
10000000
00000000
01000000
00000000
00100000
00001000
00010000
00000000
00010000
00000100
00000000
00000010
00000100
00001000
00000000
,
00000001
00000100
00000010
00001000
00000200
00000000
00000310
00000100
,
00001000
00001000
00000100
00010000
00001000
00000000
00101000
00100000
,
00010000
00000000
01000000
00100000
00000000
00000000
00000000
10000000
01000000
00000000
00100000
00010000
00000000
01000000
00000000
01000000
,
00200000
00000000
10000000
00000000
10000000
10000000
10300000
01010000
,
10100000
00000000
10100000
00000000
10000000
00000000
00010000
00000000
10000000
01000000
00010000
00001000
00000010
00000000
00000001
00001000
,
00000001
00000100
00001000
00000000
00001000
00000100
00000001
00000000
00001000
00000100
00001000
00000100
00000010
00000000
00000100
00000000
,
00001100
00000000
00001100
00000000
00001010
00000000
00000100
00000000
00000001
00000100
00001000
00010000
00100000
00000000
10000000
01000000
,
00100000
00000000
01000000
10000000
00000000
01000000
00100000
00001000
00010000
00000000
00010000
00000000
00001000
00000000
00010000
00000000
,
00010100
00000000
00010100
00000000
00000010
00000000
00001000
00000000
00000001
00000010
00001000
00010000
01000000
00000000
10000000
00010000
,
10000000
00100000
00010000
00000000
00010000
00100000
10000000
00000000
10000000
01000000
10000000
01000000
00100000
00000000
00010000
00000000
,
01010000
00000000
01010000
00000000
00100000
00000000
10000000
00010000
10000000
00100000
00010000
00001000
00000100
00000000
00000001
00001000
,
00000100
00000000
00001000
00000010
00000000
00000100
00000001
00000010
00000200
00000000
00000000
00000000
00000300
00000000
00001001
00000000
,
00000110
00000000
00000000
00000000
00000101
00000000
00000100
00000000
00001000
00000100
00010000
00000000
00000000
00001000
00100000
00000000
,
00000000
00010000
10000000
00000000
00000000
01000000
00100000
00000000
00000000
00010000
01000000
00000000
00000000
00100000
10000000
00000000
,
01000000
00100000
00001000
00000000
00000000
00010000
00000100
00000000
00000000
00001000
00000001
00000000
00000000
00000010
00000100
00000000
,
00000010
00000000
00000001
00000000
00000100
00000000
00000010
00000000
00001000
00000000
00000100
00010000
00000000
00000000
00001000
00000000
,
00101000
00000000
00100000
00000000
00110000
00000000
00000000
00000000
10000000
00100000
01000000
00000000
00000000
00010000
10000000
00000000
,
00000000
01000000
00100000
00000000
00000000
00001000
00010000
00000000
00000000
00000100
00000010
00000000
00000000
00000100
00001000
00000000
,
00000001
00000100
00000001
00000000
00000000
00001000
00000010
00000000
00000000
00000100
00000001
00000000
00000000
00000010
00000100
00000000
,
00001000
00000100
00000010
00000001
00000200
00000000
00000000
00000300
,
00001010
00000000
00000001
00000000
00000100
00000000
00000010
00001000
00000100
00001000
00000000
00000100
00000000
00000100
00010000
00000000
,
00001000
00100000
00000000
00010000
00000000
10000000
01000000
00100000
00000000
00100000
01000000
10000000
01000000
10000000
00000000
00010000
,
01000000
00000000
00100000
00000000
01000000
00000000
00010000
01000000
00010000
10000000
00000000
01000000
00000000
00100000
00001000
00010000
,
00001000
00010000
00000000
00000100
00000000
00000010
00000100
00001000
00000000
00001000
00000100
00000010
00000001
00000100
00000000
00000001
,
00001000
00001000
00000101
00000000
00000001
00000001
00000110
00001000
,
00010000
00010000
01100000
10000000
00110000
11000000
00110000
01000000
,
00001000
00000000
00010000
00000100
00000000
00000000
00000000
00000010
00000001
00000000
00000001
00000100
00000000
00000010
00000000
00001000
,
00000200
00000000
00000010
00000000
00000010
00000010
00000310
00001100
,
00000011
00000000
00000011
00000000
00000100
00000000
00001000
00000000
00000001
00000100
00001000
00010000
00100000
00000000
10000000
00010000
,
10000000
01000000
00010000
00000000
00010000
01000000
10000000
00000000
00100000
01000000
00100000
01000000
00010000
00000000
00100000
00000000
,
00011000
00000000
00011000
00000000
00100000
00000000
00010000
00000000
10000000
01000000
00010000
00001000
00000010
00000000
00000001
00001000
,
00000001
00000000
00000001
00000100
00000000
00000100
00000010
00000100
00000001
00000000
00001000
00000000
00000110
00000000
00001001
00000000
,
00001100
00000000
00001100
00000000
00000010
00000000
00001000
00000000
00000001
00000010
00001000
00010000
01000000
00000000
10000000
00010000
,
10000000
01000000
00010000
00000000
00010000
01000000
10000000
00000000
00010000
00100000
00010000
00100000
00001000
00000000
00010000
00000000
,
00011000
00000000
00011000
00000000
00001000
00000000
00100000
00010000
10000000
01000000
00010000
00001000
00000010
00000000
00000000
00000001
,
00000100
00000000
00000100
00000010
00000000
00001000
00000001
00000100
00002000
00000000
00000000
00000000
00003000
00000000
00011000
00000000
,
10010000
00000000
00000000
00000000
00011000
00000000
00000000
00000000
00010000
00000100
00000010
00000000
00000001
00001000
00000100
00000000
,
00010000
00001000
01000000
00000000
00100000
10000000
00010000
00000000
00100000
01000000
10000000
00000000
01000000
00100000
00010000
00000000
,
00100000
00001000
00010000
00000000
00000100
00001000
00000010
00000000
00000100
00000001
00000010
00000000
00000100
00001000
00000100
00000000
,
00010000
00000000
00010000
00000000
00001000
00000000
00001000
00000000
00100000
00000000
00010000
01000000
00000000
00000000
00100000
00000000
,
11000000
00000000
01000000
00000000
01010000
00000000
00000000
00000000
01000000
10000000
00010000
00000000
01000000
00010000
00100000
00000000
,
00001000
00010000
00000100
00000000
00000010
00000100
00001000
00000000
00000001
00000100
00000010
00000000
00000100
00000001
00001000
00000000
,
00000100
00000000
00000011
00000000
00000100
00000100
00001100
00001000
,
00000100
00010000
00011000
00000000
00110000
00010000
01010000
10100000
,
01010000
00000000
01010000
00000000
10000000
00000000
00100000
00000000
01000000
00010000
01000000
00010000
01000000
00000000
00000000
00100000
,
10000000
01000000
10000000
00010000
10000000
01000000
10000000
00010000
01000000
00100000
01000000
00010000
01000000
00000000
00001000
00000000
,
00011000
00000000
00011000
00000000
00000100
00000000
00001000
00000000
00000001
00000100
00000001
00000100
00000001
00000000
00000010
00000100
,
00001000
00000000
00000100
00000010
00000000
00000001
00001000
00000001
00000100
00000000
00000010
00000000
00001001
00000000
00001001
00000000
,
00000110
00000000
00000110
00000000
00000001
00000000
00001000
00000000
00000010
00000100
00000010
00000100
00000010
00000000
00000000
00001000
,
00000001
00000100
00000001
00001000
00000001
00000100
00000001
00001000
00000001
00000010
00000100
00001000
00000001
00000000
00000100
00000000
,
00000110
00000000
00001010
00000000
00000100
00000000
00010000
00001000
00100000
00010000
00100000
00010000
10000000
00000000
00100000
01000000
,
00010000
00000000
00100000
01000000
00000000
10000000
01000000
00100000
00010000
00000000
01000000
00000000
00100000
00000000
10000000
00000000
,
01000000
00000000
00000000
00000000
;

//---------------dance-double - ----------------
#NOTES:
     dance-double:
     :
     Medium:
     7:
     0.402886,0.345331,0.143888,0.079138,0.039569,361.000000,20.000000,11.000000,0.000000,0.000000,0.000000,0.402886,0.345331,0.143888,0.079138,0.039569,361.000000,20.000000,11.000000,0.000000,0.000000,0.000000:
// measure 0
00000000
00000000
00000000
00000000
,  // measure 1
00000000
00000000
00000000
00000000
,  // measure 2
00000000
00000000
00000000
00000000
,  // measure 3
00000000
00000000
00000000
00000000
00000000
00000000
00000000
00011000
,  // measure 4
00001000
00000000
00100000
00010000
01000000
00000000
00100000
10000000
,  // measure 5
01000000
00000000
00100000
01000000
10000000
01000000
00100000
00001000
,  // measure 6
00010000
00000000
00000100
00001000
00000001
00000000
00000010
00000100
,  // measure 7
00001000
00000000
00000010
00000100
00000001
00001000
00000100
00000010
,  // measure 8
00000001
00000000
00000101
00000000
00001000
00001000
00001100
00000000
,  // measure 9
00010000
00000000
00011000
00000000
00001000
00001000
00101000
00000000
,  // measure 10
01000000
00000000
01100000
00000000
10000000
00010000
10010000
00000000
,  // measure 11
00100000
00000000
00100000
00000000
10000000
01000000
00100000
10010000
,  // measure 12
00100000
00000000
00100000
00000000
00000000
00000000
01000000
00000000
00010000
00000000
10000000
00010000
10000000
00000000
00000000
00000000
,  // measure 13
01000000
00100000
00010000
00100000
01000000
00100000
00010000
00000000
,  // measure 14
00001000
00000000
00001000
00000000
00000000
00000000
00000010
00000000
00000100
00000000
00000001
00001000
00000001
00000000
00000000
00000000
,  // measure 15
00000100
00000000
00000000
00000010
00000000
00000000
00010000
00000000
00002000
00000000
00000000
00000000
00013000
00000000
00000000
00000000
,  // measure 16
00000100
00000100
00000000
00010000
00001000
00100000
00010000
00000000
,  // measure 17
01000000
00001000
00010000
00001000
01000000
00001000
00010000
00000000
,  // measure 18
00000010
00000010
00000000
00000100
00000001
00001000
00000100
00000000
,  // measure 19
00010000
00000000
00000000
00001000
00000000
00000000
00100000
00000000
02000000
00000000
00000000
00000000
03000000
00000000
11000000
00000000
,  // measure 20
00020000
00000000
02030000
00000000
03100000
10000000
00100000
10000000
,  // measure 21
00010000
00100000
00010000
00100000
00001000
00010000
00001000
00010000
,  // measure 22
00000100
00010000
00000100
00010000
00000010
00001000
00000010
00001000
,  // measure 23
00000001
00000000
00000010
00000000
00000100
00000000
00001000
00000000
00000001
00000000
00000000
00000100
00000000
00000000
00000010
00000000
,  // measure 24
00002000
00000000
00003200
00000000
00000310
00000001
00000010
00000001
,  // measure 25
00001000
00000100
00001000
00000100
00010000
00001000
00010000
00001000
,  // measure 26
00100000
00010000
00100000
00010000
10000000
01000000
10000000
01000000
,  // measure 27
00100000
00010000
10000000
01000000
00000000
00000000
00000000
00000000
,  // measure 28
10010000
10000000
01000000
00000000
00100000
00000000
00001000
00010000
,  // measure 29
00000100
00000000
00000010
00000100
00001000
00000001
00000100
00000000
,  // measure 30
00000010
00000100
00000001
00000000
00001000
00000100
00010000
00000000
,  // measure 31
00001000
00100000
00010000
10000000
00100000
00000000
01000000
00010000
,  // measure 32
10000000
10000000
11000000
00000000
00010000
00010000
01010000
00000000
,  // measure 33
00100000
00100000
00101000
00000000
00010000
00010000
00010100
00000000
,  // measure 34
00000010
00000010
00001010
00000000
00000100
00000100
00000101
00000000
,  // measure 35
00000001
00000000
00000001
00000000
00000001
00000001
00000001
00000110
,  // measure 36
00000001
00000001
00000000
00001000
00000100
00010000
00001000
00000000
,  // measure 37
00100000
00010000
10000000
00010000
00100000
00010000
10000000
00000000
,  // measure 38
01000000
01000000
00000000
00100000
00001000
00010000
00000100
00000000
,  // measure 39
00000010
00000000
00000000
00000100
00000000
00000000
00000010
00000000
00000001
00000000
00000000
00000000
00001001
00000000
00001001
00000000
,  // measure 40
00000100
00000100
00000000
00000010
00001000
00000010
00000100
00000000
,  // measure 41
00000001
00000100
00001000
00000100
00000001
00000100
00001000
00000000
,  // measure 42
00010000
00010000
00000000
00001000
00100000
01000000
10000000
00000000
,  // measure 43
00010000
00000000
00000000
01000000
00000000
00000000
00010000
00000000
20000000
00000000
00000000
00000000
30000000
00000000
01100000
00000000
,  // measure 44
00020000
00000000
00230000
00000000
00310000
01000000
00010000
01000000
,  // measure 45
00001000
00010000
00001000
00010000
00000100
00000010
00000100
00000010
,  // measure 46
00000001
00000100
00000001
00000100
00000010
00001000
00000010
00001000
,  // measure 47
00000100
00000000
00010000
00000000
00001000
00000000
00010000
00000000
00100000
00000000
00000000
00010000
00000000
00000000
00001000
00000000
,  // measure 48
00020000
00000000
00030200
00000000
00010300
00001000
00010000
00001000
,  // measure 49
00100000
00010000
00100000
00010000
10000000
01000000
10000000
01000000
,  // measure 50
00100000
00001000
00100000
00001000
00010000
00000100
00010000
00000100
,  // measure 51
00001000
00000000
00000010
00000000
00000100
00000000
00000001
00000000
00001000
00000000
00000000
00000001
00000000
00000000
00000010
00000000
,  // measure 52
00000100
00000100
00000000
00000010
00000001
00000010
00000001
00000000
,  // measure 53
00001000
00000100
00000010
00000001
00000010
00000100
00001000
00000000
,  // measure 54
00000100
00000100
00000000
00010000
00001000
00010000
00100000
00000000
,  // measure 55
01000000
00000000
00000000
00010000
00000000
00000000
10000000
00000000
00100000
00000000
00000000
00000000
01000000
00000000
00010000
00000000
,  // measure 56
10000000
10000000
00000000
00100000
10000000
01000000
00100000
00000000
,  // measure 57
01000000
00100000
00001000
00100000
01000000
10000000
00100000
00000000
,  // measure 58
01000000
01000000
00000000
00010000
00100000
00001000
00010000
00000000
,  // measure 59
00000100
00000000
00000000
00000010
00000000
00000000
00000100
00000000
00001000
00000000
00000100
00000000
00000010
00000000
00000001
00000000
,  // measure 60
00000100
00000000
00000000
00000000
;

//---------------dance-double - ----------------
#NOTES:
     dance-double:
     :
     Easy:
     3:
     0.280582,0.302165,0.230221,0.237415,0.000000,208.000000,32.000000,33.000000,0.000000,0.000000,0.000000,0.280582,0.302165,0.230221,0.237415,0.000000,208.000000,32.000000,33.000000,0.000000,0.000000,0.000000:
// measure 0
00000000
00000000
00000000
00000000
,  // measure 1
00000000
00000000
00000000
00000000
,  // measure 2
00000000
00000000
00000000
00000000
,  // measure 3
00000000
00000000
00000000
00000000
,  // measure 4
00001000
00010000
00000100
00000010
,  // measure 5
00000001
00000000
00000100
00000000
00000010
00000000
00001000
00000001
,  // measure 6
00000010
00000100
00010000
00001000
,  // measure 7
00100000
00000000
00010000
00000000
10000000
00000000
01000000
00100000
,  // measure 8
01000000
10000000
00010000
01000000
,  // measure 9
00100000
01000000
00001000
00000000
,  // measure 10
00010000
00000100
00000010
00000100
,  // measure 11
00001000
00001000
00001000
00000001
,  // measure 12
00000220
00000330
00000000
00000000
00000001
00000000
00001000
00000000
,  // measure 13
00000100
00010000
00001000
00100000
,  // measure 14
02200000
03300000
00000000
00000000
10000000
00000000
00010000
00000000
,  // measure 15
00100000
00001000
00010000
00001000
,  // measure 16
00000220
00000330
00001000
00000000
00010000
00000000
00001000
00000000
,  // measure 17
00100000
00000000
00010000
00000000
01000000
00000000
02200000
03300000
,  // measure 18
00000000
10000000
01000000
00100000
,  // measure 19
00001000
00020000
00000200
00030300
,  // measure 20
00000110
00001001
00000010
00000001
,  // measure 21
00000100
00000010
00001000
00000100
,  // measure 22
00010000
00001000
00100000
00010000
,  // measure 23
01000000
00100000
10000000
00000000
,  // measure 24
10010000
01100000
10000000
00100000
,  // measure 25
01000000
00010000
00100000
00001000
,  // measure 26
00010000
00000100
00001000
00000010
,  // measure 27
00000100
00000001
00000010
00000000
,  // measure 28
00000011
00000100
00001100
00010000
,  // measure 29
00011000
00100000
01010000
10100000
,  // measure 30
11000000
01000000
00110000
00001000
,  // measure 31
00011000
00000010
00000101
00001010
,  // measure 32
00001100
00000020
00000030
00000002
,  // measure 33
00000103
00000020
00000030
00002000
,  // measure 34
00003100
00000100
00010000
00001000
,  // measure 35
00100000
00100000
00100000
10000000
,  // measure 36
02200000
03300000
00000000
00000000
00010000
00000000
10000000
00000000
,  // measure 37
00100000
00010000
00001000
00000100
,  // measure 38
00000220
00000330
00000000
00000000
00001000
00000000
00000100
00000000
,  // measure 39
00010000
00000000
00001000
00000000
00100000
00000000
01000000
01000000
,  // measure 40
02200000
03300000
00000000
00000000
00100000
00000000
01000000
00000000
,  // measure 41
00001000
00010000
00000100
00001000
,  // measure 42
00000220
00000330
00000000
00000000
00000001
00000000
00000010
00000000
,  // measure 43
00000200
00020300
00002000
00033000
,  // measure 44
00011000
00110000
00010000
10000000
,  // measure 45
00100000
01000000
00010000
10000000
,  // measure 46
01000000
00010000
00001000
00000010
,  // measure 47
00000001
00000100
00000010
00000000
,  // measure 48
00000101
00001100
00000001
00000010
,  // measure 49
00001000
00000010
00000001
00000100
,  // measure 50
00001000
00010000
01000000
10000000
,  // measure 51
00100000
01000000
00001000
00000000
,  // measure 52
00022000
00033000
00000000
00000000
00001000
00000000
00000100
00000000
,  // measure 53
00000001
00000010
00001000
00010000
,  // measure 54
00022000
00033000
00000000
00000000
00010000
00000000
01000000
00000000
,  // measure 55
10000000
00100000
00010000
00001000
,  // measure 56
00022000
00033000
00000000
00000000
00001000
00000000
00000010
00000000
,  // measure 57
00000001
00000100
00001000
00010000
,  // measure 58
00022000
00033000
00000000
00000000
00010000
00000000
00100000
00000000
,  // measure 59
10000000
01000000
00010000
00001000
,  // measure 60
00011000
00000000
00000000
00000000
;
