#TITLE:Crystallize;
#SUBTITLE:;
#ARTIST:Lindsey Stirling;
#TITLETRANSLIT:;
#SUBTITLETRANSLIT:;
#ARTISTTRANSLIT:;
#GENRE:Dubstep;
#CREDIT:;
#BANNER:Crystallize-bn.png;
#BACKGROUND:Crystallize-bg.png;
#LYRICSPATH:;
#CDTITLE:;
#MUSIC:Crystallize.mp3;
#OFFSET:-2.020000;
#SAMPLESTART:56.857143;
#SAMPLELENGTH:13.740299;
#LASTBEATHINT:145.976227;
#SELECTABLE:YES;
#DISPLAYBPM:70.000000;
#BPMS:0.000000=70.000000
,65.250000=140.000000
,66.000000=70.000000
,67.250000=35.000000
,67.312500=105.000000
,67.500000=35.000000
,67.625000=105.000000
,68.000000=35.000000
,68.250000=105.000000
,69.000000=70.000000
,69.250000=140.000000
,70.000000=70.000000
,73.250000=140.000000
,74.000000=70.000000
,76.000000=35.000000
,76.250000=105.000000
,77.000000=70.000000
,77.250000=140.000000
,78.000000=70.000000
,79.500000=140.000000
,80.000000=35.000000
,80.250000=103.000000
,81.000000=70.000000
,81.250000=140.000000
,83.000000=70.000000
,83.250000=35.000000
,83.312500=105.000000
,83.500000=35.000000
,83.625000=105.000000
,84.000000=35.000000
,84.250000=105.000000
,85.000000=70.000000
,91.250000=35.000000
,91.312500=105.000000
,91.500000=35.000000
,91.625000=105.000000
,92.000000=35.000000
,92.250000=105.000000
,93.000000=70.000000
;
#STOPS:65.250000=0.054000,
65.375000=0.054000,
65.500000=0.054000,
65.625000=0.054000,
65.750000=0.054000,
65.875000=0.054000,
69.250000=0.054000,
69.375000=0.054000,
69.500000=0.054000,
69.625000=0.054000,
69.750000=0.054000,
69.875000=0.054000,
73.250000=0.107000,
73.500000=0.107000,
73.750000=0.107000,
77.250000=0.107000,
77.500000=0.107000,
77.750000=0.107000,
79.500000=0.036000,
79.583336=0.036000,
79.666664=0.036000,
79.750000=0.036000,
79.833336=0.036000,
79.916664=0.036000,
81.250000=0.054000,
81.375000=0.054000,
81.500000=0.054000,
81.625000=0.054000,
81.750000=0.054000,
81.875000=0.054000,
82.000000=0.054000,
82.125000=0.054000,
82.250000=0.054000,
82.375000=0.054000,
82.500000=0.054000,
82.625000=0.054000,
82.750000=0.054000,
82.875000=0.054000
;
#BGCHANGES:;
#KEYSOUNDS:;
#ATTACKS:;

//---------------dance-single - ----------------
#NOTES:
     dance-single:
     :
     Hard:
     9:
     0.577694,0.668048,0.231961,0.672687,0.726812,406.000000,30.000000,87.000000,0.000000,0.000000,0.000000,0.577694,0.668048,0.231961,0.672687,0.726812,406.000000,30.000000,87.000000,0.000000,0.000000,0.000000:
0000
0000
0000
0000
,
0000
0000
0000
0000
,
0000
0000
0000
0000
,
0000
0000
0000
0000
,
1000
0000
0000
0000
1100
0001
0010
0100
2000
0000
3002
0003
0201
0000
0302
0000
,
0023
0000
0000
0000
0000
0000
0030
0000
0110
0000
1000
0000
0100
0000
0010
0000
0001
0000
0000
0010
0000
0000
0100
0000
1001
0000
0000
0000
0200
0000
0000
0000
,
0302
0000
0000
0003
1001
0000
1000
0000
0001
0000
1000
0010
0002
0000
0023
0000
,
2030
0000
0000
0000
3100
0000
0000
0000
0011
0000
0000
0000
0100
0000
0000
0000
0002
0000
0000
0103
0000
0000
0010
1000
0001
0000
0100
0001
0000
0001
1000
0001
,
0200
0000
0301
0000
0102
0000
1003
0000
0100
0000
0010
0100
2000
0000
3020
0000
,
0032
0000
0000
0000
0013
0000
0000
0000
0011
0000
0010
0000
1000
0000
0001
0000
0100
0000
0010
1000
0010
0000
0100
0000
0001
0000
0100
0000
1000
0000
0100
0000
,
0002
0000
1003
0000
2001
0000
3010
0000
1000
0000
0100
0010
0002
0000
0203
0000
,
0320
0000
0000
0000
0000
0000
0000
0000
1000
0000
0000
0000
0001
0000
0000
0000
1030
0000
0100
0000
0010
0000
0001
0000
1000
0000
0000
0001
0000
0000
0100
0001
,
1000
0100
1000
0100
0010
0001
0010
0001
1000
0100
0010
0001
0010
0100
1000
0001
,
0100
0000
0001
0000
0100
0000
0001
0000
1000
0000
0010
0000
1000
0000
0010
0000
0100
0000
0001
1000
0010
0000
0100
0001
1000
0000
0100
0000
0010
0000
0001
0000
,
2000
3100
0002
0103
2000
3100
0002
0103
,
1000
0000
0010
0000
0100
0000
0010
0000
1000
0000
0001
0000
0010
0000
0100
0010
0100
1000
0100
1000
0001
0100
0001
0200
0010
0000
0000
0000
0000
0000
0000
0000
,
0301
0010
0001
1000
0001
0000
0100
0000
0101
0000
1000
0100
1000
0001
1000
0100
1000
0000
0100
0010
0001
0000
0010
0100
1000
0000
0002
0000
0203
0000
0000
0300
,
2002
0000
0000
0000
0000
0000
3003
0000
0001
0000
0100
0001
1000
0001
1000
0001
0010
0000
0001
1000
0100
0000
1000
0001
0200
0000
0300
0200
0000
0300
0200
0000
,
0301
0100
0001
0100
0001
0000
1000
0000
1100
0000
0001
0000
0001
0000
0001
0000
0100
0000
0010
1000
0010
0100
0001
0100
0001
0000
0010
0001
1000
0000
0001
2000
,
0002
0000
0000
0000
3003
0000
0000
0000
0101
0000
1000
0000
1000
0000
1000
0000
0200
0000
0300
2000
0000
3000
0002
0000
0103
0000
0001
0010
0200
0000
0000
0000
,
2300
0000
0000
0000
3000
0000
0000
0000
1100
0000
1000
0100
0010
0100
0010
0100
1000
0100
0010
0001
0010
0100
0010
0001
0010
0000
0200
0000
2300
0000
0000
0000
,
3002
0000
0000
0000
0003
0000
0000
0000
0101
0000
1000
0100
0010
0000
0001
0010
0100
0000
1000
0100
1000
0100
0010
0001
0020
0000
0030
0002
0000
0003
2000
0000
,
3100
0010
0100
0010
0100
0000
1000
0000
1001
0000
0001
0000
0100
0000
1000
0000
0100
0000
0001
0000
1000
0000
0001
0000
0011
0000
0200
0000
2000
0000
3300
0000
,
0022
0000
0000
0033
0000
0000
0000
0000
1001
0000
0001
0000
0100
0000
0001
0000
1000
0000
0000
1100
0000
0000
0001
1000
0010
0000
0100
0001
0000
0001
1000
0100
,
0020
0000
0031
1000
0200
0000
2300
0000
3020
0000
0130
0001
2000
0000
3200
0000
,
0310
0000
0000
0000
0001
0000
0000
0000
0011
0000
0000
0000
2000
0000
0000
0000
3010
0000
0000
0010
0200
0000
0000
0300
0102
0000
0000
0000
2003
0000
0000
0000
,
3100
0000
0000
0000
0011
0000
0000
0000
1001
0000
0000
0000
2100
0000
0000
0000
0000
0000
3002
0000
0000
0000
0000
0000
0203
0000
0000
0000
0000
0000
0310
0000
0000
1000
0000
0000
0200
0000
0000
0000
0000
0000
0310
0000
0000
0000
0000
0000
,
0002
0000
0000
0000
0013
0000
0000
0000
1002
0000
0000
0000
1003
0000
0100
0000
0010
0000
0100
1000
0100
0000
0010
0001
0010
0000
0001
0100
0001
0000
1000
0010
,
2000
0000
0000
0000
3001
0000
0000
0000
1020
0000
0000
0000
0130
0000
0000
0000
0001
0010
0001
0010
0100
1000
0100
1000
0001
0100
0001
0100
0010
1000
0010
1000
,
0002
0000
0000
0000
0203
0000
0000
0000
1300
0000
0100
0000
0001
0000
0100
0000
0001
0000
1000
0001
0000
0000
0100
0000
1001
0000
0000
0000
0100
0000
0000
0000
,
0002
0000
1003
0100
0002
0000
0203
0000
2300
0000
3010
0000
0110
0000
0001
0000
,
0020
0000
0000
0000
0031
0000
0000
0000
2000
0000
0000
0000
3001
0000
0000
0000
0010
0000
0001
0100
0000
0000
0001
0000
1100
0000
0000
0000
0001
0000
0000
0000
,
2000
0000
0000
0000
3000
0001
0010
0100
2000
0000
3200
0000
0302
0000
0203
0000
,
0320
0000
0000
0000
0030
1000
0010
0001
2000
0000
0000
0000
3002
0000
0203
0000
,
0320
0000
0000
0000
0000
0000
0000
0000
0030
0000
1000
0010
0001
0000
0001
0100
,
2000
0000
0000
0000
,
3000
0000
0000
0000
;

//---------------dance-single - ----------------
#NOTES:
     dance-single:
     :
     Medium:
     7:
     0.384393,0.389695,0.108249,0.255157,0.340210,301.000000,14.000000,33.000000,0.000000,0.000000,0.000000,0.384393,0.389695,0.108249,0.255157,0.340210,301.000000,14.000000,33.000000,0.000000,0.000000,0.000000:
0000
0000
0000
0000
,
0000
0000
0000
0000
,
0000
0000
0000
0000
,
0000
0000
0000
0000
,
1000
0000
0000
0000
0001
1000
0100
0010
0001
0000
0100
0000
1001
0000
0100
0000
,
0001
0000
0000
0000
1000
0001
0010
0100
1000
0000
0100
0000
1001
0000
0100
0000
,
1000
0000
0000
0000
0110
0000
0000
0000
0001
0000
1000
0100
0001
0000
0100
0000
,
1000
0000
0000
0000
0010
0000
0000
0000
0110
0000
0000
0000
0000
0000
0000
0000
0001
0000
0000
0100
0000
0000
0001
0000
1000
0000
0000
0100
0000
0000
0010
0000
,
0001
0001
0110
0000
1000
0100
0010
0001
,
0100
0000
0000
0000
0000
0000
0000
0000
0101
0000
0000
0000
1000
0000
0000
0000
0001
0000
0000
0001
0010
0000
0000
0000
0100
0000
0000
0000
1000
0000
0100
0000
,
0010
0000
0001
0000
1100
0000
0000
0000
0010
0000
0001
1000
0001
0000
0100
0000
,
0010
0000
0000
0000
1000
0000
0000
0000
1100
0000
0000
0000
0010
0000
0000
0000
0001
0000
1000
0000
0001
0000
0100
0000
0010
0000
0000
1000
0000
0000
0001
0000
,
0100
0001
1000
0100
0010
0000
0001
0000
1000
0001
0010
0100
1000
0000
0010
0000
,
0100
0001
1000
0001
0010
0000
0001
0000
1000
0100
1000
0001
1000
0000
0100
0000
,
0010
0000
0100
1000
0001
0000
0100
0000
0010
0000
0100
0000
0001
0000
1000
0000
,
0100
0000
0100
0000
0010
0000
0010
0000
0001
0000
0010
0000
0200
0000
0000
0300
,
1000
0100
0010
0001
1000
0010
0100
0010
1000
0000
0100
0000
0010
0002
0000
0003
,
2002
0000
0000
0000
0000
0000
3003
0000
0010
0000
0100
0000
1000
0000
0100
0000
0010
0000
0000
0010
0000
0000
0001
0000
1000
0000
0000
0001
0000
0000
1000
0000
,
0100
0000
0010
0000
0100
1000
1000
1000
0001
0001
0200
0000
0310
1000
0001
0010
,
0200
0000
0000
0000
0000
0000
0000
0000
1300
0000
0001
0000
0001
0000
0001
0000
0100
0000
0000
0100
0000
0000
0010
0000
0100
0000
0001
0000
2000
0000
0000
0000
,
3200
0000
0000
0300
0110
0001
1000
0001
1000
0001
1000
0001
1000
0200
0000
0300
,
2002
0000
0000
0000
3000
0000
0000
0000
0103
0000
0001
0000
0010
0000
0100
0000
1000
0000
0000
0001
0000
0000
0100
0000
0001
0000
0000
1000
0000
0000
0010
0000
,
0200
0000
0001
0000
0310
1000
0100
0010
0001
0000
1000
0000
0100
2000
0000
3000
,
0202
0000
0000
0000
0000
0300
0000
0000
1003
0000
0001
0000
1000
0000
0001
0000
0100
0000
0000
0010
0000
0000
1000
0000
0001
0000
0000
0000
0110
0000
0000
0000
,
1000
0000
0001
0100
0001
0000
1000
0000
0010
0000
1000
0100
0010
0000
0001
0000
,
1000
1000
0100
0100
0001
0001
0100
1000
,
1000
0000
0000
0000
0100
0000
0000
0000
0010
0000
0000
0000
0001
0000
0000
0000
0000
0000
0100
0000
0000
0000
0000
0000
0010
0000
0000
0000
0000
0000
1000
0000
0000
0001
0000
0000
1000
0000
0000
0000
0000
0000
0010
0000
0000
0000
0000
0000
,
0100
0000
0001
0000
0010
0000
0001
0000
1000
0100
1000
0100
0010
0001
0020
0000
,
0031
0000
0100
0000
0001
0000
0100
0000
0001
0010
0100
1000
0001
0010
0100
1000
,
0010
0000
0000
0000
0010
0000
0000
0000
1000
0000
0100
0000
0010
0000
0001
0000
1000
0000
0000
0010
0100
0000
0000
0000
1001
0000
0000
0000
0100
0000
0000
0000
,
0020
0130
0002
1003
0020
0130
0002
1003
,
0200
0000
0000
0000
0310
0000
0000
0000
0002
0000
0000
0000
1003
0000
0000
0000
0100
0000
0000
1000
0001
0000
0100
0000
0010
0000
0100
0000
0010
0000
0000
0000
,
2000
0000
0000
0000
3000
0100
1000
0100
2000
0000
3020
0000
0230
0000
0302
0000
,
0023
0000
0000
0000
0030
0001
0100
0001
0200
0000
0000
0000
0320
0000
2030
0000
,
3200
0000
0000
0000
0000
0000
0000
0000
0000
0000
0310
0100
1000
0000
1000
0100
,
0002
0000
0000
0000
,
0003
0000
0000
0000
;

//---------------dance-single - ----------------
#NOTES:
     dance-single:
     :
     Easy:
     4:
     0.240798,0.236600,0.131445,0.231961,0.000000,171.000000,17.000000,30.000000,0.000000,0.000000,0.000000,0.240798,0.236600,0.131445,0.231961,0.000000,171.000000,17.000000,30.000000,0.000000,0.000000,0.000000:
0000
0000
0000
0000
,
0000
0000
0000
0000
,
0000
0000
0000
0000
,
0000
0000
0000
0000
,
1001
0000
0110
0001
0100
0000
0010
0000
,
1000
0000
1100
0010
0001
0000
0100
0010
,
0100
0000
1001
0000
0010
1000
0001
1000
,
0010
0000
1001
0000
0100
0100
1001
0010
,
0002
0000
0103
0000
0010
1000
0001
1000
,
0100
0000
1001
1000
0100
0010
0001
0100
,
0010
0000
1001
0000
0010
0001
1000
0001
,
0100
0000
1010
0000
0100
0100
0011
1000
,
0001
0100
0001
0100
0001
0100
0010
1000
,
0100
1000
0100
1000
0100
1000
0001
0100
,
0020
2030
3002
0203
,
0310
0100
0010
0100
0010
0200
0020
0330
,
1001
0001
0002
0000
0103
0100
0010
0000
,
2001
0000
3010
0100
0001
0000
1020
0000
,
0130
0000
0002
0000
0103
0010
0100
0001
,
2000
0000
3200
0000
0310
0001
1000
0020
,
0130
0000
1001
0100
0010
0100
0010
0000
,
2001
0000
3100
0010
0100
0000
1000
0001
,
0100
0000
0010
0000
0100
0001
0100
0000
,
0102
0000
1003
0100
0010
0000
0100
0000
,
1100
0100
0100
0000
0010
0010
0010
0000
,
0001
0000
0100
0000
0010
1000
0001
0010
,
0200
0000
0010
0000
1000
0000
0310
0001
,
2000
0000
0100
0000
3001
1000
0001
1000
,
0200
0000
0310
0100
1000
0100
0010
0000
,
0002
0000
0103
0001
1000
0001
0100
0000
,
0010
1000
0001
0010
,
0200
0000
2300
0000
3020
0000
0130
0001
,
2000
0000
0002
3000
,
0020
0003
0200
0030
,
2000
0000
0300
3002
,
0023
0000
0000
0000
,
0030
0000
0000
0000
;

//---------------dance-single - ----------------
#NOTES:
     dance-single:
     :
     Beginner:
     2:
     0.136968,0.164692,0.007732,0.262889,0.000000,89.000000,1.000000,34.000000,0.000000,0.000000,0.000000,0.136968,0.164692,0.007732,0.262889,0.000000,89.000000,1.000000,34.000000,0.000000,0.000000,0.000000:
0000
0000
0000
0000
,
0000
0000
0000
0000
,
0000
0000
0000
0000
,
0000
0000
0000
0000
,
0010
0010
0000
0100
,
0100
0100
0000
0001
,
0001
0001
0000
0100
,
0100
0100
0000
0010
,
0020
0030
0000
1000
,
2000
3000
0002
0003
,
0100
0100
0000
0010
,
0010
0010
0000
1000
,
2000
3000
0002
0003
,
0200
0300
0020
0030
,
1000
1000
1000
0000
,
0001
0001
0001
0100
,
0220
0000
0000
0330
0000
0000
1000
0000
0000
2000
0000
3000
,
0001
0000
0002
0003
0002
0000
0003
0000
,
0100
0100
0200
0300
,
0020
0000
0030
0010
0000
0000
0010
0000
0000
0010
0000
0000
,
1000
0000
0000
2000
0000
0000
0000
3000
0000
1000
0000
0000
,
0200
0000
0300
0100
0000
0000
0100
0000
0000
0100
0000
0000
,
0010
0000
0000
0010
0000
0000
0010
0000
0000
0020
0000
0030
,
0001
0001
0001
0001
,
0200
0300
0020
0030
,
2000
3000
0002
0003
,
0020
0030
0200
0300
,
2000
3000
0010
0010
,
0020
0000
0030
1000
0000
0000
1000
0000
0000
1000
0000
0000
,
2000
0000
3000
0001
0000
0000
0001
0000
0000
0001
0000
0000
,
0020
0030
0200
0300
,
2000
3000
0020
0030
,
0200
0000
0300
0001
,
0002
0000
0003
0010
,
0020
0000
0030
0100
,
0200
0000
0300
0000
;

//---------------dance-double - ----------------
#NOTES:
     dance-double:
     :
     Hard:
     9:
     0.460609,0.556707,0.239693,0.270621,0.572171,351.000000,31.000000,35.000000,0.000000,0.000000,0.000000,0.460609,0.556707,0.239693,0.270621,0.572171,351.000000,31.000000,35.000000,0.000000,0.000000,0.000000:
// measure 0
00000000
00000000
00000000
00000000
,  // measure 1
00000000
00000000
00000000
00000000
,  // measure 2
00000000
00000000
00000000
00000000
,  // measure 3
00000000
00000000
00000000
00000000
,  // measure 4
10000000
00000000
00000000
00000000
00011000
00010000
00000100
00000010
00000001
00000000
00000100
00000000
00001010
00000000
00000101
00000000
,  // measure 5
00000010
00000000
00000000
00000000
00000000
00000000
00000000
00000000
00001100
00000000
00000010
00000000
00000001
00000000
00000010
00000000
00000100
00000000
00000000
00000100
00000000
00000000
00000000
00000000
00001100
00000000
00000000
00000000
00000100
00000000
00000000
00000000
,  // measure 6
00010000
00000000
00000000
00000000
00011000
00000000
00000000
00000000
00001000
00000000
00100000
00010000
01000000
00000000
10000000
00000000
,  // measure 7
00010000
00000000
00000000
00000000
00100000
00000000
00000000
00000000
10000000
00000000
00000000
00000000
00010000
00000000
00000000
00000000
10000000
00000000
00000000
01000000
00000000
00000000
10000000
00000000
00010000
00000000
01000000
00010000
00000000
10000000
01000000
10000000
,  // measure 8
01000000
00000000
00000000
00000000
00011000
00000000
00000000
00000000
00000010
00000000
00000001
00001000
00000001
00000000
00000100
00000000
,  // measure 9
00000010
00000000
00000000
00000000
00001000
00000100
00000010
00000001
00000100
00000010
00000100
00000001
00000100
00000010
00000100
00000001
,  // measure 10
00001000
00000000
00000000
00000000
00000101
00000000
00000000
00000000
00000010
00000000
00000001
00000100
00001000
00000000
00010000
00000000
,  // measure 11
02200000
00000000
00000000
00000000
03300000
00000000
00000000
00000000
20020000
00000000
00000000
00000000
30030000
00000000
00000000
00000000
10000000
00000000
01000000
00000000
00100000
00000000
00010000
00000000
00001000
00000000
00000000
00010000
00000000
00000000
00100000
00010000
,  // measure 12
10000000
01000000
10000000
00010000
00100000
00001000
00010000
00000100
00000010
00000100
00001000
00000001
00000100
00000010
00000100
00000001
,  // measure 13
00001000
00000000
00000010
00000000
00000100
00000000
00000001
00000000
00000100
00000000
00001000
00000000
00000100
00000000
00000010
00000000
00010000
00000000
00000000
00001000
00000000
00000000
00100000
00001000
00010000
00000000
00001000
00000000
00100000
00000000
00010000
00000000
,  // measure 14
10000000
01000000
00100000
00010000
00001000
00000100
00000010
00000001
,  // measure 15
00000001
00000000
00000010
00000000
00000100
00000000
00001000
00000000
00010000
00000000
00100000
00000000
01000000
00000000
10000000
00000000
00010000
01000000
00010000
01000000
00010000
01000000
00010000
01000000
00200000
00000000
00000000
00000000
00300000
00000000
00000000
00000000
,  // measure 16
10010000
00000000
10000000
00000000
01000000
00000000
00100000
00000000
00010000
00000000
10000000
01000000
10000000
01000000
10000000
01000000
10000000
00000000
00010000
00000000
00100000
00000000
00001000
00000000
00010000
00000000
00000100
00000000
00000200
00000000
00000000
00000300
,  // measure 17
00002002
00000000
00000000
00000000
00000000
00000000
00003003
00000000
00000110
00000000
00000001
00000100
00000001
00000100
00000001
00001000
00000001
00000000
00000000
00000001
00000000
00000000
00000100
00000000
00000001
00000000
00000000
00001000
00000000
00000000
00000100
00000000
,  // measure 18
00000010
00000100
00001000
00000001
00000001
00001000
00001000
00001000
00010000
10000000
00010000
10000000
01000000
00100000
00010000
00000000
,  // measure 19
02200000
00000000
00000000
00000000
00000000
00000000
03300000
00000000
10010000
00000000
00100000
00000000
00100000
00000000
00100000
00000000
10000000
00000000
00000000
01000000
00000000
00000000
00010000
00000000
00001000
00000000
00000100
00000000
00000020
00000000
00000030
00000000
,  // measure 20
00002002
00000000
00000000
00000000
00000000
00000000
00003003
00000000
00000110
00000000
00001000
00000100
00001000
00000100
00001000
00000100
00010000
00001000
00010000
00001000
00010000
00001000
00010000
00001000
00100000
00000000
00010000
00000000
00020000
00000000
00030000
00000000
,  // measure 21
02020000
00000000
00000000
00000000
00000000
00000000
03030000
00000000
10100000
00000000
10000000
00000000
01000000
00000000
00100000
00000000
01000000
00000000
10000000
00000000
00010000
00000000
01000000
00000000
10000000
00000000
00000000
01000000
00000000
00000000
00010000
00000000
,  // measure 22
00100000
01000000
10000000
01000000
00100000
00001000
00010000
00000100
00000010
00000001
00000100
00000010
00001000
00000100
00000200
00000300
,  // measure 23
00002002
00000000
00000000
00000000
00000000
00000000
00003003
00000000
00000011
00000000
00000100
00000000
00001000
00000000
00000100
00000000
00010000
00000000
00000000
00001000
00000000
00000000
00100000
00010000
01000000
00000000
01000000
00100000
00000000
10000000
00010000
01000000
,  // measure 24
00010000
00000000
10000000
01000000
00010000
00000000
00001000
00000000
00010000
00000000
01000000
10000000
00010000
00000000
00100000
00000000
,  // measure 25
00001000
00000000
00000000
00000000
00001000
00000000
00000000
00000000
00011000
00000000
00000000
00000000
00001000
00000000
00000000
00000000
00000110
00000000
00000000
00001000
00000000
00000000
00000001
00000000
00000101
00000000
00000000
00000000
00001000
00000000
00000000
00000000
,  // measure 26
00000011
00000000
00000000
00000000
00000110
00000000
00000000
00000000
00001100
00000000
00000000
00000000
00011000
00000000
00000000
00000000
00000000
00000000
00100000
00000000
00000000
00000000
00000000
00000000
00010000
00000000
00000000
00000000
00000000
00000000
10000000
00000000
00000000
00010000
00000000
00000000
00100000
00000000
00000000
00000000
00000000
00000000
00001000
00000000
00000000
00000000
00000000
00000000
,  // measure 27
00020000
00000000
00000000
00030000
00010100
00000000
00000000
00000000
00001000
00000100
00000010
00000001
00001000
00000100
00000010
00000001
,  // measure 28
00002000
00000000
00003002
00000000
00002003
00000000
00023000
00000000
10030000
01000000
00100000
00010000
10000000
01000000
00100000
00010000
,  // measure 29
20000000
00000000
00000000
00000000
30020000
00000000
00000000
00000000
00031000
00000000
00000100
00000000
00000001
00000000
00000100
00000000
00001000
00000000
00000000
00000100
00000000
00000000
00010000
00000000
00011000
00000000
00000000
00000000
00001000
00000000
00000000
00000000
,  // measure 30
00100000
00000000
00010000
01000000
00010000
00000000
10000000
00000000
01000000
00000000
00000000
00000000
01100000
00000000
00000000
00000000
,  // measure 31
00020000
00000000
00000000
00000000
00000000
00000000
00000000
00000000
02030000
00000000
00000000
00000000
00000000
00000000
00000000
00000000
03100000
00000000
00000000
00100000
10000000
00000000
10000000
00000000
01000000
00000000
00010000
00000000
00001000
00000000
00000000
00000000
,  // measure 32
00020000
00000000
00000000
00000000
00030000
00000100
00010000
00000010
00001000
00000000
00000100
00000000
00000010
00000000
00000001
00000000
,  // measure 33
00000200
00000000
00000000
00000000
00000300
00000010
00001000
00000001
00000020
00000000
00000000
00000000
00002030
00000000
00023000
00000000
,  // measure 34
00230000
00000000
00000000
00000000
00000000
00000000
00000000
00000000
00300000
00000000
10000000
01000000
00010000
00000000
00010000
00100000
,  // measure 35
20000000
00000000
00000000
00000000
,  // measure 36
30000000
00000000
00000000
00000000
;

//---------------dance-double - ----------------
#NOTES:
     dance-double:
     :
     Medium:
     7:
     0.343523,0.375777,0.077320,0.139177,0.282219,283.000000,10.000000,18.000000,0.000000,0.000000,0.000000,0.343523,0.375777,0.077320,0.139177,0.282219,283.000000,10.000000,18.000000,0.000000,0.000000,0.000000:
// measure 0
00000000
00000000
00000000
00000000
,  // measure 1
00000000
00000000
00000000
00000000
,  // measure 2
00000000
00000000
00000000
00000000
,  // measure 3
00000000
00000000
00000000
00000000
,  // measure 4
00001000
00000000
00000000
00000000
00010000
00001000
00100000
00010000
01000000
00000000
00100000
00000000
10000000
00000000
01000000
00000000
,  // measure 5
00100000
00000000
00000000
00000000
00001000
00010000
00001000
00010000
00000100
00000000
00000000
00000000
00000010
00000000
00000001
00000000
,  // measure 6
00000100
00000000
00000000
00000000
00001001
00000000
00000000
00000000
00000010
00000000
00000001
00000100
00001000
00000000
00000100
00000000
,  // measure 7
00000001
00000000
00001000
00000100
00001000
00000100
00010000
00001000
,  // measure 8
00100000
00000000
00000000
00000000
00010000
00000000
00000000
00000000
10000000
00000000
01000000
00100000
00010000
00000000
01000000
00000000
,  // measure 9
00100000
00000000
00000000
00000000
10000000
00010000
01000000
00010000
10000000
01000000
00100000
00010000
10000000
01000000
00100000
00010000
,  // measure 10
00100000
00000000
00000000
00000000
00001000
00000000
00000000
00000000
00010000
00000000
00000100
00001000
00000010
00000000
00000100
00000000
,  // measure 11
00000001
00000000
00000000
00000000
00001001
00000000
00000000
00000000
00000010
00000001
00000010
00000001
00000100
00000000
00000010
00000000
,  // measure 12
00001000
00000100
00001000
00000100
00001000
00000100
00001000
00000100
00010000
00000000
00010000
00000000
00001000
00000000
00001000
00000000
,  // measure 13
00100000
00010000
00100000
00010000
00100000
00010000
00100000
00010000
10000000
00000000
10000000
00000000
00100000
00000000
00100000
00000000
,  // measure 14
01000000
00010000
10000000
01000000
00100000
00001000
00010000
00000100
,  // measure 15
00001000
00000000
00000001
00000000
00001000
00000000
00000001
00000000
00001000
00000000
00000001
00000000
00001000
00000000
00000001
00000000
00001000
00000001
00001000
00000001
00001000
00000001
00001000
00000002
00002000
00000000
00000000
00000000
00003003
00000000
00000000
00000000
,  // measure 16
00000010
00001000
00000100
00010000
00001000
00100000
00010000
00100000
00010000
00000000
01000000
00000000
00100000
10000000
00010000
00000000
,  // measure 17
02200000
00000000
00000000
00000000
03300000
00000000
00000000
00000000
10000000
00000000
01000000
00000000
10000000
00000000
01000000
00000000
00100000
00000000
00000000
00000000
00010000
00000000
00000000
00000000
00100000
00000000
00000000
00001000
00000000
00000000
00010000
00000000
,  // measure 18
00000010
00000000
00001000
00000001
00000100
00000010
00000010
00000010
00001000
00000000
00000100
00000000
00010000
00001000
00100000
00000000
,  // measure 19
20020000
00000000
00000000
00000000
30030000
00000000
00000000
00000000
01100000
00000000
10000000
00000000
10000000
00000000
10000000
00000000
00010000
00000000
00000000
00000000
00100000
00000000
00000000
00000000
01000000
00000000
00100000
00000000
00002000
00000000
00000000
00003000
,  // measure 20
00022000
00000000
00000000
00033000
00010000
00000100
00010000
00000100
00001000
00000001
00001000
00000001
00000100
00000000
00000010
00000000
,  // measure 21
00002002
00000000
00000000
00003003
00000100
00000000
00000001
00000000
00000010
00000100
00001000
00000000
00000100
00010000
00001000
00000000
,  // measure 22
00100000
00000000
00010000
00000000
01000000
00000000
00100000
00000000
10000000
00010000
10000000
00000000
00100000
01000000
00100000
00000000
,  // measure 23
20020000
00000000
30030000
00000000
01100000
00000000
10000000
00000000
01000000
00000000
00100000
00000000
00001000
00010000
00000100
00001000
,  // measure 24
00000100
00000000
00000010
00000100
00001000
00000000
00000001
00000000
00000100
00000000
00000010
00000100
00000001
00000000
00001000
00000000
,  // measure 25
00000100
00000000
00000010
00000100
00001000
00010000
00100000
01000000
,  // measure 26
20000000
00000000
30000000
00000000
11000000
00000000
00100000
00000000
00010000
00000000
00000000
01000000
00100000
00000000
01000000
00000000
,  // measure 27
00001000
00000000
00000000
00000000
00010000
00000000
00000100
00000000
00001000
00000010
00000100
00000001
00001000
00000010
00000100
00000001
,  // measure 28
00001000
00000000
00000001
00000000
00001000
00000000
00010000
00000000
10000000
00100000
01000000
00010000
10000000
00100000
01000000
00010000
,  // measure 29
10000000
00000000
01000000
00000000
00010000
00001000
00010000
01000000
10000000
00000000
01000000
00000000
00100000
00000000
00010000
00000000
,  // measure 30
01000000
00100000
10000000
00010000
,  // measure 31
00100000
00000000
00000000
00000000
00001000
00000000
00000000
00000000
00010000
00000000
00000100
00000000
00000010
00000001
00001000
00000000
,  // measure 32
00000200
00000000
00000300
00000010
00000001
00001000
00000100
00010000
,  // measure 33
00002000
00000000
00003000
00100000
00010000
00000000
10000000
01000000
,  // measure 34
00200000
00000000
00000000
00000000
00300000
00010000
10000000
00010000
,  // measure 35
00002000
00000000
00000000
00000000
,  // measure 36
00003000
00000000
00000000
00000000
;

//---------------dance-double - ----------------
#NOTES:
     dance-double:
     :
     Easy:
     4:
     0.236379,0.250518,0.123713,0.216497,0.000000,170.000000,16.000000,28.000000,0.000000,0.000000,0.000000,0.236379,0.250518,0.123713,0.216497,0.000000,170.000000,16.000000,28.000000,0.000000,0.000000,0.000000:
00000000
00000000
00000000
00000000
,
00000000
00000000
00000000
00000000
,
00000000
00000000
00000000
00000000
,
00000000
00000000
00000000
00000000
,
00001000
00000000
00011000
00000100
00000100
00000000
00000011
00000000
,
00000100
00000000
00000101
00001000
00001000
00000000
00001100
00000000
,
00010000
00000000
00110000
00000000
10000000
01000000
10010000
01000000
,
10000000
00000000
01100000
00000000
01000000
00010000
00100000
00001000
,
00010000
00000000
00011000
00000000
00000100
00010000
00000010
00010000
,
00001000
00000000
00001100
00000000
00000001
00000010
00000100
00001000
,
00000100
00000000
00011000
00000000
00100000
00010000
10010000
00000000
,
01000000
00000000
01010000
00000000
10000000
01000000
00100000
00010000
,
00200000
00000000
00302000
00000000
00013000
00000100
00000010
00000001
,
00000200
00000320
00010030
00001000
,
00100000
00010000
00100000
00010000
10000000
01000000
10000000
01000000
,
00100000
00001000
00100000
00001000
00010000
00000100
00000020
00000000
,
00000031
00000100
00000020
00000000
00001030
00000100
00020000
00000000
,
00031000
00000000
00200000
00000000
01300000
10000000
01020000
00000000
,
20030000
00000000
31000000
00100000
01000000
10000000
00010000
00000000
,
00022000
00033000
00000100
00000010
00000001
00000100
00000010
00002000
,
00003200
00000000
00000310
00000100
00000010
00000100
00001000
00000000
,
00001200
00000000
00010300
00001000
00100000
00010000
01000000
00000000
,
00200000
00000000
10300000
01000000
00100000
00001000
00010000
00000000
,
00022000
00000000
00033000
00010000
00000100
00000010
00000001
00000100
,
00000010
00000000
00001000
00000000
00000100
00000010
00000100
00000000
,
00001000
00000000
00000100
00010000
00001000
00010000
00001000
00000000
,
00200000
00000000
00310000
01000000
00100000
00000000
10000000
01000000
,
00100000
00000000
00010000
00000000
10000000
01000000
10000000
01000000
,
00100000
00000000
00001000
00000000
00010000
00000100
00010000
00000100
,
00000010
00000001
00000100
00000010
,
00001000
00000100
00000100
00000010
00000001
00000000
00001000
00000000
,
00000002
00000000
00000023
00000000
00001030
00010000
01000000
10000000
,
00020000
00000000
00200000
00030000
,
00002000
00300000
00020000
00003000
,
00000200
00000000
00030000
00000320
,
00000032
00000000
00000000
00000000
,
00000003
00000000
00000000
00000000
;
