#TITLE:CITY ESCAPE;
#SUBTITLE:Cash Cash RMX;
#ARTIST:Cash Cash;
#TITLETRANSLIT:;
#SUBTITLETRANSLIT:;
#ARTISTTRANSLIT:;
#GENRE:Dance;
#CREDIT:;
#BANNER:CITY ESCAPE Cash Cash RMX-bn.png;
#BACKGROUND:CITY ESCAPE Cash Cash RMX-bg.png;
#LYRICSPATH:;
#CDTITLE:;
#MUSIC:CITY ESCAPE Cash Cash RMX.mp3;
#OFFSET:-2.940000;
#SAMPLESTART:37.186001;
#SAMPLELENGTH:22.326000;
#SELECTABLE:YES;
#BPMS:0.000000=140.000000
;
#STOPS:
;
#BGCHANGES:;
#KEYSOUNDS:;
#ATTACKS:;

//---------------dance-single - ----------------
#NOTES:
     dance-single:
     :
     Hard:
     8:
     0.512234,0.484994,0.069087,0.428342,0.207262,447.000000,10.000000,62.000000,0.000000,0.000000,0.000000,0.512234,0.484994,0.069087,0.428342,0.207262,447.000000,10.000000,62.000000,0.000000,0.000000,0.000000:
0000
0000
0000
0000
,
0000
0000
0000
0000
,
0000
0000
0000
0000
,
0000
0000
0000
0000
0000
0000
0000
0000
0001
0000
1000
0000
0001
0000
0010
0001
,
1000
0001
0100
0000
0010
1000
0001
0000
,
1000
0000
0000
0001
0000
0000
0100
0000
0010
0000
0000
0000
1000
0000
0100
0000
,
0010
0000
0000
0001
0000
0000
0010
0000
0100
0000
0000
1000
0000
0000
0100
0000
,
1000
0000
0000
0001
0000
0000
0010
0000
0001
0000
0000
0000
1001
0000
0000
0000
,
1000
0001
0010
0000
0001
1000
0010
0100
,
0001
0000
0000
1000
0000
0000
0100
0000
0001
0000
0000
0000
0100
0000
1000
0000
,
0010
0000
0000
1000
0000
0000
0001
0000
0100
0000
0000
0010
0000
0000
0100
0000
,
0002
0000
0000
2003
0000
0000
3200
0000
0310
0000
0000
0000
0110
0000
0000
0000
,
0001
1000
0100
1000
0001
0100
0010
0100
,
0001
0010
0100
1000
0001
0000
0110
0000
,
1000
0001
1000
0010
0100
0001
1000
0001
,
0010
0000
0100
0000
1000
0000
0001
0000
0010
0000
0100
0010
0100
0000
0000
0000
,
1000
0100
0010
0100
1000
0100
0001
0100
,
1000
0001
0100
0010
0100
0000
1001
0000
,
0002
0023
2030
3020
,
0032
0000
0000
0000
0203
0000
0000
0000
0310
0000
1000
0000
0001
0000
1000
0100
,
0010
0000
0000
0001
0000
0000
1000
0000
0010
0000
0100
0000
0010
0000
0000
0000
,
1000
0000
0000
0100
0000
0000
1000
0000
0001
0000
0100
0000
0001
0000
0000
0000
,
0010
0000
0000
0001
0000
0000
0010
0000
0100
0000
0000
1000
0000
0000
0010
0000
,
0100
0000
0000
0010
0000
0000
1000
0000
0020
0000
0000
0000
0230
0000
0000
0000
,
0301
0020
0230
2300
,
3002
0000
0000
0000
0103
0000
0000
0000
0020
0000
0000
0000
1030
0000
0001
1000
,
0100
0000
0000
1000
0000
0000
0001
0000
0100
0000
0001
0000
0010
0000
0000
0000
,
0100
0000
0000
1000
0000
0000
0001
0000
0010
0000
0001
0000
1000
0000
0000
0000
,
0001
0000
0000
0100
0000
0000
0010
0000
1000
0000
0000
0001
0000
0000
0010
0000
,
0001
0000
0000
1000
0000
0000
0001
0000
0200
0000
0000
0000
0302
0000
0000
0000
,
0013
0002
2003
3200
,
0320
0032
0203
2300
,
3100
0000
0000
0010
0000
0000
0100
0000
0001
0000
0000
0000
1000
0000
0100
0000
,
1100
0000
0000
0000
0001
0000
0000
1000
0000
0100
0000
0000
1000
0000
0000
0000
,
0010
0000
0000
0000
0100
0000
0000
0001
0000
0010
0000
0000
0100
0000
0000
0000
,
2000
0000
0000
0000
3001
0000
0000
1000
0000
0010
0000
0000
0100
0000
0000
0000
,
0001
0000
0000
0000
0010
0000
0000
0100
0000
1000
0000
0000
0001
0000
0000
0000
,
0210
0001
0001
0301
,
1002
0100
0100
0103
,
2100
0010
0010
3010
,
0001
0000
0000
2000
0000
0000
0002
0000
0000
0000
0000
0000
3003
0000
0000
0000
,
0010
0000
0000
0100
0000
0000
0001
0000
0000
0000
1000
0000
0000
0100
0000
0000
,
0010
0000
0000
0100
0000
0000
1000
0000
0000
0000
0001
0000
0000
0100
0000
0000
,
0001
0000
0000
0010
0000
0000
0100
0000
0000
0000
1000
0000
0000
0001
0000
0000
,
0010
0000
0000
0001
0000
0000
1000
0000
0010
0000
0010
0000
1000
0001
1000
0001
,
1000
0010
0100
0001
0010
0100
1000
0100
,
0001
0100
1000
0001
0100
0000
1001
0000
,
0010
1000
0001
0010
0001
1000
0010
0100
,
1000
0000
0100
0000
0001
0000
1000
0000
0001
0000
0100
0010
0100
0000
0000
0000
,
0010
1000
0100
0010
0001
0100
0010
1000
,
0100
1000
0001
0100
0001
0000
0110
0000
,
2000
3002
0023
2030
,
3020
0000
0000
0000
0032
0000
0000
0000
1003
0000
0001
0000
0100
0000
0001
1000
,
0100
0000
0000
0010
0000
0000
0100
0000
1000
0000
0001
0000
0100
0000
0000
0000
,
0010
0000
0000
1000
0000
0000
0001
0000
0010
0000
0001
0000
0100
0000
0000
0000
,
0010
0000
0000
0100
0000
0000
0001
0000
0010
0000
0000
0100
0000
0000
1000
0000
,
0001
0000
0000
1000
0000
0000
0010
0000
0200
0000
0000
0000
0302
0000
0000
0000
,
1003
0020
2030
3002
,
0103
0000
0010
0000
0100
0000
0001
0000
2000
0000
0000
0000
3100
0000
1000
0001
,
1000
0000
0000
0010
0000
0000
0001
0000
0010
0000
1000
0000
0001
0000
0000
0000
,
1000
0000
0000
0100
0000
0000
0001
0000
0100
0000
1000
0000
0001
0000
0000
0000
,
0010
0000
0000
0001
0000
0000
1000
0000
0010
0000
0000
1000
0000
0000
0001
0000
,
0010
0000
0000
0100
0000
0000
1000
0000
0002
0000
0000
0000
0203
0000
0000
0000
,
0310
2000
3200
0320
,
0032
0000
0203
0000
0320
0000
1030
0001
,
0200
0000
0000
0302
0000
0000
2003
0000
3100
0000
0000
0000
0010
0000
0001
0000
,
0100
0010
1000
0001
,
1000
0000
0100
0000
0010
0000
0100
1000
,
0001
0000
0000
0000
0010
0000
0001
0000
0001
0000
1000
0000
1000
0000
0100
0010
,
0100
0000
1000
0000
0001
0000
0010
0000
0001
0000
0100
0000
0010
0100
0010
0100
,
0010
1000
0001
0010
0100
1000
0010
0100
,
0001
0010
0001
0010
0200
0000
1300
0000
,
1000
0001
0100
0001
0010
0100
1000
0100
,
0010
0000
0001
0000
1000
0000
0010
0000
0100
0000
0001
1000
0001
0000
0000
0000
,
0010
0001
0100
0010
0100
1000
0100
0001
,
0010
0100
1000
0001
0020
0000
0130
0000
,
2000
3020
0032
0023
,
2030
0000
0000
0000
3002
0000
0000
0000
0103
0000
0001
0000
1000
0000
0001
0010
,
0100
0000
0000
0000
;

//---------------dance-single - ----------------
#NOTES:
     dance-single:
     :
     Medium:
     5:
     0.389851,0.431106,0.089814,0.490521,0.062179,311.000000,13.000000,71.000000,0.000000,0.000000,0.000000,0.389851,0.431106,0.089814,0.490521,0.062179,311.000000,13.000000,71.000000,0.000000,0.000000,0.000000:
0000
0000
0000
0000
,
0000
0000
0000
0000
,
0000
0000
0000
0000
,
0000
0000
0000
0000
1000
1000
0001
1000
,
0010
0100
0001
0010
,
0100
0000
0000
0100
0000
0000
2000
0000
0000
0000
0000
0000
3001
0000
0000
0000
,
0100
0000
0001
0000
1000
0000
0010
0100
,
0001
0000
0000
1000
0000
0000
0001
0000
0010
0000
0000
0000
0110
0000
0000
0000
,
0100
1000
0001
0100
,
0010
0000
0000
0010
0000
0000
0100
0000
0002
0000
0000
0000
1003
0000
0000
0000
,
0001
0000
0100
0000
0010
0000
1000
0001
,
0100
0000
0000
0010
0000
0000
0100
0000
0001
0000
0000
0000
1001
0000
0000
0000
,
1000
0010
1000
0000
0001
0100
0001
0000
,
0010
0000
0100
2000
0000
3000
0010
0000
,
0100
0000
0001
0000
1000
0001
1000
0000
,
0001
0000
0010
0002
0000
0003
0100
0000
,
0001
1000
0001
0010
,
0100
1000
0100
0020
0000
0030
0001
0000
,
2000
3002
0203
0302
,
2003
0000
3020
0000
2030
0000
3001
1000
,
0001
0000
0000
0001
0000
0000
0200
0000
0000
0000
0300
0000
0010
0000
0000
0000
,
1000
0000
0000
1000
0000
0000
0020
0000
0000
0000
0030
0000
0100
0000
0000
0000
,
0001
1000
0100
0010
,
0001
0000
0000
1000
0000
0000
0001
0000
0100
0000
0000
0000
0100
0000
0000
0000
,
0000
0020
2030
3002
,
0023
0030
0100
0110
,
1001
0000
0000
1000
0000
0000
0002
0000
0000
0000
0003
0000
1000
0000
0000
0000
,
0010
0000
0000
0010
0000
0000
0200
0000
0000
0000
0300
0000
0010
0000
0000
0000
,
1000
0001
0010
0001
,
1000
0000
0000
0100
0000
0000
0010
0000
0001
0000
0000
0000
1000
0000
0000
0000
,
0000
0002
0203
0302
,
2003
3200
2300
3020
,
0130
0000
0000
0100
0000
0000
0010
0000
0100
0000
0000
0000
0001
0000
1000
0000
,
0002
0000
1000
0000
,
0100
0000
0000
0000
1000
0000
0003
0001
,
2000
0000
0010
0000
,
0001
0000
0100
3000
,
1001
0000
0010
0001
,
1100
0000
0010
0000
,
0101
0000
0100
0010
,
1001
0000
1000
0001
,
0020
0000
0000
0032
0000
0000
1003
0000
,
0020
0000
0000
2030
0000
0000
3001
0000
,
0200
0000
0000
0320
0000
0000
1030
0000
,
0001
0000
0010
0000
0100
1000
0001
1000
,
0010
0000
0100
0000
0001
1000
0001
0000
,
0100
0000
0001
0020
0000
0030
0100
0000
,
1000
0000
0100
0000
0010
0001
1000
0000
,
0010
0000
0100
0020
0000
0030
1000
0000
,
0001
0010
0100
1000
,
0001
1000
0001
0020
0000
0030
0100
0000
,
2000
3200
0320
0230
,
2300
0000
3002
0000
0023
0000
0130
1000
,
0001
0000
0000
0001
0000
0000
0200
0000
0000
0000
0300
0000
0010
0000
0000
0000
,
1000
0000
0000
1000
0000
0000
0020
0000
0000
0000
0030
0000
0100
0000
0000
0000
,
0001
0100
0010
1000
,
0001
0000
0000
1000
0000
0000
0100
0000
0010
0000
0000
0000
0100
0000
0000
0000
,
0000
2000
3002
0203
,
0320
0030
0100
1100
,
0011
0000
0000
0010
0000
0000
0002
0000
0000
0000
0003
0000
1000
0000
0000
0000
,
0100
0000
0000
0100
0000
0000
2000
0000
0000
0000
3000
0000
0001
0000
0000
0000
,
0010
0001
1000
0010
,
0100
0000
0000
0001
0000
0000
1000
0000
0010
0000
0000
0000
0010
0000
0000
0000
,
0000
2000
3002
0023
,
0230
0320
0032
2003
,
3100
0000
0000
1000
0000
0000
0001
0000
1000
0000
0000
0000
0010
0000
0100
0000
,
0010
0010
0010
0010
,
0010
0000
0010
0000
0010
0000
1000
0001
,
0100
0000
0100
0000
0100
0100
0010
0010
,
1000
0001
1000
0001
1000
0000
2001
0000
,
3010
0000
0100
0000
0001
0010
0100
0000
,
1000
0001
2010
3000
,
0100
1000
0001
0010
,
0001
0000
1000
0000
0001
0100
0020
0000
,
0130
0000
0001
0000
1000
0100
0010
0000
,
0100
1000
0012
0003
,
2000
3020
0230
0302
,
2003
0000
3200
0000
0320
0000
0031
0010
,
1000
0000
0000
0000
;

//---------------dance-single - ----------------
#NOTES:
     dance-single:
     :
     Easy:
     3:
     0.235884,0.323329,0.138175,0.248715,0.000000,183.000000,20.000000,36.000000,0.000000,0.000000,0.000000,0.235884,0.323329,0.138175,0.248715,0.000000,183.000000,20.000000,36.000000,0.000000,0.000000,0.000000:
0000
0000
0000
0000
,
0000
0000
0000
0000
,
0000
0000
0000
0000
,
0000
0000
0010
1001
,
0100
0000
0100
1000
,
0001
0000
1000
0000
,
0010
0100
0001
0000
,
1000
0100
0010
0000
,
0001
0000
1000
0000
,
0010
0100
0001
0000
,
1000
0000
0001
0000
,
0020
0000
0130
0100
,
1001
0000
1000
0000
,
0010
0100
0001
0000
,
1000
0000
0001
0000
,
0010
0100
2000
0100
,
3100
0000
1000
0000
,
0100
0010
0100
0000
,
0010
0010
0001
0001
,
1000
1000
1000
0000
,
2002
3003
0100
0001
,
0202
0303
1000
0100
,
2000
0000
3020
0000
,
0130
0001
1000
0000
,
0000
0010
0100
0010
,
1000
0000
0001
0001
,
2002
3003
0100
0010
,
0220
0330
0001
1000
,
0002
0000
0203
0000
,
0310
1000
0001
0000
,
0000
0010
0100
0010
,
0100
1000
0001
1000
,
0002
0000
0003
1000
,
1001
0000
0000
0000
,
0000
0000
0000
0000
,
0200
0000
0000
0000
,
0300
0000
0000
0000
,
0110
0000
0000
0000
,
1001
0000
0000
0000
,
0011
0000
0000
0000
,
1100
0000
0000
0000
,
0002
0000
0000
0000
,
0200
0000
0003
0000
,
0020
0000
0300
0000
,
1000
1030
0001
1000
,
1001
0000
0010
0000
,
0001
1000
0100
0000
,
1000
0000
0001
0000
,
1000
0100
0010
0000
,
0100
0000
1000
0000
,
0010
0100
0001
0000
,
1000
1000
0010
0010
,
0100
0100
0100
0000
,
2002
3003
1000
0100
,
2200
3300
0001
0100
,
0002
0000
2003
0000
,
3010
0100
0010
0000
,
0000
1000
0100
0010
,
0001
0000
0010
0100
,
0220
0330
1000
0001
,
2002
3003
0001
0100
,
0020
0000
0230
0000
,
0301
1000
0001
0000
,
0000
0010
0001
0010
,
0001
1000
0100
1000
,
0200
0000
0300
0010
,
0220
0000
0000
0000
,
0000
0000
0330
0000
,
2002
0000
0000
0000
,
3003
0000
0010
1001
,
0100
0000
0100
0000
,
1000
0001
1000
0000
,
0010
0000
0010
0000
,
0100
0001
0100
0000
,
0001
0000
0001
0000
,
0010
0100
1000
0000
,
0001
0100
0001
0100
,
0010
1000
0010
1000
,
1001
0000
0000
0000
;

//---------------dance-single - ----------------
#NOTES:
     dance-single:
     :
     Beginner:
     1:
     0.122384,0.139470,0.069087,0.138175,0.000000,94.000000,10.000000,20.000000,0.000000,0.000000,0.000000,0.122384,0.139470,0.069087,0.138175,0.000000,94.000000,10.000000,20.000000,0.000000,0.000000,0.000000:
0000
0000
0000
0000
,
0000
0000
0000
0000
,
0000
0000
0000
0000
,
0000
0000
0000
0000
,
2000
0000
3000
0000
,
0020
0000
0030
0000
,
0200
0000
0300
0000
,
0001
0000
1000
0000
,
0002
0000
0003
0000
,
0200
0000
0300
0000
,
0020
0000
0030
0000
,
1000
0000
0001
0000
,
0100
0000
0000
0000
,
0010
0000
0000
0000
,
1000
0000
0000
0000
,
0100
0000
0000
0000
,
0010
0000
0000
0000
,
0001
0000
0000
0000
,
0100
0000
0010
0000
,
0200
0000
0300
0000
,
1001
0000
0000
0000
,
0110
0000
0000
0000
,
0001
0000
1000
0000
,
0002
0000
0003
0000
,
0000
0000
0010
0000
,
0010
0000
0100
0000
,
0110
0000
0000
0000
,
1001
0000
0000
0000
,
1000
0000
0001
0000
,
2000
0000
3000
0000
,
0000
0000
0010
0000
,
0010
0000
0100
0000
,
0002
0000
0003
0000
,
1000
0000
0000
0000
,
0000
0000
0000
0000
,
0001
0000
0000
0000
,
0000
0000
0000
0000
,
0020
0000
0030
0000
,
0200
0000
0300
0000
,
2000
0000
3000
0000
,
0002
0000
0003
0000
,
0100
0000
0000
0000
,
0010
0000
0000
0000
,
1000
0000
0000
0000
,
0001
0000
0010
0000
,
1001
0000
0001
0000
,
1000
0000
0000
0000
,
0001
0000
0100
0000
,
0001
0000
0000
0000
,
0010
0000
0100
0000
,
0010
0000
0000
0000
,
0100
0000
0100
0000
,
1000
0000
1000
0000
,
1010
0000
0000
0000
,
0101
0000
0000
0000
,
1000
0000
0001
0000
,
0020
0000
0030
0000
,
0000
0000
0100
0000
,
1000
0000
0001
0000
,
0011
0000
0000
0000
,
1100
0000
0000
0000
,
0001
0000
1000
0000
,
0200
0000
0300
0000
,
0000
0000
0010
0000
,
0001
0000
1000
0000
,
0200
0000
0300
0000
,
2001
0000
0000
0000
,
0000
0000
3000
0000
,
0020
0000
0000
0000
,
0030
0000
0000
0100
,
0100
0000
0100
0000
,
0001
0000
0000
0000
,
0010
0000
0010
0000
,
0100
0000
0000
0000
,
1000
0000
1000
0000
,
0010
0000
0000
0000
,
0100
0000
0001
0000
,
1000
0000
0001
0000
,
0020
0000
0000
0000
,
0000
0000
0000
0000
,
0000
0000
0000
0030
;

//---------------dance-double - ----------------
#NOTES:
     dance-double:
     :
     Hard:
     8:
     0.494469,0.484994,0.110540,0.310894,0.231443,440.000000,16.000000,45.000000,0.000000,0.000000,0.000000,0.494469,0.484994,0.110540,0.310894,0.231443,440.000000,16.000000,45.000000,0.000000,0.000000,0.000000:
00000000
00000000
00000000
00000000
,
00000000
00000000
00000000
00000000
,
00000000
00000000
00000000
00000000
,
00000000
00000000
00000000
00000000
00000000
00000000
00000000
00000000
00100000
00000000
00010000
00000000
10000000
00000000
01000000
00100000
,
00010000
00000000
01000000
00000000
00100000
00000000
10000000
00000000
00010000
00000000
00000000
00100000
00000000
00000000
00001000
00000000
,
00010000
00000000
00000000
00000010
00000000
00000000
00000100
00000000
00001000
00000000
00000000
00000000
00000100
00000000
00000001
00000000
,
00001000
00000000
00000000
00000001
00000000
00000000
00000100
00000000
00001000
00000000
00000000
00010000
00000000
00000000
01000000
00000000
,
10000000
00000000
00000000
00010000
00000000
00000000
00100000
00000000
01000000
00000000
00000000
00000000
01100000
00000000
00000000
00000000
,
10000000
00000000
00010000
00000000
00100000
00000000
00001000
00000000
00010000
00000000
00000000
00000010
00000000
00000000
00001000
00000000
,
00000100
00000000
00000000
00000010
00000000
00000000
00000001
00000000
00001000
00000000
00000000
00000000
00000100
00000000
00010000
00000000
,
00001000
00000000
00000000
00100000
00000000
00000000
01000000
00000000
10000000
00000000
00000000
00100000
00000000
00000000
01000000
00000000
,
00010000
00000000
00000000
00100000
00000000
00000000
00001000
00000000
00010000
00000000
00000000
00000000
00010100
00000000
00000000
00000000
,
00001001
00000000
00001000
00000100
00001000
00000001
00000010
00000100
,
00001000
00000100
00010000
00001000
00100000
00000000
00110000
00000000
,
10000000
00100000
01000000
00010000
00100000
01000000
10000000
01000000
,
00100000
00000000
00010000
00000000
00100000
00000000
00001000
00000000
00010000
00000000
00000100
00001000
00000100
00000000
00000000
00000000
,
00000010
00000001
00000100
00001000
00000100
00000001
00001000
00000100
,
00010000
00001000
00100000
00010000
01000000
00000000
01100000
00000000
,
20000000
32000000
03020000
00032000
,
00003020
00000000
00000000
00000000
00000032
00000000
00000000
00000000
00000103
00000000
00000001
00000000
00001000
00000000
00000001
00000010
,
00000100
00000000
00000000
00010000
00000000
00000000
00001000
00000000
00100000
00000000
01000000
00000000
00100000
00000000
00000000
00000000
,
00010000
00000000
00000000
10000000
00000000
00000000
00010000
00000000
00100000
00000000
00001000
00000000
00010000
00000000
00000000
00000000
,
00000010
00000000
00000000
00000010
00000000
00000000
00001000
00000000
00000001
00000000
00000000
00000001
00000000
00000000
00000010
00000000
,
00000100
00000000
00000000
00000100
00000000
00000000
00010000
00000000
00001000
00000000
00000000
00000000
00011000
00000000
00000000
00000000
,
00100000
00020000
20030000
32000000
,
03200000
00000000
00000000
00000000
00301000
00000000
00000000
00000000
00010000
00000000
00000000
00000000
00001000
00000000
00010000
00000100
,
00001000
00000000
00000000
00000010
00000000
00000000
00000100
00000000
00000010
00000000
00001000
00000000
00000001
00000000
00000000
00000000
,
00000010
00000000
00000000
00000100
00000000
00000000
00010000
00000000
00000100
00000000
00001000
00000000
00000100
00000000
00000000
00000000
,
00010000
00000000
00000000
00010000
00000000
00000000
00001000
00000000
00100000
00000000
00000000
00100000
00000000
00000000
00010000
00000000
,
10000000
00000000
00000000
10000000
00000000
00000000
01000000
00000000
00100000
00000000
00000000
00000000
01100000
00000000
00000000
00000000
,
00010000
00200000
00302000
00023000
,
00030020
00000000
00000230
00000000
00002300
00000000
00003100
00000001
,
00000010
00000000
00000000
00000100
00000000
00000000
00001000
00000000
00010000
00000000
00000000
00000000
00100000
00000000
00010000
00000000
,
01000000
00000000
00000000
00000000
01000000
00000000
00000000
00100000
00000000
10000000
00000000
00000000
00010000
00000000
00000000
00000000
,
00100000
00000000
00000000
00000000
00001000
00000000
00000000
00010000
00000000
00000100
00000000
00000000
00001000
00000000
00000000
00000000
,
00001002
00000000
00000000
00000000
00000013
00000000
00000000
00000100
00000000
00000010
00000000
00000000
00000100
00000000
00000000
00000000
,
00001000
00000000
00000000
00000000
00000100
00000000
00000000
00010000
00000000
00001000
00000000
00000000
00100000
00000000
00000000
00000000
,
20010000
00000000
00000000
00000000
30100000
01000000
00010000
00000000
,
00120000
00000000
00000000
00000000
00130000
00001000
00010000
00000000
,
00020100
00000000
00000000
00000000
00030010
00001000
00000100
00000000
,
00000010
00000000
00000000
00000002
00000000
00000000
00002000
00000000
00000000
00000000
00003003
00000000
00000000
00000000
00000000
00000000
,
00000001
00000000
00000000
00000100
00000000
00000000
00000010
00000000
00000000
00000000
00001000
00000000
00000000
00000100
00000000
00000000
,
00010000
00000000
00000000
00001000
00000000
00000000
00010000
00000000
00000000
00000000
01000000
00000000
00000000
10000000
00000000
00000000
,
00010000
00000000
00000000
00100000
00000000
00000000
01000000
00000000
00000000
00000000
00100000
00000000
00000000
00010000
00000000
00000000
,
00100000
00000000
00000000
00001000
00000000
00000000
00010000
00000000
00000100
00000000
00000100
00000000
00001000
00000001
00001000
00000001
,
00000010
00000000
00000100
00000010
00000001
00001000
00000100
00010000
,
00001000
00010000
00100000
10000000
00010000
00000000
01100000
00000000
,
10000000
01000000
10000000
01000000
00010000
01000000
10000000
00100000
,
01000000
00000000
00001000
00000000
00010000
00000000
00000100
00000000
00001000
00000000
00000001
00000100
00000001
00000000
00000000
00000000
,
00000010
00000100
00001000
00000100
00000010
00000001
00000100
00001000
,
00010000
01000000
00100000
00010000
01000000
00000000
10010000
00000000
,
00200000
00320000
02030000
03020000
,
00230000
00000000
00000000
00000000
00302000
00000000
00000000
00000000
00013000
00000000
00000100
00000000
00001000
00000000
00000010
00000100
,
00000010
00000000
00000000
00001000
00000000
00000000
00000001
00000000
00000010
00000000
00000001
00000000
00000100
00000000
00000000
00000000
,
00000010
00000000
00000000
00001000
00000000
00000000
00000100
00000000
00010000
00000000
00001000
00000000
00010000
00000000
00000000
00000000
,
00100000
00000000
00000000
00100000
00000000
00000000
10000000
00000000
01000000
00000000
00000000
01000000
00000000
00000000
00100000
00000000
,
00001000
00000000
00000000
00001000
00000000
00000000
00010000
00000000
00000100
00000000
00000000
00000000
00000110
00000000
00000000
00000000
,
00001000
00000020
00000230
00002300
,
00003200
00000000
00000000
00000000
00000301
00000000
00000000
00000000
00000100
00000000
00000000
00000000
00000010
00000000
00001000
00000100
,
00010000
00000000
00000000
00001000
00000000
00000000
00100000
00000000
00010000
00000000
00100000
00000000
01000000
00000000
00000000
00000000
,
10000000
00000000
00000000
01000000
00000000
00000000
00010000
00000000
00001000
00000000
00010000
00000000
00000100
00000000
00000000
00000000
,
00000010
00000000
00000000
00000010
00000000
00000000
00000001
00000000
00001000
00000000
00000000
00001000
00000000
00000000
00000100
00000000
,
00010000
00000000
00000000
00010000
00000000
00000000
00001000
00000000
00000100
00000000
00000000
00000000
00001001
00000000
00000000
00000000
,
00000100
00020000
00032000
00203000
,
02300000
00000000
23000000
00000000
30020000
00000000
00130000
00001000
,
00010000
00000000
00000000
00000100
00000000
00000000
00001000
00000000
00010000
00000000
00000000
00000000
00100000
00000000
00010000
00000000
,
10000000
00010000
10000000
00010000
,
00100000
00000000
00001000
00000000
00010000
00000000
00000100
00001000
,
00000010
00000000
00000000
00000000
00000100
00000000
00000100
00000000
00000001
00000000
00000001
00000000
00000010
00000000
00000001
00001000
,
00000001
00000000
00000010
00000000
00000100
00000000
00001000
00000000
00000100
00000000
00010000
00000000
00001000
00010000
00001000
00010000
,
00100000
00000000
00000000
00100000
00000000
00000000
10000000
00000000
00010000
00000000
00100000
00000000
01000000
00000000
00100000
00000000
,
00001000
00000000
00000000
00001000
00000000
00000000
00010000
00000000
00000200
00000000
00000000
00000000
00000310
00000000
00000000
00000000
,
00000001
00000000
00000000
00000100
00000000
00000000
00000010
00000000
00001000
00000000
00000001
00000000
00000010
00000000
00001000
00000000
,
00010000
00000000
00000000
00100000
00000000
00000000
00100000
00000000
01000000
00000000
00010000
10000000
00010000
00000000
00000000
00000000
,
00100000
01000000
00100000
00001000
00010000
00001000
00000100
00000001
,
00001000
00000000
00000000
00000001
00000000
00000000
00000010
00000000
00000100
00000000
00000000
00000000
00001100
00000000
00000000
00000000
,
00000200
00002300
00023000
02030000
,
03200000
00000000
00000000
00000000
20300000
00000000
00000000
00000000
31000000
00000000
00100000
00000000
00010000
00000000
01000000
00010000
,
10000000
00000000
00000000
00000000
;

//---------------dance-double - ----------------
#NOTES:
     dance-double:
     :
     Medium:
     5:
     0.427355,0.431106,0.207262,0.511247,0.017272,329.000000,30.000000,74.000000,0.000000,0.000000,0.000000,0.427355,0.431106,0.207262,0.511247,0.017272,329.000000,30.000000,74.000000,0.000000,0.000000,0.000000:
00000000
00000000
00000000
00000000
,
00000000
00000000
00000000
00000000
,
00000000
00000000
00000000
00000000
,
00000000
00000000
00000000
00000000
00001000
00000100
00000001
00000010
,
00000100
00000100
00000010
00000001
,
00001001
00000000
00001000
00000000
00001000
00000000
00000100
00010000
,
00001000
00000000
00100000
00000000
00010000
00000000
10000000
00010000
,
01000000
00000000
00000000
00100000
00000000
00000000
01000000
00000000
00020000
00000000
00000000
00000000
00230000
00000000
00000000
00000000
,
01300000
10000000
00010000
00000000
10000000
00000000
01000000
00000000
,
00110000
00000000
00100000
00000000
00001000
00000000
00010000
00000100
,
00001000
00000010
00000100
00000001
,
00000220
00000000
00000330
00001000
,
00000101
00000000
00000010
00000001
00001000
00000000
00000100
00000000
,
00010000
00001000
00010000
00002000
00000000
00003000
00100000
00000000
,
00010000
10000000
00010000
00000000
00100000
00000000
01000000
00000000
,
10000000
00000000
01000000
00010000
00000000
00001000
00000100
00000000
,
00000010
00000000
00000100
00000000
00000001
00001000
00000001
00000000
,
00000010
00000000
00000100
00002000
00000000
00003000
00000100
00000000
,
00020000
00032000
00203000
02300000
,
23000000
00000000
30020000
00000000
02030000
00000000
03100000
01000000
,
01100000
10100000
01000000
01010000
,
00100000
00101000
00001000
00012000
,
00013000
00000100
00000010
00000001
,
00000010
00000100
00001000
00000000
00000020
00000000
00000230
00000000
,
00000310
00000002
00000023
00002030
,
00003200
00000000
00010300
00000000
00001000
00000000
00100000
00010000
,
00110000
01010000
00001000
00011000
,
00010000
00010100
00000100
00001002
,
00000013
00000001
00001000
00000100
,
00010000
00000000
00001000
00100000
00020000
00000000
20030000
00000000
,
31000000
00200000
00320000
02030000
,
03200000
20300000
30020000
00230000
,
00301000
00000000
00000000
00010000
00000000
00000000
00001000
00000000
00010000
00000000
00000000
00000000
00000100
00000000
00000010
00000000
,
00000002
00001000
00000000
00002000
,
00000003
00000010
00000000
00003010
,
00001200
00010000
00000000
00020300
,
00000000
00001000
00000000
00031000
,
00012000
00000000
00000000
00000000
00103000
00000000
00001000
01000000
,
00020000
00000000
00000000
00000000
00130000
00000000
01000000
10000000
,
02000000
00000000
13000000
00010000
,
01000000
00000000
00000000
00010000
00000000
00000000
10000000
00000000
00000000
00000000
00000000
00000000
01000000
00000000
00000000
00000000
,
00200000
00000000
00000000
00000000
00301000
00000000
00010000
00000100
,
00000020
00000000
00000000
00000000
00000031
00000000
00001000
00000010
,
00000200
00000000
00000000
00000000
00000310
00000000
00001000
00000001
,
00000100
00000000
00000000
00000001
00000000
00000000
00001000
00000000
00000100
00000000
00000010
00000000
00000100
00000000
00001000
00000000
,
00001100
00000100
00010000
00001000
,
00100000
00010000
00100000
00020000
00000000
00030000
01000000
00000000
,
00100000
10000000
00010000
10000000
,
00100000
00000000
00010000
00001000
00000000
00000010
00000001
00000000
,
00001000
00000000
00000100
00000000
00010000
00001000
00010000
00000000
,
01000000
00000000
00100000
00020000
00000000
00000000
10030000
00000000
,
02010000
03200000
20300000
32000000
,
03020000
00000000
00032000
00000000
00003200
00000000
00000301
00001000
,
00001001
00001100
00000010
00000101
,
00001000
00001100
00010000
00012000
,
00103000
00010000
10000000
01000000
,
00200000
00000000
00320000
00000000
20030000
00000000
30100000
01000000
,
00010000
00200000
00302000
00023000
,
00030200
00000000
00000310
00000000
00000001
00000000
00001000
00000010
,
00000110
00000101
00001000
00001100
,
00010000
00011000
00001000
00210000
,
00310000
01000000
10000000
01000000
,
00020000
00000000
20030000
00000000
32000000
00000000
03100000
00001000
,
00010000
00000200
00000320
00000230
,
00020300
00000000
00032000
00000000
00203000
00000000
00310000
01000000
,
00001000
00000000
00000000
00010000
00000000
00000000
00000100
00000000
00001000
00000000
00000000
00000000
00000001
00000000
00000100
00000000
,
00000010
00000010
00000010
00000010
,
00000010
00000000
00000010
00000000
00000010
00000000
00000010
00001000
,
00000001
00000100
00000010
00010000
,
00001000
00100000
00001000
00010000
00001000
00000000
00011000
00000000
,
00101000
00100000
00010000
00010000
,
10000000
00000000
01000000
00100000
00010000
00000000
01000000
00000000
,
00100000
00100000
10000000
10000000
,
00010000
00000000
00100000
00001000
00010000
00000100
00001000
00000000
,
00000001
00000001
00000100
00000100
,
00000010
00000000
00001000
00000001
00000100
00000000
00000010
00000000
,
00002000
00003200
00020300
00032000
,
00203000
00000000
00302000
00000000
00023000
00000000
00030010
00001000
,
00000100
00000000
00000000
00000000
;

//---------------dance-double - ----------------
#NOTES:
     dance-double:
     :
     Easy:
     3:
     0.237858,0.323329,0.103631,0.207262,0.000000,196.000000,15.000000,30.000000,0.000000,0.000000,0.000000,0.237858,0.323329,0.103631,0.207262,0.000000,196.000000,15.000000,30.000000,0.000000,0.000000,0.000000:
// measure 0
00000000
00000000
00000000
00000000
,  // measure 1
00000000
00000000
00000000
00000000
,  // measure 2
00000000
00000000
00000000
00000000
,  // measure 3
00000000
00000000
00100000
10010000
,  // measure 4
01000000
00000000
00010000
00000000
,  // measure 5
10000000
01000000
00100000
00000000
,  // measure 6
00001000
00000000
00010000
00000000
,  // measure 7
00000010
00001000
00000100
00000100
,  // measure 8
00000010
00000000
00000001
00000000
,  // measure 9
00001000
00000001
00000100
00000000
,  // measure 10
00000010
00000000
00010000
00000000
,  // measure 11
00001000
00010000
00001000
00010000
,  // measure 12
00011000
00000000
00001000
00000000
,  // measure 13
00100000
00010000
01000000
00000000
,  // measure 14
00100000
00000000
10000000
00000000
,  // measure 15
00010000
00100000
01000000
10000000
,  // measure 16
00000000
00100000
01000000
00010000
,  // measure 17
10000000
01000000
00100000
00000000
,  // measure 18
00001000
00001000
00010000
00010000
,  // measure 19
00000100
00000100
00000100
00000000
,  // measure 20
00002002
00003003
00000100
00000001
,  // measure 21
00000220
00000330
00001000
00000100
,  // measure 22
00020000
00000000
00032000
00000000
,  // measure 23
00103000
00010000
01000000
00000000
,  // measure 24
00000000
00100000
10000000
00010000
,  // measure 25
01000000
00000000
00010000
00000000
,  // measure 26
20020000
30030000
00100000
10000000
,  // measure 27
02200000
03300000
10000000
01000000
,  // measure 28
00200000
00000000
00302000
00000000
,  // measure 29
00013000
00000100
00000010
00000000
,  // measure 30
00000000
00000001
00000010
00000001
,  // measure 31
00000010
00000100
00001000
00000100
,  // measure 32
00002000
00000000
00003000
00000100
,  // measure 33
00010000
00000000
00000000
00000000
,  // measure 34
00000000
00000000
00000000
00000000
,  // measure 35
00002000
00000000
00000000
00000000
,  // measure 36
00003000
00000000
00000000
00000000
,  // measure 37
00011000
00000000
00000000
00000000
,  // measure 38
00100000
00000000
00000000
00000000
,  // measure 39
00010000
00000000
00000000
00000000
,  // measure 40
10000000
00000000
00000000
00000000
,  // measure 41
01000000
00000000
00100000
00000000
,  // measure 42
00001000
00000000
00010000
00000000
,  // measure 43
00000010
00000000
00000100
00000000
,  // measure 44
00000001
00001000
00002002
00003003
,  // measure 45
00001001
00000000
00000010
00000000
,  // measure 46
00000001
00001000
00000100
00000000
,  // measure 47
00010000
00000000
00001000
00000000
,  // measure 48
00100000
00010000
10000000
01000000
,  // measure 49
00000000
10000000
00010000
01000000
,  // measure 50
00100000
10000000
00010000
00000000
,  // measure 51
00100000
00100000
01000000
01000000
,  // measure 52
10000000
10000000
10000000
00000000
,  // measure 53
20020000
30030000
00010000
01000000
,  // measure 54
02200000
03300000
00010000
00100000
,  // measure 55
00002000
00000000
00023000
00000000
,  // measure 56
00030100
00000010
00000001
00000001
,  // measure 57
00000000
00000010
00000001
00000010
,  // measure 58
00000100
00000000
00001000
00000100
,  // measure 59
00002002
00003003
00000100
00001000
,  // measure 60
00000220
00000330
00000001
00001000
,  // measure 61
00000200
00000000
00020300
00000000
,  // measure 62
00031000
00100000
00010000
00010000
,  // measure 63
00000000
01000000
00100000
10000000
,  // measure 64
00100000
01000000
00010000
01000000
,  // measure 65
00100000
00000000
00000000
10000000
,  // measure 66
01000000
00000000
00000000
00000000
,  // measure 67
00000000
00000000
00000000
00100000
,  // measure 68
00020000
00000000
00230000
00000000
,  // measure 69
00301000
00010000
00000100
00001001
,  // measure 70
00000100
00000000
00000010
00000000
,  // measure 71
00000001
00000100
00000010
00000000
,  // measure 72
00001000
00000000
00000001
00000000
,  // measure 73
00000100
00000001
00001000
00000100
,  // measure 74
00000000
00001000
00001000
00000100
,  // measure 75
00001000
00000100
00010000
00000000
,  // measure 76
00001000
00001000
00100000
00100000
,  // measure 77
00010000
00010000
00010000
10000000
,  // measure 78
01100000
00000000
00000000
00000000
;
