#VERSION:0.81;
#TITLE:Babs Seed;
#SUBTITLE:REMIX;
#ARTIST:Sub.Sound;
#TITLETRANSLIT:;
#SUBTITLETRANSLIT:;
#ARTISTTRANSLIT:;
#GENRE:Drum'n'bass;
#ORIGIN:;
#CREDIT:;
#BANNER:Babs Seed REMIX-bn.png;
#BACKGROUND:Babs Seed REMIX-bg.png;
#PREVIEWVID:;
#JACKET:Babs Seed REMIX-jk.png;
#CDIMAGE:;
#DISCIMAGE:;
#LYRICSPATH:;
#CDTITLE:PROJECT GOLDENROD-cdtitle.png;
#MUSIC:Babs Seed REMIX.mp3;
#OFFSET:-0.182000;
#SAMPLESTART:26.809000;
#SAMPLELENGTH:14.815000;
#SELECTABLE:YES;
#BPMS:0.000=162.000;
#STOPS:;
#DELAYS:;
#WARPS:;
#TIMESIGNATURES:0.000=4=4;
#TICKCOUNTS:0.000=4;
#COMBOS:0.000=1;
#SPEEDS:0.000=1.000=0.000=0;
#SCROLLS:0.000=1.000;
#FAKES:;
#LABELS:0.000=Song Start;
#BGCHANGES:;
#KEYSOUNDS:;
#ATTACKS:
;

//---------------dance-single - ----------------
#NOTEDATA:;
#CHARTNAME:;
#STEPSTYPE:dance-single;
#DESCRIPTION:;
#CHARTSTYLE:;
#DIFFICULTY:Hard;
#METER:8;
#RADARVALUES:0.577192,0.483112,0.401027,0.180462,0.030077,345.000000,40.000000,18.000000,0.000000,0.000000,0.000000,0.000000,0.000000,0.577192,0.483112,0.401027,0.180462,0.030077,345.000000,40.000000,18.000000,0.000000,0.000000,0.000000,0.000000,0.000000;
#CREDIT:DJ OMiY;
#NOTES:
// measure 0
0000
0000
0000
0000
,  // measure 1
0000
0000
0000
0000
,  // measure 2
0000
0000
0000
0000
,  // measure 3
0000
0000
0000
0000
,  // measure 4
1000
0000
1001
0000
0000
0100
0001
0000
,  // measure 5
1000
0000
1001
0000
0000
0010
1000
0000
,  // measure 6
0001
0000
1001
0000
0000
0010
0100
0000
,  // measure 7
1000
0000
0001
0000
0100
0010
0100
0000
,  // measure 8
1000
0001
0100
0000
0010
0000
1000
0001
,  // measure 9
0010
0100
0010
0100
1000
0000
0010
0100
,  // measure 10
0001
0000
0010
0100
1000
0000
0010
1000
,  // measure 11
0001
0010
0001
1000
0010
0100
0010
0000
,  // measure 12
1000
0100
1000
0001
0100
0001
1000
0000
,  // measure 13
0010
0100
0001
0010
0100
1000
0001
0000
,  // measure 14
0100
0001
1000
0100
1000
0000
0010
0000
,  // measure 15
0100
0001
1000
0100
1000
0001
0010
0000
,  // measure 16
0001
0001
0001
0001
,  // measure 17
1000
0000
0100
0000
1000
0000
0100
0000
0010
0001
0010
0001
1000
0000
0000
0000
,  // measure 18
1100
0101
1100
0101
,  // measure 19
0010
1000
0100
0010
0001
0000
0100
0001
,  // measure 20
0010
0000
0010
0001
0100
0000
0010
1000
,  // measure 21
0100
1000
0010
1000
0001
0000
0100
0000
,  // measure 22
0011
1010
0011
1010
,  // measure 23
0100
0001
0010
0100
1000
0000
0010
1000
,  // measure 24
0100
0000
0100
1000
0010
0000
0100
0001
,  // measure 25
0010
0001
0100
0001
1000
0000
0010
0000
,  // measure 26
0100
0002
0023
0230
,  // measure 27
1300
0000
1001
0110
,  // measure 28
1001
0000
0010
1000
0100
0010
0001
0000
,  // measure 29
0100
0001
0010
0100
1000
0001
1000
0000
,  // measure 30
0010
1000
0100
0010
0001
1000
0001
0100
,  // measure 31
0001
1000
0001
0000
0010
0000
1001
0000
,  // measure 32
0010
1000
0001
0100
0001
0000
0010
0100
,  // measure 33
1000
0100
0010
0100
1000
0000
0010
0100
,  // measure 34
0001
0000
1000
0010
0100
0000
0001
1000
,  // measure 35
0100
1000
0001
0010
0100
0000
1001
0000
,  // measure 36
0010
0001
0100
0010
1000
0000
0100
1000
,  // measure 37
0001
0100
0010
0100
0001
1000
0001
0000
,  // measure 38
0010
0100
1000
0100
0010
0000
0001
0010
,  // measure 39
0100
0010
0001
1000
0010
0100
0001
0000
,  // measure 40
1000
1000
1000
1000
,  // measure 41
0001
0000
0010
0000
0001
0000
0010
0000
0100
1000
0100
1000
0001
0000
0000
0000
,  // measure 42
0011
1010
0011
1010
,  // measure 43
0100
0001
0010
0100
1000
0000
0001
0100
,  // measure 44
0010
0000
0010
0100
0001
0000
1000
0100
,  // measure 45
0010
0100
1000
0100
0010
0000
0001
0000
,  // measure 46
1100
0101
1100
0101
,  // measure 47
0010
1000
0100
0010
0001
0000
1000
0010
,  // measure 48
0100
0000
0100
0010
1000
0000
0001
0010
,  // measure 49
0100
0010
0001
0010
0100
0000
0010
0000
,  // measure 50
0002
0203
2300
3100
,  // measure 51
2000
3200
0302
0103
,  // measure 52
0002
0023
2030
3020
,  // measure 53
0032
0203
2300
3100
,  // measure 54
0010
0100
0010
0000
0100
0000
1001
0000
,  // measure 55
0010
0100
0010
0000
0100
0000
1001
0000
,  // measure 56
0010
0010
0010
0010
,  // measure 57
1000
0000
0001
0000
1000
0000
0001
0000
0010
0100
0010
0100
1000
0000
0000
0000
,  // measure 58
0101
0011
1010
1100
,  // measure 59
0001
0010
0100
1000
0002
0000
0103
0000
,  // measure 60
0011
0101
1100
1010
,  // measure 61
1000
0100
0010
0001
0200
0000
0310
0000
,  // measure 62
1010
1100
0101
0011
,  // measure 63
1001
0000
0010
0100
0010
0000
0010
0000
,  // measure 64
0100
1001
0000
0000
;

//---------------dance-single - ----------------
#NOTEDATA:;
#CHARTNAME:;
#STEPSTYPE:dance-single;
#DESCRIPTION:;
#CHARTSTYLE:;
#DIFFICULTY:Medium;
#METER:6;
#RADARVALUES:0.462613,0.483112,0.370950,0.170436,0.000000,269.000000,37.000000,17.000000,0.000000,0.000000,0.000000,0.000000,0.000000,0.462613,0.483112,0.370950,0.170436,0.000000,269.000000,37.000000,17.000000,0.000000,0.000000,0.000000,0.000000,0.000000;
#CREDIT:DJ OMiY;
#NOTES:
0000
0000
0000
0000
,
0000
0000
0000
0000
,
0000
0000
0000
0000
,
0000
0000
0000
0000
,
0001
0000
1000
0000
0000
0010
0100
0000
,
0001
0000
1000
0000
0000
0010
0100
0000
,
0001
0000
1000
0000
0000
0010
0100
0000
,
0001
0000
1000
0000
0001
0010
0100
0000
,
1100
0000
0000
1000
0100
0000
0000
1000
,
0000
0001
0000
0100
0010
0000
0100
0001
,
1000
0000
0000
0001
0100
0000
0000
0010
,
0000
1000
0000
0001
0010
0000
0000
0000
,
1001
0000
0000
0100
0010
0000
0000
1000
,
0000
0001
0000
1000
0100
0000
1000
0000
,
0010
0000
0000
1000
0001
0000
0000
0010
,
0000
0001
0000
1000
0100
0000
1000
0000
,
0010
0010
0010
0010
,
0100
0001
0100
0001
1000
0001
1000
0000
,
1001
0110
1001
0110
,
0001
0000
1000
0001
1000
0000
0010
0000
,
1000
0100
1000
0010
,
0100
0001
0100
0001
1000
0000
0100
0000
,
1001
0110
1001
0110
,
0001
0000
1000
0001
1000
0000
0001
0000
,
0010
0001
0100
0010
,
1000
0100
1000
0100
0010
0000
0001
0000
,
0100
0020
2030
3002
,
0103
0000
1000
0001
,
0110
0000
0001
0000
1000
0010
1000
0000
,
0100
0000
0010
0000
0001
0100
0001
0000
,
1000
0000
0010
0000
1000
0100
1000
0000
,
0001
0010
0001
0000
0100
0000
0010
0000
,
1001
0000
0000
1000
0010
0000
0000
0100
,
0000
0001
0000
1000
0001
0000
0000
0000
,
0010
0000
0000
0001
0100
0000
0000
0010
,
0000
1000
0000
0010
0100
0000
0001
1000
,
0001
0000
0000
0100
0010
0000
0000
1000
,
0000
0001
0000
0010
0001
0000
0001
0000
,
0100
0000
0000
0001
0010
0000
0000
0001
,
0000
1000
0000
0100
1000
0000
0010
0000
,
0100
0100
0100
0100
,
0001
1000
0001
1000
0100
1000
0100
0000
,
1001
0110
1001
0110
,
0001
0000
1000
0001
1000
0000
0010
0000
,
1000
0000
0001
0100
0001
0000
1000
0000
,
0010
0100
0010
0100
0001
0000
0010
0000
,
1001
0110
1001
0110
,
0001
0000
1000
0001
1000
0000
0010
0000
,
1000
0000
0010
0100
0010
0000
1000
0000
,
0001
0100
0001
0100
0010
0000
1001
0000
,
2000
3200
0320
0031
,
0020
0230
2300
3001
,
2000
3200
0320
0032
,
0023
0230
2300
3010
,
1000
0100
1000
0000
1001
0000
0000
0000
,
0001
0010
0001
0000
1001
0000
0000
0000
,
0010
0010
0010
0010
,
1000
0100
1000
0100
0010
0001
0010
0000
,
1001
0110
1001
0110
,
0001
0000
1000
0001
1000
0000
1000
0000
,
1001
0110
1001
0110
,
0001
0000
1000
0001
1000
0000
1000
0000
,
1001
0110
1001
0110
,
2001
0000
0010
3000
,
0100
1001
0000
0000
;

//---------------dance-single - ----------------
#NOTEDATA:;
#CHARTNAME:;
#STEPSTYPE:dance-single;
#DESCRIPTION:;
#CHARTSTYLE:;
#DIFFICULTY:Easy;
#METER:4;
#RADARVALUES:0.360924,0.386489,0.391001,0.080205,0.000000,205.000000,39.000000,8.000000,0.000000,0.000000,0.000000,0.000000,0.000000,0.360924,0.386489,0.391001,0.080205,0.000000,205.000000,39.000000,8.000000,0.000000,0.000000,0.000000,0.000000,0.000000;
#CREDIT:DJ OMiY;
#NOTES:
0000
0000
0000
0000
,
0000
0000
0000
0000
,
0000
0000
0000
0000
,
0000
0000
0000
0000
,
0001
0101
0000
1000
,
0010
1001
0000
1000
,
0100
0110
0000
0001
,
1000
0001
0100
1001
,
0010
0010
1000
0000
,
0001
0100
0001
0000
,
1000
0100
0010
0001
,
1000
0001
0100
0000
,
0010
1000
0001
0000
,
0010
0100
1000
0000
,
0010
0100
0001
1000
,
0001
0010
0100
1000
,
0001
0001
0001
0001
,
1000
0100
0010
0001
,
1001
1001
0110
0110
,
0001
0100
0001
0000
,
1000
0010
2000
3000
,
0001
0100
0002
0003
,
1001
1001
0110
0110
,
0001
1000
0001
0000
,
1000
0100
0020
0030
,
0001
1000
0200
0300
,
1000
0001
0001
0100
,
0110
0000
0001
0000
,
1000
0010
1000
0001
,
0000
0010
0001
1000
,
0000
0100
1000
0100
,
0010
0001
0010
0000
,
0001
1000
0010
0000
,
1000
0001
0100
0000
,
0010
1000
0001
1000
,
0100
0010
0001
0000
,
1000
0010
1000
0000
,
0001
0100
0001
0000
,
0010
0001
0010
0100
,
1000
0100
0010
0100
,
1000
1000
1000
1000
,
0001
0010
0100
1000
,
1001
1001
0110
0110
,
0001
1000
0001
0000
,
1000
0010
0200
0300
,
0001
0100
0020
0030
,
1001
1001
0110
0110
,
0001
1000
0001
0000
,
0010
0001
2000
3000
,
0100
1000
0002
0003
,
1000
1000
1000
0000
,
0001
0001
0001
0000
,
0100
0100
0100
0100
,
0010
0010
0010
0000
,
1000
0100
1100
0000
,
0001
0100
0101
0000
,
1000
0001
1000
0001
,
0010
0100
1000
0110
,
1001
1001
0110
0110
,
0001
1000
0001
0001
,
1001
1001
0110
0110
,
0001
1000
0001
0001
,
1001
1001
0110
0110
,
1001
0000
0010
0000
,
1001
1001
0000
0000
;

//---------------dance-single - ----------------
#NOTEDATA:;
#CHARTNAME:;
#STEPSTYPE:dance-single;
#DESCRIPTION:;
#CHARTSTYLE:;
#DIFFICULTY:Beginner;
#METER:2;
#RADARVALUES:0.213403,0.257660,0.160411,0.130334,0.000000,120.000000,16.000000,13.000000,0.000000,0.000000,0.000000,0.000000,0.000000,0.213403,0.257660,0.160411,0.130334,0.000000,120.000000,16.000000,13.000000,0.000000,0.000000,0.000000,0.000000,0.000000;
#CREDIT:DJ OMiY;
#NOTES:
0000
0000
0000
0000
,
0000
0000
0000
0000
,
0000
0000
0000
0000
,
0000
0000
0000
0000
,
0001
0001
0000
1000
,
0000
0001
0000
1000
,
0000
0010
0000
0100
,
0000
0010
0000
0000
,
1000
0000
0100
0000
,
2000
0000
3000
0000
,
0100
0000
0010
0000
,
0200
0000
0300
0000
,
0010
0000
0001
0000
,
0020
0000
0030
0000
,
0001
0000
0100
0000
,
0002
0000
0003
0000
,
1000
0000
1000
0000
,
0010
0010
0010
0000
,
1001
0000
1001
0000
,
0100
0100
0100
0000
,
0001
0000
1000
0000
,
0001
0000
0010
0000
,
1001
0000
1001
0000
,
0010
0010
0010
0000
,
1000
0000
0001
0000
,
1000
0000
0100
0000
,
2000
0000
0000
3000
,
1000
0000
0001
0000
,
0100
0100
0000
0000
,
0010
0010
0000
0000
,
1000
1000
0000
0000
,
0010
0000
0000
0000
,
0100
0000
0010
0000
,
0200
0000
0300
0000
,
0001
0000
1000
0000
,
0002
0000
0003
0000
,
0010
0000
0001
0000
,
2000
0000
3000
0000
,
0100
0000
1000
0000
,
0020
0000
0030
0000
,
0100
0000
0001
0000
,
1000
1000
1000
0000
,
1001
0000
1001
0000
,
0010
0010
0010
0000
,
0001
0000
1000
0000
,
0001
0000
0100
0000
,
1001
0000
1001
0000
,
0100
0100
0100
0000
,
1000
0000
0001
0000
,
1000
0000
0010
0000
,
0100
0100
0100
0000
,
0001
0001
0001
0000
,
1000
0000
1000
0000
,
0010
0010
0010
0000
,
2000
3000
1000
0000
,
0002
0003
0001
0000
,
0100
0000
0100
0000
,
0010
0010
0010
0000
,
1001
0000
1001
0000
,
0100
0000
0100
0000
,
1001
0000
1001
0000
,
0010
0000
0010
0000
,
1001
0000
1001
0000
,
2002
0000
0000
3003
,
0000
1001
0000
0000
;

//---------------dance-double - ----------------
#NOTEDATA:;
#CHARTNAME:;
#STEPSTYPE:dance-double;
#DESCRIPTION:;
#CHARTSTYLE:;
#DIFFICULTY:Hard;
#METER:8;
#RADARVALUES:0.580056,0.515319,0.380975,0.190488,0.030077,348.000000,38.000000,19.000000,0.000000,0.000000,0.000000,0.000000,0.000000,0.580056,0.515319,0.380975,0.190488,0.030077,348.000000,38.000000,19.000000,0.000000,0.000000,0.000000,0.000000,0.000000;
#CREDIT:DJ OMiY;
#NOTES:
00000000
00000000
00000000
00000000
,
00000000
00000000
00000000
00000000
,
00000000
00000000
00000000
00000000
,
00000000
00000000
00000000
00000000
,
10000000
00000000
11000000
00000000
00000000
01000000
00100000
00000000
,
00001000
00000000
00011000
00000000
00000000
00000100
00000010
00000000
,
00000001
00000000
00000101
00000000
00000000
00000100
00000010
00000000
,
00010000
00000000
00011000
00000000
00010000
00001000
00100000
00000000
,
00100000
00010000
10000000
01000000
00100000
00000000
00010000
00100000
,
00001000
00010000
00001000
00010000
00000100
00000000
00000010
00000001
,
00000100
00000000
00000100
00000001
00000010
00000000
00000100
00001000
,
00000010
00000100
00000001
00001000
00000100
00010000
00001000
00000000
,
00100000
00010000
01000000
00100000
10000000
00010000
01000000
00000000
,
00100000
01000000
00100000
01000000
00010000
10000000
00010000
00000000
,
00100000
00001000
00010000
00001000
00100000
00000000
00001000
00000000
,
00010000
00000100
00000010
00000100
00001000
00000001
00000100
00000000
,
00000010
00000010
00000010
00000010
,
00001000
00000000
00000001
00000000
00001000
00000000
00000001
00000000
00000100
00000010
00000100
00000010
00001000
00000000
00000000
00000000
,
00010100
00011000
00101000
00011000
,
00100000
00010000
10000000
01000000
00100000
00000000
00010000
00100000
,
00001000
00000000
00001000
00100000
00010000
00000000
00100000
00001000
,
00010000
00000100
00001000
00000010
00001000
00000000
00000100
00000000
,
00010100
00011000
00101000
00011000
,
00000100
00000010
00000001
00001000
00000010
00000000
00000100
00000001
,
00001000
00000000
00001000
00000001
00000100
00000000
00000010
00001000
,
00000100
00010000
00001000
00100000
01000000
00000000
00100000
00000000
,
00010000
20000000
32000000
03100000
,
00110000
00000000
00001000
00010000
,
00010100
00000000
00001000
00000010
00000100
00000001
00000010
00000000
,
00000100
00001000
00000100
00010000
00001000
01000000
00100000
00000000
,
01000000
00010000
10000000
01000000
00100000
01000000
10000000
01000000
,
00100000
00001000
00010000
00000000
00001000
00010000
00000100
00000000
,
00001100
00000000
00000010
00000001
00001000
00000000
00000100
00010000
,
00001000
00010000
00100000
01000000
00100000
00000000
10000000
01000000
,
00100000
00000000
00100000
01000000
10000000
00000000
00010000
01000000
,
00010000
00100000
00001000
00010000
00000100
00001000
00000100
00000000
,
00000010
00000001
00000100
00000010
00000200
00000000
00000301
00001000
,
00000100
00001000
00000100
00010000
00001000
00010000
00001000
00000000
,
00200000
00000000
00310000
01000000
00100000
10000000
01000000
00100000
,
01000000
00100000
00001000
00010000
00001000
00100000
00010000
00000000
,
01000000
01000000
01000000
01000000
,
00010000
00000000
10000000
00000000
00010000
00000000
10000000
00000000
00100000
01000000
00100000
01000000
00010000
00000000
00000000
00000000
,
00101000
00011000
00010100
00011000
,
00100000
00001000
00010000
00000100
00000010
00000000
00000001
00000010
,
00000100
00000000
00000100
00000010
00000001
00000000
00001000
00000100
,
00010000
00001000
00010000
01000000
10000000
00000000
00010000
00000000
,
00101000
00011000
00010100
00011000
,
00000100
00010000
00001000
00100000
01000000
00000000
00100000
00010000
,
01000000
00000000
01000000
00010000
00100000
00000000
01000000
10000000
,
00010000
00100000
00001000
00010000
00000100
00000000
00000010
00000000
,
00000002
00000203
00002300
00003100
,
00002000
00023000
02030000
03010000
,
02000000
23000000
30200000
00320000
,
00032000
00003200
00000302
00000013
,
00000100
00001000
00000100
00000000
00001000
00000000
00001100
00000000
,
00010000
00001000
00010000
00000000
00001000
00000000
00011000
00000000
,
00010000
00010000
00010000
00010000
,
00001000
00000000
00010000
00000000
00001000
00000000
00010000
00000000
00001000
00010000
00001000
00010000
00000100
00000000
00000000
00000000
,
00000011
00001100
00001010
00000101
,
00001000
00000100
00010000
00001000
01000000
00000000
00010000
00000000
,
10100000
01010000
00110000
11000000
,
00100000
00001000
00010000
00000100
00001000
00000000
00000100
00000000
,
00011000
00101000
00011000
00001010
,
00000100
00001000
00000001
00000010
00000200
00000000
00020300
00000000
,
00031000
00011000
00000000
00000000
;

//---------------dance-double - ----------------
#NOTEDATA:;
#CHARTNAME:;
#STEPSTYPE:dance-double;
#DESCRIPTION:;
#CHARTSTYLE:;
#DIFFICULTY:Medium;
#METER:6;
#RADARVALUES:0.489825,0.450904,0.340873,0.360924,0.000000,272.000000,34.000000,36.000000,0.000000,0.000000,0.000000,0.000000,0.000000,0.489825,0.450904,0.340873,0.360924,0.000000,272.000000,34.000000,36.000000,0.000000,0.000000,0.000000,0.000000,0.000000;
#CREDIT:DJ OMiY;
#NOTES:
00000000
00000000
00000000
00000000
,
00000000
00000000
00000000
00000000
,
00000000
00000000
00000000
00000000
,
00000000
00000000
00000000
00000000
,
00000100
00000000
00001000
00000000
00000000
00000100
00001000
00000000
,
00000100
00000000
00010000
00000000
00000000
00000100
00010000
00000000
,
00001000
00000000
00100000
00000000
00000000
00001000
00100000
00000000
,
00010000
00000000
00100000
00000000
00010000
00100000
00010000
00000000
,
10000000
01000000
00100000
00001000
,
00010000
00000000
00000100
00001000
00000100
00000000
00000010
00000000
,
00000002
00000103
00000200
00000310
,
00001000
00000100
00001000
00000100
00010000
00000000
00001000
00000000
,
00100000
00010000
01000000
00100000
,
10000000
00010000
10000000
00000000
00010000
01000000
00010000
00000000
,
00100000
01000000
20000000
32000000
,
03100000
00000000
00001000
00000000
00010000
00000100
00010000
00000000
,
00000010
00000010
00000010
00000010
,
00001000
00000001
00001000
00000001
00001000
00000010
00000100
00000000
,
00000101
00000101
00001100
00001100
,
00000010
00000000
00010000
00001000
00010000
00000000
00001000
00000000
,
00200000
00310000
00020000
01030000
,
00100000
01000000
00100000
01000000
00100000
00000000
00000000
00000000
,
11000000
11000000
00110000
00110000
,
10000000
00000000
00010000
00100000
00010000
00000000
01000000
00000000
,
00002000
00013000
00020000
00030100
,
00000010
00000001
00000010
00000001
00000010
00000000
00000100
00000000
,
00001000
00000001
00000010
00001000
,
00020000
00000000
00001000
00031000
,
00011000
00000000
00001000
00000000
00100000
00010000
00100000
00000000
,
00000000
00000000
00010000
00000000
10000000
01000000
10000000
00000000
,
00000000
00100000
01000000
00001000
,
00010000
00001000
00010000
00000000
00000100
00000000
00000010
00000000
,
00001002
00000000
00000000
00000013
00000200
00000000
00000000
00002300
,
00000000
00003200
00000000
00010300
00001000
00000000
00101000
00000000
,
00200000
00000000
00000000
00310000
20000000
00000000
00000000
32000000
,
00000000
03200000
00000000
00310000
01000000
00000000
01100000
00000000
,
00100000
10000000
01000000
00100000
,
00001000
00010000
00001000
00000000
00010000
00000100
00010000
00000000
,
00001000
00000100
00000001
00000010
,
00000100
00000010
00000100
00000000
00000010
00000001
00000010
00000000
,
00000100
00000100
00000100
00000100
,
00010000
00001000
00010000
00001000
00010000
00001000
00100000
00000000
,
00110000
00110000
10100000
10100000
,
00010000
00000000
01000000
00100000
01000000
00000000
00010000
00000000
,
20000000
31000000
02000000
03100000
,
00001000
00000000
00010000
00000100
00010000
00000000
00001000
00000000
,
00000110
00000110
00001001
00001001
,
00000010
00000000
00001000
00000001
00001000
00000000
00000001
00000000
,
00000020
00000130
00000200
00001300
,
00000100
00000000
00010000
00001000
00010000
00000000
00001000
00000000
,
00200000
00320000
00230000
01300000
,
20000000
30020000
20030000
30100000
,
02000000
03002000
00023000
00030200
,
00000320
00000032
00002003
00003000
,
00000010
00000100
00000010
00000000
00002000
00000000
00003100
00000000
,
00010000
00001000
00010000
00000000
02000000
00000000
03100000
00000000
,
00010000
10000000
00010000
10000000
,
00100000
01000000
00100000
01000000
00010000
10000000
01000000
00000000
,
11000000
11000000
00110000
00110000
,
00001000
00010000
00000100
00001000
,
00000011
00000011
00001100
00001100
,
00000100
00010000
00001000
00100000
,
11000000
11000000
00110000
00110000
,
00011000
00001000
00100000
00010000
,
00001000
00011000
00000000
00000000
;

//---------------dance-double - ----------------
#NOTEDATA:;
#CHARTNAME:;
#STEPSTYPE:dance-double;
#DESCRIPTION:;
#CHARTSTYLE:;
#DIFFICULTY:Easy;
#METER:4;
#RADARVALUES:0.287880,0.354282,0.150385,0.050128,0.000000,181.000000,15.000000,5.000000,0.000000,0.000000,0.000000,0.000000,0.000000,0.287880,0.354282,0.150385,0.050128,0.000000,181.000000,15.000000,5.000000,0.000000,0.000000,0.000000,0.000000,0.000000;
#CREDIT:;
#NOTES:
00000000
00000000
00000000
00000000
,
00000000
00000000
00000000
00000000
,
00000000
00000000
00000000
00000000
,
00000000
00000000
00000000
00000000
,
00001000
00010000
00000000
00010000
,
00001000
00100000
00000000
00100000
,
00010000
10000000
00000000
10000000
,
01000000
00100000
00001000
00010000
,
00000100
00000000
00000010
00000000
,
00000001
00001000
00000001
00000000
,
00000100
00000000
00000010
00000000
,
00001000
00000100
00010000
00000000
,
00001000
00100000
01000000
00100000
,
00010000
00010000
00010000
00000000
,
10000000
01000000
00100000
01000000
,
10000000
10000000
10000000
00000000
,
00010000
00000000
00100000
00000000
,
00001000
00010000
00000100
00010000
,
00011000
00000000
00011000
00000000
,
00000100
00000010
00000001
00000000
,
00001000
00000001
00001000
00000000
,
00000010
00000100
00000010
00000000
,
00001001
00000000
00001001
00000000
,
00000010
00010000
00001000
00000000
,
00100000
00010000
10000000
00000000
,
01000000
10000000
00010000
00000000
,
00100000
01000000
00100000
01000000
,
20000000
00000000
00020000
30030000
,
01100000
00100000
01000000
00000000
,
00010000
00100000
00001000
00000000
,
00010000
00000100
00001000
00000100
,
00010000
00001000
00000000
00000000
,
00000100
00000001
00001000
00000000
,
00000001
00000010
00000100
00000000
,
00001000
00000000
00000100
00000000
,
00010000
00001000
00010000
00000000
,
00001000
00100000
01000000
00000000
,
00100000
01000000
10000000
00000000
,
00100000
00000000
01000000
00000000
,
00010000
10000000
00010000
00000000
,
00100000
00000000
00001000
00000000
,
00010000
00000100
00010000
00001000
,
00011000
00000000
00011000
00000000
,
00100000
00010000
01000000
00000000
,
00100000
10000000
00010000
00000000
,
01000000
00001000
00100000
00000000
,
01100000
00000000
10010000
00000000
,
10000000
01000000
00100000
00000000
,
00001000
00010000
00000100
00000000
,
00000010
00000001
00000100
00000000
,
00000010
00000100
00000010
00000000
,
00000100
00000010
00000100
00000000
,
00000001
00001000
00000001
00000010
,
00000100
00001000
00000100
00000000
,
00010000
00010000
00010000
00000000
,
00001000
00001000
00001000
00000000
,
00100000
00100000
00100000
00100000
,
00010000
10000000
00010000
01000000
,
10010000
00000000
10010000
00000000
,
00100000
10000000
01000000
00100000
,
00110000
00000000
00110000
00000000
,
00001000
00010000
00000100
00000010
,
00000002
00000203
00000320
00001030
,
00001001
00000000
00000100
00000100
,
00000010
00001001
00000000
00000000
;
