#VERSION:0.81;
#TITLE:BLEEP CODE;
#SUBTITLE:;
#ARTIST:The 4th;
#TITLETRANSLIT:;
#SUBTITLETRANSLIT:;
#ARTISTTRANSLIT:;
#GENRE:Happy Hardcore;
#ORIGIN:;
#CREDIT:;
#BANNER:BLEEP CODE-bn.png;
#BACKGROUND:BLEEP CODE-bg.png;
#PREVIEWVID:;
#JACKET:BLEEP CODE-jk.png;
#CDIMAGE:;
#DISCIMAGE:;
#LYRICSPATH:;
#CDTITLE:PROJECT GOLDENROD-cdtitle.png;
#MUSIC:Bleep Code.mp3;
#OFFSET:-0.065000;
#SAMPLESTART:33.949001;
#SAMPLELENGTH:11.294000;
#SELECTABLE:YES;
#BPMS:0.000=170.000,
92.000=85.000,
94.000=170.000;
#STOPS:;
#DELAYS:;
#WARPS:;
#TIMESIGNATURES:0.000=4=4,
92.000=2=4,
94.000=4=4;
#TICKCOUNTS:0.000=4;
#COMBOS:0.000=1;
#SPEEDS:0.000=1.000=0.000=0;
#SCROLLS:0.000=1.000;
#FAKES:;
#LABELS:0.000=Song Start;
#BGCHANGES:;
#KEYSOUNDS:;
#ATTACKS:
;

//---------------dance-single - ----------------
#NOTEDATA:;
#CHARTNAME:;
#STEPSTYPE:dance-single;
#DESCRIPTION:;
#CHARTSTYLE:;
#DIFFICULTY:Hard;
#METER:7;
#RADARVALUES:0.499127,0.526769,0.127340,0.095505,0.000000,411.000000,16.000000,12.000000,0.000000,0.000000,0.000000,0.000000,0.000000,0.499127,0.526769,0.127340,0.095505,0.000000,411.000000,16.000000,12.000000,0.000000,0.000000,0.000000,0.000000,0.000000;
#CREDIT:DJ OMiY;
#NOTES:
// measure 0
0000
0000
0000
0000
,  // measure 1
0000
0000
0000
0000
,  // measure 2
0000
0000
0000
0000
,  // measure 3
0000
0000
0000
0000
,  // measure 4
0000
0000
0000
0000
,  // measure 5
0000
0000
0000
0000
,  // measure 6
0000
0000
0000
0000
,  // measure 7
0000
0000
0000
0000
,  // measure 8
1000
0001
0100
0000
0100
0000
0010
1000
,  // measure 9
0000
0001
0100
0001
0100
0000
0010
0000
,  // measure 10
1000
0100
0010
0000
0010
0000
0001
0100
,  // measure 11
0000
0010
1000
0010
1000
0000
0100
0000
,  // measure 12
0010
0100
1000
0000
0001
0000
0100
0010
,  // measure 13
0000
1000
0001
1000
0001
0000
0010
0000
,  // measure 14
0001
0100
0010
0000
1000
0000
0001
0000
,  // measure 15
1000
0001
1000
0001
0000
0010
0100
0000
,  // measure 16
1000
0001
0100
0000
0001
1000
0100
0000
,  // measure 17
1000
0010
0100
0000
0001
0010
0100
0000
,  // measure 18
1000
0001
0010
0000
0001
1000
0100
0000
,  // measure 19
1000
0010
0100
0000
0001
1000
0100
0000
,  // measure 20
1100
0010
0100
0001
,  // measure 21
0110
1000
0001
0100
,  // measure 22
0001
0010
0100
1000
0100
0010
0001
1000
,  // measure 23
0002
0000
0203
0000
0310
1000
0001
0000
,  // measure 24
0100
0000
0010
1000
0000
0001
0010
0100
,  // measure 25
1000
0000
0001
0000
0100
0010
0100
0000
,  // measure 26
0001
0000
1000
0010
0000
1000
0100
0010
,  // measure 27
0001
0000
0100
0000
0001
0010
0100
0000
,  // measure 28
1000
0000
0010
1000
0000
0010
1000
0100
,  // measure 29
0010
0000
0001
0000
0010
0001
0100
0000
,  // measure 30
0010
0000
1001
0000
1000
0100
1000
0100
,  // measure 31
0000
0010
0001
0000
0100
0010
0100
0000
,  // measure 32
0001
0000
1000
0010
0000
0100
0001
1000
,  // measure 33
0100
0000
1000
0000
0001
1000
0010
0000
,  // measure 34
0100
0000
0001
1000
0000
0100
1000
0001
,  // measure 35
0100
0000
0010
0000
1000
0100
0010
0000
,  // measure 36
0100
0000
1000
0001
0000
0010
0001
0010
,  // measure 37
0100
0000
1000
0000
0010
0100
0010
0000
,  // measure 38
1000
0000
1001
0000
0010
1000
0010
1000
,  // measure 39
0000
0001
0010
0000
0100
0000
1100
0000
,  // measure 40
1000
0000
0100
0010
0001
0000
0100
0000
,  // measure 41
0010
1000
0001
1000
0010
0000
0100
0000
,  // measure 42
0001
0000
1000
0000
0001
0010
0010
0010
,  // measure 43
0200
0000
2300
0000
3010
0000
0100
0001
,  // measure 44
1000
0000
0010
1000
0100
0000
0010
0001
,  // measure 45
1000
0000
0100
1000
0001
0000
0100
0010
,  // measure 46
1000
0001
0010
0100
1000
0001
0010
0000
,  // measure 47
0002
0000
1003
0000
1001
0000
0010
1000
,  // measure 48
0001
0000
0100
0001
1000
0000
0010
0000
,  // measure 49
1000
0000
0100
0000
0010
0000
0001
1000
,  // measure 50
0100
0000
1000
0010
0100
0001
0001
0001
,  // measure 51
2000
0000
3020
0000
0130
0000
0001
1000
,  // measure 52
0100
0000
0010
0100
1000
0000
0010
0100
,  // measure 53
0001
0000
1000
0000
0001
0100
0010
1000
,  // measure 54
0001
0010
0100
0000
2002
0000
0000
0000
,  // measure 55
0000
3003
0010
1010
,  // measure 56
0100
0110
1001
1000
,  // measure 57
0010
0000
0100
0001
0010
0000
0100
0000
,  // measure 58
1000
0000
0001
0000
1000
0100
0010
0000
,  // measure 59
0100
0010
0001
0000
1001
0000
0010
0000
,  // measure 60
0100
0000
0001
1000
0001
0000
0010
0000
,  // measure 61
0100
0000
1000
0100
0010
0000
0001
0000
,  // measure 62
0100
0000
0010
0000
1000
0100
1000
0100
,  // measure 63
0000
0010
0001
0000
0100
0001
0100
0000
,  // measure 64
0010
0000
1000
0001
0000
0010
0001
0010
,  // measure 65
0100
0000
0010
0000
0100
1000
0001
0000
,  // measure 66
0100
0000
0010
1000
0000
0001
0100
0010
,  // measure 67
1000
0000
0001
0000
1000
0100
0010
0000
,  // measure 68
0100
0000
0010
0001
0000
0100
0010
0100
,  // measure 69
0010
0000
1000
0000
0001
0010
0100
1000
,  // measure 70
0010
1000
0001
0000
0100
0000
0110
0000
,  // measure 71
0101
1100
1001
0010
,  // measure 72
0100
0001
1000
0100
,  // measure 73
0010
0001
1000
0010
,  // measure 74
0100
0001
1000
0100
,  // measure 75
1000
0001
0010
0000
0001
0000
0100
0000
,  // measure 76
0010
0100
0001
1000
,  // measure 77
0010
1000
0100
0010
,  // measure 78
0001
0000
1000
0000
0010
1000
0010
0100
,  // measure 79
0010
0100
0001
0010
0001
0000
1000
0000
,  // measure 80
0001
0010
0100
1000
,  // measure 81
0001
1000
0010
0000
1000
0000
0100
0000
,  // measure 82
0010
0001
1000
0010
,  // measure 83
0100
0001
0010
0100
,  // measure 84
1000
0010
1000
0100
,  // measure 85
0001
0100
1000
0001
,  // measure 86
0010
0001
0200
0000
,  // measure 87
0000
0300
2002
0000
,  // measure 88
0000
3003
0000
0000
;

//---------------dance-single - ----------------
#NOTEDATA:;
#CHARTNAME:;
#STEPSTYPE:dance-single;
#DESCRIPTION:;
#CHARTSTYLE:;
#DIFFICULTY:Challenge;
#METER:9;
#RADARVALUES:0.702643,0.772595,0.175092,0.206927,0.083567,570.000000,22.000000,26.000000,0.000000,0.000000,0.000000,0.000000,0.000000,0.702643,0.772595,0.175092,0.206927,0.083567,570.000000,22.000000,26.000000,0.000000,0.000000,0.000000,0.000000,0.000000;
#CREDIT:DJ OMiY;
#NOTES:
0000
0000
0000
0000
,
0000
0000
0000
0000
,
0000
0000
0000
0000
,
0000
0000
0000
0000
,
0000
0000
0000
0000
,
0000
0000
0000
0000
,
0000
0000
0000
0000
,
0000
0000
0000
0000
,
0001
0010
0100
0000
1000
0000
0010
0100
,
0000
0001
1000
0100
0010
0000
0001
1000
,
0001
0100
0010
0000
1000
0000
0001
0010
,
0000
0001
1000
0100
0010
0000
0100
1000
,
0001
0100
0001
0000
1000
0000
0010
1000
,
0000
0100
1000
0001
0100
0000
0010
1000
,
0100
0010
0001
0000
1000
0000
0001
0100
,
0010
0100
0001
1000
0000
0010
0100
0000
,
0001
0010
0001
0100
0001
0010
0001
0100
,
0010
1000
0100
1000
0010
1000
0100
1000
,
0001
0010
0100
0010
0001
0010
0100
0010
,
0001
1000
0100
1000
0001
1000
0100
1000
,
0001
0010
0100
1000
0001
0010
0100
0000
,
1000
0100
0010
0001
1000
0100
0010
0001
,
0100
0000
0001
0000
1000
0000
0010
0000
0100
0001
0100
0001
1000
0001
1000
0001
,
0200
0010
0310
1001
0010
1000
0100
1000
,
0010
0100
0001
2000
0000
3010
1000
0100
,
0010
0001
0100
0010
0100
0001
0010
0100
,
1000
0100
1000
0002
0000
0013
0001
0100
,
0010
0100
0001
1000
0100
1000
0001
0010
,
0100
1000
0100
0020
0000
0130
1000
0001
,
0100
0010
0100
0001
1000
0001
1000
0100
,
0010
0100
1000
0100
1000
0001
0100
0001
,
0010
0100
0110
0000
0100
1000
0001
0100
,
0010
0100
0001
0020
0000
0031
1000
0100
,
1000
0001
0100
0010
1000
0001
1000
0100
,
0010
0100
1000
0002
0000
0103
0010
0100
,
0001
1000
0010
1000
0100
0010
0001
0010
,
0001
0100
0010
2000
0000
3100
1000
0001
,
0100
0010
0100
0001
1000
0010
1000
0100
,
0010
0001
1000
0010
0100
0001
0100
0020
,
0000
1030
1100
0000
1001
0001
0010
0001
,
0100
0000
0010
1000
0010
0000
0100
0000
0001
0000
1000
0000
0100
0000
0010
0000
,
0001
0010
0100
0010
0011
0000
0110
0000
,
1100
0000
1000
0000
0010
0000
0100
0000
0001
0000
0100
0010
0100
0010
1000
0000
,
0002
0000
1000
0000
2003
0000
3001
0000
0100
0010
0100
0000
0001
0000
0010
0000
,
0100
0000
1000
0100
0010
0000
0100
0000
1000
0000
0001
0000
0100
0000
0010
0000
,
2000
0000
0100
0000
3100
0000
0010
0000
0001
0000
0100
0010
0100
0000
0010
0100
,
0010
0000
1000
0000
0100
0000
0010
0000
0001
0000
1000
0100
1000
0100
0010
0000
,
0100
0000
1100
0000
1000
0001
0100
0010
,
0100
0000
0001
1000
0001
0000
0010
0000
0100
0000
1000
0000
0001
0000
0100
0000
,
0001
1000
0100
1000
1010
0000
0110
0000
,
0101
0001
1000
0100
0010
0001
0001
0001
,
0200
0000
0320
0000
1030
0100
1000
0001
,
0100
0000
0010
1000
0010
0000
0100
0000
0001
1000
0001
0000
0010
0000
0100
0000
,
2000
0000
0000
0000
3010
0000
1000
0100
1000
0000
0001
0000
0100
0000
0010
0000
,
1000
0001
1000
0100
0020
0001
0000
0031
,
0200
0000
0300
0000
1001
0001
0100
0010
,
1000
0100
0010
0001
1000
0001
0100
0010
,
1000
0001
0010
0100
0010
0001
1000
0100
,
1000
0010
0100
0001
0010
0100
1000
0100
,
0010
0001
1000
0010
0100
0001
1000
0100
,
1000
0001
0010
0100
0010
0001
1000
0100
,
0001
0100
1000
0010
0100
0001
1000
0010
,
1000
0001
0010
0100
0010
0001
1000
0001
,
0100
0010
1010
0000
0101
0001
2000
0000
,
3200
0000
1300
0010
0100
0001
0010
0100
,
1000
0100
0010
0001
1000
0001
0201
0000
,
0320
0000
1030
0100
0010
0100
1000
0001
,
0010
0001
0100
0010
1000
0100
1200
0000
,
0320
0000
0031
1000
0001
0100
0010
1000
,
0100
0010
0001
0010
0100
1000
0100
1000
,
0001
0100
0001
0100
0010
1000
0010
1000
0010
0000
0000
0000
0110
0000
0000
0000
,
0110
0000
1001
0000
0010
1000
0100
0000
,
0010
0001
0100
0000
0001
1000
0100
0000
,
1000
0010
0100
0000
0001
1000
0001
0000
,
0010
0100
1000
0000
0001
1000
0100
0000
,
1100
0000
0101
0000
0010
1000
0001
0000
,
0100
0001
0010
0000
0100
1000
0001
0000
,
0100
0010
1000
0000
0100
0010
0001
0000
,
1000
0100
0010
0000
0100
1000
0100
0010
,
0100
0010
0001
0100
0001
1000
0010
0000
,
0100
0001
1000
0000
0100
1000
0001
0000
,
0010
0100
1000
0000
0010
0100
0001
0000
,
1000
0100
0010
0000
0001
0100
0010
0000
,
1000
0001
0100
0000
0010
1000
0000
0100
,
0000
0010
0000
0001
0000
1000
0000
0001
,
0000
0100
0000
0010
0000
1000
0000
0001
,
0000
0010
0000
0100
2000
0001
0000
3001
,
0020
0030
0202
0000
,
0000
0303
0000
0000
;

//---------------dance-single - ----------------
#NOTEDATA:;
#CHARTNAME:;
#STEPSTYPE:dance-single;
#DESCRIPTION:;
#CHARTSTYLE:;
#DIFFICULTY:Medium;
#METER:5;
#RADARVALUES:0.417265,0.456533,0.087546,0.294473,0.000000,319.000000,11.000000,37.000000,0.000000,0.000000,0.000000,0.000000,0.000000,0.417265,0.456533,0.087546,0.294473,0.000000,319.000000,11.000000,37.000000,0.000000,0.000000,0.000000,0.000000,0.000000;
#CREDIT:DJ OMiY;
#NOTES:
0000
0000
0000
0000
,
0000
0000
0000
0000
,
0000
0000
0000
0000
,
0000
0000
0000
0000
,
0000
0000
0000
0000
,
0000
0000
0000
0000
,
0000
0000
0000
0000
,
0000
0000
0000
0000
,
1000
0000
0100
0000
1000
0000
0001
0100
,
0000
0010
2000
3000
,
0001
0000
0010
0000
0001
0000
1000
0100
,
0000
0010
0200
0300
,
1000
0000
0001
0000
0010
0000
0100
1000
,
0000
0001
0020
0030
,
0100
0000
1000
0000
0100
0000
0010
0001
,
1000
0000
0000
0100
0000
0000
0010
0000
,
0001
0100
0010
1000
,
0100
0010
0001
1000
,
0001
0100
0010
0100
,
0001
1000
0100
0010
,
0011
1000
0010
0100
,
0101
0010
1000
0100
,
1000
0001
1000
0001
0010
0000
0100
0000
,
2000
0000
3001
0000
0001
0100
0001
0000
,
0001
0000
1000
0100
0000
0000
1000
0000
,
0001
0000
0000
0000
0010
0100
0010
0000
,
0010
0000
0100
1000
0000
0000
0001
0000
,
0100
0000
0000
0000
0001
1000
0001
0000
,
0001
0000
0100
0010
0000
0000
1000
0000
,
0001
0000
0000
0000
0100
0010
0100
0000
,
0100
0000
0001
1000
0010
0000
0000
1000
,
0000
0001
0100
0001
,
1000
0100
0010
0100
,
1000
0001
0100
0010
,
0100
0001
1000
0001
,
0010
0100
1100
0010
,
0100
0001
0101
0010
,
1000
0001
0110
1000
,
0110
0000
0001
0000
1000
0100
1000
0100
,
0000
0010
0001
0000
0100
0000
0010
0000
,
1000
0000
0001
0100
0001
0000
1000
0000
,
0100
0010
0100
1000
,
0001
0000
1000
0000
0010
0100
0010
0100
,
0002
2003
3100
1000
,
0001
0010
0100
1000
,
0100
0010
0001
1000
,
0010
0000
0100
0000
0001
1000
0002
0000
,
0013
0110
1000
0001
,
1000
0000
0010
0100
0010
0000
1000
0000
,
0001
0010
0100
1000
,
0010
0000
1000
0000
0100
0010
0001
0000
,
2000
3020
0130
0001
,
1000
0001
0010
0001
,
0100
0010
0100
0000
0020
0000
0000
0000
,
0000
0030
2002
0000
,
0000
3003
0020
1000
,
1030
0002
0203
0310
,
1000
0000
0001
1000
0100
0000
0100
0000
,
0100
0010
0002
0010
,
0023
0130
2000
0100
,
3100
0000
0010
0001
0200
0000
0010
0000
,
0320
0000
1030
0001
1000
0000
1000
0000
,
0001
0001
0100
0100
,
0020
0030
2001
0010
,
3010
0200
0302
0010
,
0023
0000
0031
1000
0002
0000
0100
0000
,
0100
0103
0020
1000
,
2030
0001
3002
0010
,
0023
0100
0230
1000
,
2300
0001
3001
0010
,
0100
1000
0001
1000
,
0001
0110
1000
0100
,
0010
0001
1000
0010
,
0100
0001
0010
0100
,
1000
0001
0100
0010
,
1000
0000
0001
1000
,
0001
0010
0100
0010
,
0001
1000
0100
1000
,
0001
0100
0001
0010
,
0200
0300
1000
0100
,
1000
0001
0100
0010
,
0100
0001
0010
0100
,
0010
0001
1000
0100
,
0020
0030
0001
1000
,
0001
0100
0010
1000
,
0100
0010
0001
1000
,
0001
0010
0002
0000
,
0000
0003
2200
0000
,
0000
3300
0000
0000
;

//---------------dance-single - ----------------
#NOTEDATA:;
#CHARTNAME:;
#STEPSTYPE:dance-single;
#DESCRIPTION:;
#CHARTSTYLE:;
#DIFFICULTY:Easy;
#METER:4;
#RADARVALUES:0.362691,0.386297,0.095505,0.270597,0.000000,273.000000,12.000000,34.000000,0.000000,0.000000,0.000000,0.000000,0.000000,0.362691,0.386297,0.095505,0.270597,0.000000,273.000000,12.000000,34.000000,0.000000,0.000000,0.000000,0.000000,0.000000;
#CREDIT:DJ OMiY;
#NOTES:
0000
0000
0000
0000
,
0000
0000
0000
0000
,
0000
0000
0000
0000
,
0000
0000
0000
0000
,
0000
0000
0000
0000
,
0000
0000
0000
0000
,
0000
0000
0000
0000
,
0000
0000
0000
0000
,
1000
0100
0100
0010
,
0000
0001
0100
0000
,
0010
1000
1000
0001
,
0000
0010
0001
0000
,
1000
0010
0010
0100
,
0000
0001
1000
0000
,
0001
0100
0100
0010
,
2000
0000
0002
3003
,
1001
0001
1000
0100
,
1000
0010
0100
0001
,
1000
0100
0010
0001
,
0010
0100
1000
0001
,
0101
0000
1000
0000
,
1010
0000
0100
0000
,
0001
0010
0100
2000
,
0002
3003
1001
1000
,
0100
0010
0000
0001
,
1000
0100
1000
0010
,
0100
0010
0000
1000
,
0001
0010
0100
0010
,
0001
1000
0000
0010
,
1000
0100
1000
0001
,
0010
0100
2000
0000
,
0020
3030
0100
0001
,
0010
0100
0000
1000
,
0100
1000
0001
0100
,
0010
0100
0000
0001
,
1000
0010
0100
0001
,
1000
0100
0000
0010
,
0001
1000
0100
1000
,
0001
0100
0020
0000
,
0200
0330
1001
0001
,
1000
0100
1000
0001
,
0100
0000
0001
1000
,
0010
0100
0001
1000
,
0200
0320
0031
0010
,
0100
1000
0010
0100
,
0001
1000
0100
1000
,
0001
0100
0010
1000
,
0001
1001
0100
0010
,
1000
0100
1000
0001
,
0010
0100
1000
0001
,
0100
0001
1000
0001
,
2000
3200
0310
0100
,
1000
0010
0100
0001
,
1000
0100
2000
0000
,
0010
0000
0002
0000
,
0000
3003
0012
0000
,
0000
0203
0320
0000
,
2030
3200
0320
0000
,
0001
0000
0032
0000
,
2003
0000
3020
0000
,
2030
3002
0010
0000
,
0023
0230
2300
0000
,
0100
0000
3002
0000
,
0203
0000
0310
1000
,
0001
0010
0100
1000
,
0100
0010
0001
1000
,
0010
0100
0001
1000
,
0002
0000
0013
0100
,
1000
0100
0010
0001
,
1000
0001
0100
0010
,
0100
0001
1000
1000
,
0001
1001
0010
0100
,
0010
1000
0001
0010
,
0100
0010
0001
1000
,
0100
1000
0010
0100
,
0001
1000
0001
0010
,
0100
1000
0010
0100
,
0001
1000
0100
1000
,
0001
0100
0010
1010
,
0101
1001
0010
1000
,
0100
0010
0001
1000
,
0010
0100
0001
1000
,
0100
1000
0001
0010
,
0100
0010
0001
1000
,
0010
0100
0001
1000
,
0100
1000
0001
0010
,
0100
1000
0020
0000
,
0000
0030
2002
0000
,
0000
3003
0000
0000
;

//---------------dance-single - ----------------
#NOTEDATA:;
#CHARTNAME:;
#STEPSTYPE:dance-single;
#DESCRIPTION:;
#CHARTSTYLE:;
#DIFFICULTY:Beginner;
#METER:1;
#RADARVALUES:0.170544,0.210708,0.031835,0.159175,0.000000,126.000000,4.000000,20.000000,0.000000,0.000000,0.000000,0.000000,0.000000,0.170544,0.210708,0.031835,0.159175,0.000000,126.000000,4.000000,20.000000,0.000000,0.000000,0.000000,0.000000,0.000000;
#CREDIT:DJ OMiY;
#NOTES:
0000
0000
0000
0000
,
0000
0000
0000
0000
,
0000
0000
0000
0000
,
0000
0000
0000
0000
,
0000
0000
0000
0000
,
0000
0000
0000
0000
,
0000
0000
0000
0000
,
0000
0000
0000
0000
,
1001
0000
0000
0000
,
0001
0000
1000
0000
,
0100
0000
0000
0000
,
0010
0000
0100
0000
,
1000
0000
0000
0000
,
0001
0000
0100
0000
,
0010
0000
0000
0000
,
1000
0000
0001
0000
,
1000
0000
0100
0000
,
0010
0000
0001
0000
,
1000
0000
0100
0000
,
0010
0000
0001
0000
,
2000
0000
3000
0000
,
0002
0000
0003
0000
,
0100
0000
0010
0000
,
1000
0000
0001
0000
,
0100
0000
0002
0000
,
0003
0000
1000
0000
,
0010
0000
2000
0000
,
3000
0000
0100
0000
,
0010
0000
0200
0000
,
0300
0000
0010
0000
,
0001
0000
1000
0000
,
0001
0000
0100
0000
,
0010
0000
2000
0000
,
3000
0000
0001
0000
,
0100
0000
0020
0000
,
0030
0000
1000
0000
,
0001
0000
0200
0000
,
0300
0000
0010
0000
,
1000
0000
0002
0000
,
0003
0000
1000
0000
,
0100
0000
1000
0000
,
0100
0000
0010
0000
,
0001
0000
0010
0000
,
0002
0003
0001
0000
,
0100
0000
0001
0000
,
0100
0000
0010
0000
,
1000
0000
0010
0000
,
2000
3000
1000
0000
,
0100
0000
0010
0000
,
0001
0000
1000
0000
,
0100
0000
0010
0000
,
0002
0003
0001
0000
,
0100
0000
0010
0000
,
1000
0000
0001
0000
,
0100
0000
0020
0000
,
0030
0000
1001
0000
,
0000
1000
1000
0000
,
0010
0000
0020
0000
,
0000
0000
0030
0000
,
0100
0000
0001
0000
,
1000
1000
0000
0000
,
0001
0001
0002
0000
,
0000
0000
0003
0000
,
1000
0000
0100
0000
,
0000
0010
0010
0000
,
0100
0000
0200
0000
,
0000
0000
0300
0000
,
1000
0000
0001
0000
,
0010
0000
0100
0000
,
1000
0000
0002
0000
,
0003
0000
0100
0100
,
0100
0100
0100
0000
,
0000
0000
0010
0000
,
0000
0000
1000
0000
,
0000
0000
0001
0000
,
0000
0000
0010
0000
,
0000
0000
0100
0000
,
0000
0000
1000
0000
,
0000
0000
0001
0000
,
0000
0000
1001
0000
,
0000
0000
0010
0000
,
0000
0000
0100
0000
,
0000
0000
0001
0000
,
0000
0000
1000
0000
,
0000
0000
0100
0000
,
0000
0000
0010
0000
,
0000
0000
0002
0000
,
0003
0000
0220
0000
,
0000
0330
0000
0000
;

//---------------dance-double - ----------------
#NOTEDATA:;
#CHARTNAME:;
#STEPSTYPE:dance-double;
#DESCRIPTION:;
#CHARTSTYLE:;
#DIFFICULTY:Challenge;
#METER:9;
#RADARVALUES:0.663987,0.737477,0.183051,0.111422,0.039794,547.000000,23.000000,14.000000,0.000000,0.000000,0.000000,0.000000,0.000000,0.663987,0.737477,0.183051,0.111422,0.039794,547.000000,23.000000,14.000000,0.000000,0.000000,0.000000,0.000000,0.000000;
#CREDIT:DJ OMiY;
#NOTES:
00000000
00000000
00000000
00000000
,
00000000
00000000
00000000
00000000
,
00000000
00000000
00000000
00000000
,
00000000
00000000
00000000
00000000
,
00000000
00000000
00000000
00000000
,
00000000
00000000
00000000
00000000
,
00000000
00000000
00000000
00000000
,
00000000
00000000
00000000
00000000
,
00000001
00001000
00000100
00000000
00000100
00000000
00001000
00000010
,
00000100
00000001
00000010
00000100
00001000
00000000
00000100
00010000
,
00001000
00010000
00100000
00000000
00100000
00000000
10000000
01000000
,
00100000
00010000
10000000
00010000
01000000
00000000
00100000
01000000
,
00010000
00100000
01000000
00000000
01000000
00000000
10000000
01000000
,
10000000
00010000
00100000
00001000
00010000
00000000
00000100
00001000
,
00000010
00000100
00000010
00000000
00000010
00000000
00001000
00000001
,
00000010
00000100
00001000
00010000
00000000
00100000
01000000
00000000
,
10000000
00010000
01000000
00010000
00100000
00001000
00010000
00001000
,
00010000
00000100
00000010
00000100
00001000
00000001
00000100
00000001
,
00001000
00000100
00000010
00000100
00001000
00000100
00010000
00001000
,
00010000
00001000
00100000
00010000
10000000
01000000
00100000
00000000
,
00010000
00100000
01000000
10000000
00010000
00100000
01000000
00000000
,
10000000
01000000
00100000
00010000
10000000
01000000
00100000
00000000
,
00001000
00000000
00010000
00000000
00000100
00000000
00000010
00000000
00000001
00000000
00000010
00000000
00000100
00010000
00001000
00010000
,
00002000
00010000
00013000
00011000
00100000
00010000
01000000
00000000
,
01100000
00000000
10000000
00010000
00100000
01000000
10000000
01000000
,
00100000
00001000
00010000
00000100
00001000
00000001
00000100
00000000
,
00001001
00000000
00000010
00000001
00001000
00000100
00001000
00010000
,
00100000
01000000
00100000
00010000
10000000
01000000
00100000
00000000
,
00110000
00000000
01000000
10000000
00010000
00100000
00001000
00010000
,
00001000
00000100
00000001
00000010
00000100
00000010
00000001
00000000
,
00001100
00000000
00000010
00001000
00000001
00000010
00000100
00001000
,
00000000
00010000
00100000
00000000
00010000
10000000
00100000
00000000
,
01010000
00000000
10000000
00010000
01000000
10000000
01000000
00010000
,
00100000
00001000
00010000
00000100
00000010
00000100
00001000
00000000
,
00001100
00000000
00000010
00000001
00001000
00000010
00001000
00000100
,
00010000
00001000
00100000
01000000
00100000
00010000
01000000
00000000
,
01100000
00000000
00010000
01000000
00100000
01000000
00001000
00010000
,
00000100
00000010
00000001
00001000
00000100
00001000
00000001
00000000
,
00000101
00000000
00000010
00001000
00000100
00001000
00010000
00100000
,
00000000
01000000
10000000
00000000
10010000
00010000
01000000
00100000
,
10000000
00000000
00010000
01000000
00010000
00000000
10000000
00000000
01000000
00000000
00100000
00000000
00001000
00000000
00010000
00000000
,
00000200
00000000
00000310
00000001
00000101
00000000
00000110
00000000
,
00001010
00000000
00001000
00000000
00000100
00000000
00010000
00000000
00001000
00000000
00100000
00010000
00100000
00010000
00100000
00000000
,
02000000
10000000
23000000
30010000
01000000
00100000
01000000
00010000
,
10000000
00000000
01000000
00100000
01000000
00000000
00100000
00000000
00001000
00000000
00010000
00001000
00010000
00000000
00000100
00000000
,
00001000
00000010
00000100
00000001
00001000
00000100
00001000
00000100
,
00001000
00000100
00001000
00010000
00100000
00010000
10000000
00100000
,
01000000
00100000
01100000
00000000
10010000
10000000
01000000
00100000
,
00001000
00000000
00010000
00000100
00010000
00000000
00001000
00000000
00000100
00000000
00000010
00000100
00000010
00000000
00001000
00000000
,
00000001
00001000
00000100
00010000
00011000
00000000
00110000
00000000
,
01100000
01000000
10000000
00100000
01000000
00010000
00010000
00010000
,
20000000
00010000
30020000
00130000
01000000
10000000
00010000
00100000
,
00001000
00000000
00100000
00010000
00100000
00000000
00001000
00000000
00010000
00000000
00000100
00000000
00000010
00000000
00000001
00000000
,
00000100
00000010
00001000
00000100
00000010
00000100
00001000
00010000
,
00100000
01000000
10000000
00010000
02000000
00100000
00000000
03100000
,
20000000
00000000
30000000
00000000
10010000
00010000
01000000
00100000
,
10000000
01000000
00100000
00010000
00100000
00001000
00010000
00001000
,
00000100
00000010
00000100
00000001
00001000
00000100
00000010
00000001
,
00000010
00000100
00001000
00000001
00000100
00000010
00010000
00001000
,
00020000
00000000
00130000
00000000
00010000
00001000
00010000
01000000
,
10000000
00010000
01000000
00100000
10000000
01000000
00100000
00001000
,
00010000
00001000
00000100
00000001
00000010
00000100
00001000
00000010
,
00000100
00000001
00001000
00000100
00010000
00001000
00100000
01000000
,
10000000
00010000
10000000
00000000
00100000
10000000
01000000
00100000
,
01000000
10000000
00010000
00100000
00001000
00010000
00001000
00000010
,
00000100
00000010
00000001
00001000
00000010
00000100
00000001
00001000
,
00000100
00010000
00001000
00100000
01000000
10000000
01000000
00100000
,
00002000
00000000
00013000
00000000
00001000
00000100
00000010
00000100
,
00000001
00000100
00000010
00001000
00000100
00000010
00000001
00000010
,
00000100
00000010
00001000
00000010
00000001
00000010
00000100
00001000
,
00010000
00100000
01000000
10000000
00010000
00000000
01010000
00000000
,
11000000
00000000
10010000
00000000
00100000
10000000
00010000
00000000
,
01000000
00010000
00100000
00000000
01000000
10000000
00010000
00000000
,
00100000
00001000
00010000
00000000
00001000
00000100
00000001
00000000
,
00000010
00000100
00001000
00000000
00000010
00000100
00000001
00000000
,
00001000
00000100
00010000
00000000
00000010
00001000
00000100
00000000
,
00010000
00001000
01000000
00000000
00100000
10000000
00010000
00000000
,
00100000
01000000
10000000
00000000
01000000
00100000
00001000
00000000
,
00010000
00000100
00000010
00000000
00000001
00001000
00000100
00010000
,
00001000
01000000
00010000
10000000
00100000
01000000
00000000
00010000
,
00000000
10000000
00000000
01000000
00000000
00100000
00000000
00001000
,
00000000
00010000
00000000
00000100
00000000
00000010
00000000
00000001
,
00000000
00001000
00000000
00000100
00000000
00010000
00000000
00001000
,
00000000
00010000
00000000
00100000
00000000
10000000
00000000
01000000
,
00000000
00010000
00000000
00001000
00000000
00000100
00000000
00000001
,
00000000
00000010
00000000
00001000
00000000
00010000
00000000
01000000
,
00000000
10000000
00000000
00010000
02000000
00010000
00000000
03010000
,
20000000
30000000
20200000
00000000
,
00000000
30300000
00000000
00000000
;

//---------------dance-double - ----------------
#NOTEDATA:;
#CHARTNAME:;
#STEPSTYPE:dance-double;
#DESCRIPTION:;
#CHARTSTYLE:;
#DIFFICULTY:Hard;
#METER:8;
#RADARVALUES:0.536647,0.597005,0.183051,0.071629,0.000000,440.000000,23.000000,9.000000,0.000000,0.000000,0.000000,0.000000,0.000000,0.536647,0.597005,0.183051,0.071629,0.000000,440.000000,23.000000,9.000000,0.000000,0.000000,0.000000,0.000000,0.000000;
#CREDIT:DJ OMiY;
#NOTES:
00000000
00000000
00000000
00000000
,
00000000
00000000
00000000
00000000
,
00000000
00000000
00000000
00000000
,
00000000
00000000
00000000
00000000
,
00000000
00000000
00000000
00000000
,
00000000
00000000
00000000
00000000
,
00000000
00000000
00000000
00000000
,
00000000
00000000
00000000
00000000
,
00001000
00100000
00010000
00000000
00010000
00000000
10000000
01000000
,
00000000
00100000
00010000
01000000
00010000
00000000
10000000
00000000
,
00010000
00100000
00010000
00000000
01000000
00000000
00100000
10000000
,
00000000
10000000
01000000
10000000
00100000
00000000
01000000
00000000
,
00001000
00010000
00001000
00000000
00001000
00000000
00010000
00000100
,
00000000
00000010
00000100
00000010
00000001
00000000
00000100
00000000
,
00000010
00001000
00000010
00000000
00000100
00000000
00000001
00001000
,
00000100
00000000
00001000
00000100
00000000
00000100
00000010
00000000
,
00000001
00000100
00000001
00000000
00001000
00000010
00001000
00000000
,
00000100
00010000
00000100
00000000
00010000
00001000
00010000
00000000
,
00001000
00100000
00001000
00000000
01000000
00010000
01000000
00000000
,
00100000
10000000
00100000
00000000
01000000
00100000
01000000
00000000
,
00010000
10000000
01000000
00100000
00010000
00100000
00001000
00000000
,
00010000
00000100
00001000
00000010
00001000
00000001
00000010
00000000
,
00000100
00001000
00000100
00010000
00001000
00100000
01000000
10000000
,
00020000
00000000
01030000
00000000
00010000
10000000
01000000
00000000
,
01000000
00000000
10000000
00010000
00000000
00100000
00001000
00100000
,
00010000
00000000
00001000
00000000
00000100
00001000
00000010
00000000
,
00000010
00000000
00000100
00000001
00000000
00000010
00000100
00001000
,
00000100
00000000
00010000
00000000
00001000
01000000
00001000
00000000
,
00001000
00000000
00100000
01000000
00000000
10000000
00010000
10000000
,
01000000
00000000
00100000
00000000
00010000
10000000
01000000
00000000
,
01000000
00000000
00100000
00010000
00100000
00001000
00010000
00000100
,
00000000
00000010
00000100
00000000
00001000
00000001
00001000
00000000
,
00001000
00000000
00000010
00000100
00000000
00000001
00000010
00000100
,
00001000
00000000
00000100
00010000
00000100
00010000
00001000
00000000
,
00001000
00000000
00100000
00010000
00000000
00010000
10000000
01000000
,
10000000
00000000
00100000
01000000
00010000
00100000
00010000
00000000
,
10000000
00000000
01000000
00100000
00000000
00001000
00010000
00001000
,
00100000
00000000
00001000
00010000
00000100
00000010
00000100
00000000
,
00000100
00000000
00001000
00000001
00000100
00000010
00000100
00000001
,
00000000
00001000
00000100
00000000
00000110
00000000
00000011
00000000
,
00001100
00000000
00000010
00001000
00000100
00010000
00001000
00010000
,
00100000
00000000
10000000
00010000
01000000
00000000
10010000
00000000
,
01100000
00100000
10000000
00010000
10000000
01000000
01000000
01000000
,
00200000
00000000
00320000
00000000
10030000
00100000
01000000
00001000
,
00010000
01000000
10000000
00000000
00100000
01000000
00010000
00100000
,
00001000
00000000
00010000
00000100
00000010
00000001
00001000
00000000
,
00000010
00000100
00000001
00000000
00001000
00000100
00001000
00000001
,
00000200
00000310
00001010
00011000
,
00101000
00000000
00010000
10000000
01000000
00100000
01000000
10000000
,
00010000
00000000
00100000
00001000
00010000
00000000
00011000
00000000
,
00010100
00010000
00001000
00010000
00000010
00000100
00000100
00000100
,
00000002
00000000
00000023
00000000
00000130
00001000
00000100
00010000
,
00001000
00000000
00100000
00010000
01000000
00000000
00100000
10000000
,
00010000
00000000
10000000
01000000
00200000
00000000
00010000
00000000
,
01000000
00000000
10000000
00000000
01300000
00100000
00000000
00100000
,
00010000
00000000
00000000
00000000
00100000
00001000
01000000
00000000
,
01000000
00000000
00100000
10000000
00000000
01000000
00100000
00001000
,
00010000
00000000
00000100
00001000
00000001
00000010
00000100
00000000
,
00000100
00000000
00000010
00000001
00000000
00001000
00000100
00010000
,
00001000
00000000
00100000
00010000
10000000
00100000
01000000
00000000
,
01000000
00000000
00010000
10000000
00000000
01000000
00100000
00001000
,
00010000
00000000
00000100
00001000
00000001
00001000
00000010
00000000
,
00000010
00000000
00000100
00000001
00000010
00000100
00001000
00000100
,
00000000
00010000
00001000
00000000
00100000
00010000
10000000
00000000
,
10000000
00000000
01000000
10000000
00000000
00100000
01000000
00010000
,
10000000
00000000
01000000
00100000
00001000
00010000
00001000
00000000
,
00001000
00000000
00000100
00000010
00000000
00000100
00000001
00001000
,
00000100
00000000
00000010
00000100
00001000
00000100
00010000
00000000
,
00010000
00000000
00001000
01000000
00000000
00010000
00100000
01000000
,
10000000
00000000
00100000
01000000
00010000
10000000
01000000
10000000
,
01000000
00100000
00001000
00010000
00001000
00000000
00011000
00000000
,
00010100
00000110
00001001
00000010
,
00001000
00000100
00000010
00000001
,
00001000
00000100
00010000
00001000
,
00100000
00000000
00010000
00000000
01000000
00100000
01000000
00000000
,
00010000
10000000
00010000
00000000
10000000
00000000
01000000
00000000
,
00100000
01000000
10000000
00010000
,
00100000
00001000
00010000
00000010
,
00000100
00000000
00000001
00000000
00001000
00000100
00001000
00000010
,
00000100
00000010
00000100
00000001
00001000
00000000
00001100
00000000
,
00000000
00011000
00000000
00110000
,
00000000
10010000
00000000
01100000
,
00000000
01010000
00000000
11000000
,
00000000
00000000
01100000
00000000
00000000
00010000
00000000
00100000
,
00000000
00010000
00000000
00100000
00000000
00001000
00000000
00010000
,
00000000
00001000
00000000
00010000
00000000
00000100
00000000
00001000
,
00000000
00000100
00000000
00001000
00000001
00000100
00000000
00000010
,
00001000
00000000
00002200
00000000
,
00000000
00003300
00000000
00000000
;

//---------------dance-double - ----------------
#NOTEDATA:;
#CHARTNAME:;
#STEPSTYPE:dance-double;
#DESCRIPTION:;
#CHARTSTYLE:;
#DIFFICULTY:Medium;
#METER:6;
#RADARVALUES:0.416128,0.421415,0.079587,0.079587,0.000000,346.000000,10.000000,10.000000,0.000000,0.000000,0.000000,0.000000,0.000000,0.416128,0.421415,0.079587,0.079587,0.000000,346.000000,10.000000,10.000000,0.000000,0.000000,0.000000,0.000000,0.000000;
#CREDIT:DJ OMiY;
#NOTES:
00000000
00000000
00000000
00000000
,
00000000
00000000
00000000
00000000
,
00000000
00000000
00000000
00000000
,
00000000
00000000
00000000
00000000
,
00000000
00000000
00000000
00000000
,
00000000
00000000
00000000
00000000
,
00000000
00000000
00000000
00000000
,
00000000
00000000
00000000
00000000
,
00001000
00000000
00010000
00000000
00010000
00000000
00001000
00100000
,
00000000
00010000
10000000
00000000
,
01000000
00000000
00100000
00000000
00100000
00000000
01000000
10000000
,
00000000
00010000
00100000
00000000
,
00001000
00000000
00010000
00000000
00010000
00000000
00000100
00000010
,
00000000
00000001
00001000
00000000
,
00000010
00000000
00000100
00000000
00000100
00000000
00000010
00001000
,
00000010
00000000
00000000
00000100
00000000
00000000
00000001
00000000
,
00001000
00000000
00000100
00000000
00000100
00000000
00010000
00001000
,
00000000
01000000
00100000
00000000
,
10000000
00000000
00010000
00000000
00010000
00000000
00100000
00001000
,
00000000
00010000
00001000
00000000
,
00011000
00010000
00000100
00000010
,
00001001
00000010
00000100
00010000
,
00001000
00000000
00100000
00000000
00010000
10000000
00010000
10000000
,
02000000
00000000
00000000
03000000
01100000
00000000
01000000
00000000
,
01000000
00000000
10000000
00010000
00000000
00010000
01000000
00000000
,
00100000
10000000
01000000
00100000
,
00001000
00000000
00010000
00000100
00000000
00000100
00001000
00000000
,
00000010
00000100
00000001
00000010
,
00000100
00000000
00010000
00001000
00000000
00001000
01000000
00000000
,
00100000
10000000
01000000
00100000
,
00001000
00000000
00010000
00000000
00000100
00001000
00000000
00000010
,
00000000
00000100
00000001
00000000
00000010
00000000
00000100
00000000
,
00001000
00000000
00000100
00001000
00000000
00001000
00000010
00000000
,
00000100
00000001
00001000
00000100
,
00010000
00000000
00001000
01000000
00000000
01000000
00100000
00000000
,
10000000
01000000
00100000
01000000
,
10000000
00000000
01000000
00100000
00000000
00100000
00010000
00000000
,
00100000
00001000
00010000
00000100
,
00000010
00000000
00000100
00000000
00001000
00000001
00000000
00001000
,
00000000
00000010
00000100
00000000
00000110
00000000
00000110
00000000
,
00001001
00000001
00000100
00000010
,
00001000
00000000
00000100
00010000
00000100
00000000
00001000
00000000
,
00010000
00000000
01000000
00000000
00100000
01000000
00100000
01000000
,
00200000
20300000
30010000
00100000
,
01000000
00000000
10000000
00010000
10000000
00000000
01000000
00000000
,
00100000
00000000
00001000
00010000
00001000
00000000
00010000
00000000
,
00000100
00000000
00000010
00000000
00000001
00001000
00000002
00000000
,
00000203
00000310
00000110
00001000
,
00000100
00000000
00010000
00001000
00010000
00000000
01000000
00000000
,
00100000
00010000
00100000
00010000
10000000
00000000
01000000
00000000
,
10000000
00000000
00100000
00000000
01000000
00010000
10000000
00010000
,
02000000
03200000
10300000
01000000
,
00100000
00000000
00001000
00010000
00000010
00000000
00000100
00000000
,
00000001
00000000
00001000
00000100
00000020
00000000
00000100
00000000
,
00000001
00000000
00000130
00000000
00000010
00000001
00000000
00000001
,
00001000
00000000
00000000
00000000
00000010
00000100
00000010
00000000
,
00001000
00000000
00000001
00000100
00000000
00000000
00000010
00000000
,
00001000
00000000
00001000
00000000
00000100
00010000
00000100
00000000
,
00001000
00000000
00000100
00010000
00000000
00000000
00001000
00000000
,
01000000
00000000
01000000
00000000
00010000
00100000
00010000
00000000
,
10000000
00000000
01000000
00100000
00000000
00000000
00010000
00000000
,
00100000
00000000
00100000
00000000
00001000
00010000
00000100
00000000
,
00001000
00000000
00000010
00000000
00000100
00000001
00000000
00001000
,
00000000
00000001
00000010
00000000
00000100
00001000
00000001
00000000
,
00000100
00000000
00000010
00010000
00000000
00000000
00001000
00000000
,
00100000
00000000
00010000
00000000
10000000
01000000
00100000
00000000
,
01000000
00000000
10000000
00010000
00000000
00000000
00100000
00000000
,
00001000
00000000
00010000
00000000
00000100
00001000
00000010
00000000
,
00000100
00000000
00000001
00000010
00000000
00000000
00000100
00000000
,
00010000
00000000
00001000
00000000
00100000
00010000
01000000
00000000
,
00100000
10000000
01000000
11000000
,
01010000
00110000
01000000
10000000
,
00010000
00100000
00001000
00010000
,
00000100
00000010
00000001
00000100
,
00000010
00001000
00000100
00010000
,
00001000
00100000
01000000
10000000
,
00010000
01000000
00100000
10000000
,
00010000
00100000
00001000
00010000
,
00000100
00000000
00000010
00000000
00000001
00001000
00000000
00000001
,
00000000
00000100
00000000
00000010
00010000
00000000
00001000
00000000
,
00100000
00010000
00100000
01000000
,
10000000
01000000
00100000
00001000
,
00010000
00000010
00000100
00000001
,
00001000
00000100
00000010
00000100
,
00001000
00000100
00010000
00001000
,
00100000
00010000
10000000
01000000
,
00100000
00000000
00001000
00000000
00010000
00000100
00000000
00000100
,
00020000
00000000
00002000
00000000
,
00000000
00033000
00000000
00000000
;

//---------------dance-double - ----------------
#NOTEDATA:;
#CHARTNAME:;
#STEPSTYPE:dance-double;
#DESCRIPTION:;
#CHARTSTYLE:;
#DIFFICULTY:Easy;
#METER:4;
#RADARVALUES:0.327445,0.386297,0.071629,0.119381,0.000000,264.000000,9.000000,15.000000,0.000000,0.000000,0.000000,0.000000,0.000000,0.327445,0.386297,0.071629,0.119381,0.000000,264.000000,9.000000,15.000000,0.000000,0.000000,0.000000,0.000000,0.000000;
#CREDIT:DJ OMiY;
#NOTES:
00000000
00000000
00000000
00000000
,
00000000
00000000
00000000
00000000
,
00000000
00000000
00000000
00000000
,
00000000
00000000
00000000
00000000
,
00000000
00000000
00000000
00000000
,
00000000
00000000
00000000
00000000
,
00000000
00000000
00000000
00000000
,
00000000
00000000
00000000
00000000
,
00001000
00100000
00100000
00010000
,
00000000
10000000
01000000
00000000
,
00100000
00001000
00010000
00000100
,
00000000
00000010
00000001
00000000
,
00001000
00000100
00000100
00000010
,
00000000
00000001
00000100
00000000
,
00000010
00001000
00000100
00010000
,
00001000
00000000
00100000
00000000
,
00010000
10000000
00010000
10000000
,
00100000
01000000
00100000
01000000
,
00010000
00100000
00010000
00100000
,
00001000
00010000
00001000
00010000
,
00000100
00000010
00000001
00001000
,
00000010
00000100
00000001
00000010
,
00000100
00010000
00001000
00100000
,
02000000
03000000
01100000
01000000
,
01000000
10000000
00000000
00010000
,
01000000
00010000
00100000
00100000
,
00100000
00001000
00000000
00010000
,
00000100
00000010
00000100
00000100
,
00000100
00001000
00000000
00000001
,
00000100
00000010
00001000
00001000
,
00001000
00000001
00000010
00000002
,
00000000
00001003
00000100
00000100
,
00000100
00010000
00000000
00001000
,
00100000
00010000
10000000
10000000
,
10000000
00100000
00000000
01000000
,
00010000
10000000
01000000
01000000
,
01000000
00100000
00000000
00001000
,
00010000
00000100
00001000
00001000
,
00001000
00000010
00002002
00000000
,
00000000
00003003
00000010
00001000
,
00000100
00010000
00001000
00010000
,
01000000
10000000
00010000
00010000
,
00010000
01000000
00200000
10000000
,
20300000
30020000
00130000
01000000
,
10000000
01000000
00100000
00001000
,
00010000
00000100
00001000
00000010
,
00000100
00000001
00000010
00000100
,
00002000
00003001
00000110
00000001
,
00001000
00000100
00010000
00001000
,
00100000
01000000
10000000
10000000
,
10000000
00010000
01000000
00100000
,
02000000
03020000
00130000
01000000
,
10000000
00010000
00100000
00001000
,
00010000
00000100
00000010
00000100
,
00010000
00002000
00020000
00000000
,
00000000
00033000
00011000
00001000
,
00001000
00100000
00000000
00010000
,
10000000
00010000
01000000
01000000
,
01000000
00100000
00000000
10000000
,
01000000
00100000
00001000
00001000
,
00001000
00010000
00000000
00000100
,
00000010
00000100
00001000
00001000
,
00001000
00000001
00000100
00000020
,
00000000
00000130
00000001
00000001
,
00000001
00001000
00000000
00000100
,
00010000
00001000
00100000
00100000
,
00100000
00010000
00000000
10000000
,
01000000
00100000
01000000
01000000
,
01000000
10000000
00000000
00010000
,
01000000
00100000
10000000
10000000
,
10000000
00010000
10010000
10010000
,
10010000
10010000
00100000
00000000
,
01000000
00000000
00010000
00000000
,
00100000
00001000
00010000
00000000
,
00000100
00000000
00000010
00000000
,
00000001
00001000
00000001
00000000
,
00000100
00000000
00000010
00000000
,
00001000
00000100
00010000
00000000
,
00001000
00000000
00100000
00010000
,
01000000
00100000
10000000
01000000
,
00000000
00100000
00000000
00001000
,
00000000
00010000
00000000
00000100
,
00000000
00000010
00000000
00000001
,
00000000
00001000
00000000
00000010
,
00000000
00000100
00000000
00000001
,
00000000
00001000
00000000
00000100
,
00000000
00000010
00000001
00000000
,
00000010
00000000
00002200
00000000
,
00000000
00003300
00000000
00000000
;
