#TITLE:All Men are Pigs;
#SUBTITLE:;
#ARTIST:Studio Killers;
#TITLETRANSLIT:;
#SUBTITLETRANSLIT:;
#ARTISTTRANSLIT:;
#GENRE:;
#CREDIT:;
#BANNER:All Men are Pigs-bn.png;
#BACKGROUND:All Men are Pigs-bg.png;
#LYRICSPATH:;
#CDTITLE:;
#MUSIC:All Men Are Pigs.mp3;
#OFFSET:-0.400000;
#SAMPLESTART:47.229271;
#SAMPLELENGTH:15.609756;
#SELECTABLE:YES;
#BPMS:0.000000=123.000000
;
#STOPS:192.000000=0.366000,
192.750000=0.610000,
194.000000=0.183000,
194.375000=0.183000,
194.750000=0.610000,
196.000000=0.366000,
196.750000=0.244000,
197.250000=0.183000,
197.625000=0.183000,
198.000000=0.183000,
198.375000=0.183000,
198.750000=0.244000,
199.250000=0.061000,
199.375000=0.061000,
199.500000=0.122000,
199.750000=0.061000,
199.875000=0.061000
;
#BGCHANGES:;
#KEYSOUNDS:;
#ATTACKS:;

//---------------dance-single - ----------------
#NOTES:
     dance-single:
     :
     Hard:
     7:
     0.458095,0.695463,0.226111,0.493333,0.119907,363.000000,33.000000,72.000000,0.000000,0.000000,0.000000,0.458095,0.695463,0.226111,0.493333,0.119907,363.000000,33.000000,72.000000,0.000000,0.000000,0.000000:
0000
0000
0000
0000
,
0000
0000
0000
0000
,
0000
0000
0000
0000
,
0000
0000
0000
0000
,
0001
0000
0101
0000
1000
0100
0010
0001
,
1000
0000
1100
0000
0020
0000
0030
0001
,
0100
0000
1001
0000
0010
1000
0010
0100
,
0001
1010
0200
0300
,
0001
0000
0000
0010
0000
0000
0100
0000
0000
1000
0000
0000
0001
0000
0000
0100
,
0010
0000
1000
0001
0100
0010
2000
0000
,
3100
0000
0000
1000
0000
0000
0100
0000
0000
0010
0000
0000
0001
0000
0000
0010
,
0100
0000
0010
0001
1000
0010
0200
0000
,
0301
0000
0000
0100
0010
0000
1000
0000
0001
0100
0000
0000
0010
0000
0000
0100
,
0001
1000
0100
1000
0010
0100
0002
0000
,
0013
0100
1000
0010
0200
0000
0310
1000
,
0002
0000
0000
0000
1003
0000
0010
0000
0100
0000
0000
0100
0000
0000
0100
0000
,
0001
0000
0000
0001
0000
0000
1000
0000
0000
1000
0000
0000
0010
0000
0000
0010
,
0100
1001
0010
1001
,
0100
0000
0000
0100
0000
0000
0010
0000
0000
0010
0000
0000
1000
0000
0000
0001
,
1000
0101
0001
1100
,
0001
0100
0010
1000
0002
0000
0103
0001
,
0020
0000
0130
1000
0001
0100
2000
0000
,
3100
0001
0010
0100
2000
0000
3010
0100
,
0002
0000
0000
0000
1000
0000
0000
0000
1000
0000
0000
0000
1003
0000
0001
1000
,
0001
0000
0101
1000
0000
0010
1000
0001
,
0101
0000
0000
0110
0000
0000
1010
0000
0000
0000
0001
0000
0100
0000
0100
0000
,
0010
0000
1100
0010
0000
0001
1000
1000
,
1100
0000
0000
0110
0000
0000
0011
0000
0000
0000
0100
0000
0001
0000
0010
0000
,
0001
1000
0100
0010
0001
0000
0100
0010
,
2000
0000
3001
0100
0020
0000
0130
0100
,
0001
0000
1001
0100
0000
0010
0010
1000
,
0002
0000
0103
0020
0000
1030
0100
0010
,
0001
0000
1100
0000
0100
0010
0001
0010
,
0100
0000
1001
0000
0020
0000
0030
0001
,
0100
0000
1010
0000
1000
0001
1000
0010
,
0100
0000
0011
0000
2000
0000
3000
0100
,
1000
0000
0101
0000
0010
0100
0001
0010
,
0100
0000
1001
0000
0200
0000
0300
0001
,
0010
0000
1100
0000
0010
0001
1000
0001
,
0100
0110
0002
0003
,
2000
0000
0000
0200
0000
0000
3300
0000
,
0020
0000
0000
0002
0000
0000
0033
1000
,
0002
0000
0000
0200
0000
0000
0303
0000
,
0020
0000
0000
2000
0000
0000
3030
0000
,
2000
0000
0000
0200
0000
0000
3300
0000
,
0002
0000
0000
0200
0000
0000
0303
0000
,
2000
0000
0000
0002
0000
0000
0000
0000
,
3003
0000
0000
0010
0100
0000
0000
0001
0000
0000
1000
0100
0010
0000
0001
0100
,
0020
0000
0000
0000
0030
0000
2000
0000
0000
0000
3000
0000
0000
0000
0000
0000
0002
0000
0003
0020
0000
0030
2000
0000
3000
0000
0000
0000
0000
0000
0000
0000
,
0002
0000
0000
0000
0003
0000
0200
0000
0300
0000
0020
0000
0030
2000
0000
3000
0200
0000
0300
0020
0000
0030
0002
0000
0003
0000
1000
0001
1000
0000
0001
1000
,
0001
0100
0010
1000
0001
0000
0100
0010
,
2000
0000
3100
0010
0002
0000
0103
0001
,
0101
0000
1000
1100
0000
0010
0001
1000
,
0110
0000
0001
1001
0000
0010
1000
0100
,
0020
0000
0032
0000
1003
0010
0100
0001
,
2000
0000
3200
0000
0310
0100
1000
0001
,
0200
0000
0320
0000
1030
0001
0100
0001
,
2000
0000
3020
0000
0130
0001
0010
0100
,
2000
0000
3200
0000
0310
0100
0010
0001
,
2000
0000
3002
0000
0103
0010
0100
0001
,
0200
0000
0320
0000
0130
0001
1000
0100
,
0020
0000
0230
0000
1300
0001
0100
0001
,
1000
0100
0010
0001
0100
0000
0010
1000
,
0002
0000
0103
0001
2000
0000
3010
0010
,
0110
0000
1000
1001
0000
0010
1000
0001
,
0011
0000
1000
1010
0000
0100
0001
1000
,
0020
0000
0100
0000
0130
0010
0100
0010
,
2000
0000
0001
0000
0002
0000
3003
0001
,
0020
0000
0100
0000
0130
0010
0100
0010
,
0002
1000
2000
3003
,
0010
0000
0000
0000
;

//---------------dance-single - ----------------
#NOTES:
     dance-single:
     :
     Medium:
     5:
     0.357275,0.359722,0.137037,0.315185,0.051389,299.000000,20.000000,46.000000,0.000000,0.000000,0.000000,0.357275,0.359722,0.137037,0.315185,0.051389,299.000000,20.000000,46.000000,0.000000,0.000000,0.000000:
0000
0000
0000
0000
,
0000
0000
0000
0000
,
0000
0000
0000
0000
,
0000
0000
0000
0000
,
0001
0000
1001
0000
0100
0010
0100
0010
,
2000
3002
0203
0300
,
0010
0000
1001
0000
0010
1000
0010
1000
,
0002
0023
2030
3000
,
0010
0000
0000
0001
0000
0000
0010
0000
0000
0001
0000
0000
1000
0000
0000
0000
,
0010
0000
0100
0000
0001
0010
0100
0000
,
1000
0000
0000
0100
0000
0000
1000
0000
0000
0100
0000
0000
0010
0000
0000
0000
,
0001
0000
0100
0001
1000
0001
0100
0000
,
0010
0000
0000
1000
0000
0000
0001
0000
0000
1000
0000
0000
0001
0000
0000
0000
,
0100
0000
0010
0000
1000
0100
0010
0000
,
0100
0000
1000
0100
0001
0000
0001
0100
,
1000
0001
0202
0303
,
0010
1000
0001
0100
,
0001
0010
0200
0300
,
1000
0010
0100
0001
,
1000
0100
0020
0030
,
0001
0000
0001
0010
1000
0000
1000
0010
,
0001
0000
1000
0000
0010
0100
0010
0000
,
1000
0000
0001
0010
1000
0000
0001
0100
,
1000
0000
0001
0000
0100
0001
0100
0000
,
0110
0000
0000
2020
0000
3030
1000
0001
,
1000
0000
0000
1000
0000
0000
0100
0000
0000
0000
0000
0000
0010
0000
0000
0000
,
0011
0000
0000
2200
0000
3300
0100
0010
,
0001
0000
0000
0001
0000
0000
0001
0000
0000
0000
0000
0000
0100
0000
0000
0000
,
0020
0000
2030
0000
3002
0000
0013
0100
,
1000
0000
1000
0100
0010
0000
0001
1000
,
0001
0000
0000
2002
0000
3003
0010
0100
,
0010
0000
0000
0110
0000
1000
0100
0010
,
0001
0000
0100
0000
0010
0000
1000
0001
,
1000
0000
0100
0000
0010
0001
0010
0100
,
1000
0000
0001
0000
0100
0000
0010
0100
,
1000
0000
0100
0000
0001
1000
0100
0010
,
0001
0000
0100
0000
0010
1000
0100
0010
,
0001
0000
0100
0000
0010
1000
0100
0010
,
0001
0000
0100
0000
0010
1000
0100
0010
,
0001
0100
0001
1000
,
0202
0000
0000
0303
0000
0000
0000
0000
,
2200
0000
0000
3300
0000
0000
0010
0000
,
0220
0000
0000
0000
,
0330
0000
0000
0000
,
0022
0000
0000
0033
0000
0000
0000
0000
,
2200
0000
0000
3300
0000
0000
0010
0000
,
2002
0000
0000
0000
,
3003
0000
0000
0000
0100
0000
0000
0010
0000
0000
0100
0000
0001
0000
0100
0000
,
0010
0000
0000
0010
0000
0000
0000
0000
2000
0000
0000
3001
0000
0000
0000
0000
,
1002
0000
0000
0103
0000
0000
0000
0000
0020
0000
0000
1030
0000
0001
0010
0100
,
2000
0000
3200
0000
0320
0000
0031
0010
,
0100
0000
0100
0010
0001
0000
1000
0001
,
0100
0000
0000
0202
0000
0303
0001
1000
,
0100
0000
0000
1100
0000
1000
0100
0010
,
0001
0000
0100
0000
0010
0000
1000
0001
,
0100
0000
0001
0000
1000
0001
0010
0100
,
1000
0000
0010
0000
0100
0000
0001
1000
,
0010
0000
0100
0000
0001
1000
0100
0010
,
0001
0000
1000
0000
0010
1000
0100
0010
,
0001
0000
1000
0000
0010
1000
0100
0010
,
0001
0000
1000
0000
0010
1000
0100
0010
,
0001
0000
1000
0000
0010
0100
0001
0010
,
0200
0000
2300
0000
3002
0000
1003
0100
,
0001
0000
0001
0100
1000
0000
0010
0100
,
0001
0000
0000
0202
0000
0303
0001
1000
,
0010
0000
0000
2020
0000
3030
0000
1000
,
0001
0100
0010
1000
,
0001
1000
0100
0010
,
0001
1000
0010
0100
,
0001
1000
0100
0010
,
0100
0000
0000
0000
;

//---------------dance-single - ----------------
#NOTES:
     dance-single:
     :
     Easy:
     3:
     0.236878,0.383704,0.150741,0.232963,0.000000,186.000000,22.000000,34.000000,0.000000,0.000000,0.000000,0.236878,0.383704,0.150741,0.232963,0.000000,186.000000,22.000000,34.000000,0.000000,0.000000,0.000000:
0000
0000
0000
0000
,
0000
0000
0000
0000
,
0000
0000
0000
0000
,
0000
0000
0000
0000
,
0000
0101
0000
0110
,
0000
1010
0000
1100
,
0000
0110
0000
0011
,
0000
2002
0000
3003
,
0010
0100
0001
1000
,
0000
0100
0100
0100
,
0010
0001
1000
0100
,
0000
0010
0010
0010
,
0001
1000
0001
1000
,
0000
0100
0100
0100
,
0010
0100
1000
0000
,
0001
0010
0200
0300
,
0010
0001
1000
0000
,
0010
1000
0100
0000
,
1000
0100
0010
0000
,
0100
0010
0001
0000
,
0100
0001
0001
1000
,
1000
0010
0010
0010
,
0000
0100
0100
0001
,
0001
1000
1000
1000
,
2002
0000
0000
3003
0000
0000
0010
0000
,
0202
0000
0000
0303
0000
0000
0010
0000
,
0022
0000
0000
0033
0000
0000
1000
0000
,
2200
0000
0000
3300
0000
0000
0010
0000
,
0001
0100
0010
0000
,
1000
1000
1000
0110
,
0202
0000
0000
0303
0000
0000
1000
0000
,
2200
0000
0000
3300
0000
0000
0010
0000
,
0001
0100
0010
0000
,
1000
0100
0010
0000
,
0001
0010
1000
0000
,
1000
0010
0001
1000
,
0001
0100
1000
0000
,
1000
0100
0001
0000
,
1000
0100
0001
0000
,
0001
0100
1000
0000
,
0020
0000
0000
0030
0000
0000
0100
0000
,
0002
0000
0000
0003
0000
0000
0010
0000
,
0200
0000
0000
0300
0000
0000
1000
0000
,
0002
0000
0000
0003
0000
0000
0000
0000
,
2001
0000
0000
3000
0000
0000
0010
0000
,
0200
0000
0000
0300
0000
0000
0001
0000
,
0020
0000
0000
0030
0000
0000
0100
0000
,
1000
0010
0001
0100
,
2002
0000
0000
3003
0000
0000
0000
0000
0202
0000
0000
0303
0000
0000
0000
0000
,
2200
0000
0000
3300
0000
0000
0000
0000
0202
0000
0000
0303
0000
0000
0000
0000
,
1001
0100
0001
0010
,
0100
1000
0001
0110
,
0000
1000
0000
0001
,
0200
0000
0020
0330
,
0001
0001
0001
0100
,
1000
1000
1000
0000
,
1000
1000
1000
0010
,
0001
0001
0001
0000
,
1000
1000
1000
0100
,
0001
0001
0001
0000
,
0001
0001
0001
0010
,
1000
1000
1000
0000
,
0001
0100
1000
0000
,
1000
0100
0001
1001
,
0000
0010
0000
1000
,
0200
0000
0020
0330
,
0001
0000
0010
0000
,
1000
0000
0010
0000
,
0001
0000
0100
0000
,
1000
0000
0100
0000
,
0001
0000
0000
0000
;

//---------------dance-single - ----------------
#NOTES:
     dance-single:
     :
     Beginner:
     1:
     0.129206,0.191852,0.034259,0.164444,0.000000,103.000000,5.000000,24.000000,0.000000,0.000000,0.000000,0.129206,0.191852,0.034259,0.164444,0.000000,103.000000,5.000000,24.000000,0.000000,0.000000,0.000000:
0000
0000
0000
0000
,
0000
0000
0000
0000
,
0000
0000
0000
0000
,
0000
0000
0000
0000
,
0010
0000
1000
0000
,
0001
0000
0100
0000
,
0001
0000
0010
0000
,
0200
0000
0300
0000
,
1000
0000
0000
0010
,
0010
0000
0000
0000
,
0100
0000
0000
0001
,
0001
0000
0000
0000
,
0001
0000
0000
1000
,
1000
0000
0000
0000
,
0100
0000
0000
0010
,
0010
0000
0000
0000
,
0200
0000
0300
0000
,
2000
0000
3000
0000
,
0002
0000
0003
0000
,
0200
0000
0300
0000
,
0000
0010
0000
0010
,
0000
0010
0020
0030
,
0000
0100
0000
0100
,
0000
0100
0100
0000
,
2002
0000
0000
3003
0000
0000
0000
0000
,
0220
0000
0000
0330
0000
0000
0000
0000
,
2002
0000
0000
3003
0000
0000
0000
0000
,
0220
0000
0000
0330
0000
0000
0000
0000
,
0001
0001
0001
0000
,
1000
1000
1000
0000
,
0020
0000
0000
0030
0000
0000
0000
0000
,
0200
0000
0000
0300
0000
0000
0000
0000
,
0001
0000
0001
0000
,
1000
0000
1000
0000
,
0010
0000
0100
0000
,
0001
0000
1000
0000
,
0100
0000
0100
0000
,
0010
0000
0010
0000
,
0001
0000
1000
0000
,
0010
0000
0100
0000
,
0002
0000
0000
0000
,
0003
0000
0000
0000
,
2000
0000
0000
0000
,
3000
0000
0000
0000
,
0200
0000
0000
0000
,
0300
0000
0000
0000
,
0020
0000
0000
0000
,
0030
0000
0000
0000
,
0100
0000
1000
0000
,
0001
0000
0010
0000
,
1001
0000
0010
0010
,
0010
0000
1000
0000
,
0002
0000
0003
0000
,
0200
0000
0300
0000
,
0010
0000
0010
0000
,
0100
0000
0100
0000
,
0001
0000
1000
0000
,
0010
0000
0100
0000
,
0001
0000
0001
0000
,
1000
0000
1000
0000
,
0010
0000
0100
0000
,
0001
0000
1000
0000
,
0100
0100
0100
0000
,
0010
0010
0010
0000
,
0200
0000
0300
0000
,
2000
0000
3000
0000
,
0001
0000
0000
0000
,
0100
0000
0000
0000
,
0010
0000
0000
0000
,
1000
0000
0000
0000
,
0100
0000
0000
0000
;

//---------------dance-double - ----------------
#NOTES:
     dance-double:
     :
     Hard:
     8:
     0.486481,0.671481,0.294630,0.397407,0.102778,396.000000,43.000000,58.000000,0.000000,0.000000,0.000000,0.486481,0.671481,0.294630,0.397407,0.102778,396.000000,43.000000,58.000000,0.000000,0.000000,0.000000:
// measure 0
00000000
00000000
00000000
00000000
,  // measure 1
00000000
00000000
00000000
00000000
,  // measure 2
00000000
00000000
00000000
00000000
,  // measure 3
00000000
00000000
00000000
00000000
00000000
00000000
00000000
10000000
,  // measure 4
01000000
00000000
00110000
00000000
01000000
10000000
01000000
00100000
,  // measure 5
00001000
00000000
00011000
00000000
00000200
00000000
00000300
00000010
,  // measure 6
00000001
00000000
00001100
00000000
00000001
00000010
00001000
00000010
,  // measure 7
00000001
00001100
00020000
00030000
,  // measure 8
00001000
00000000
00000000
00001000
00100000
00000000
00010000
00000000
00000000
10000000
01000000
00000000
00100000
00000000
00000000
00000000
,  // measure 9
00010000
00000000
10000000
00100000
00010000
00100000
01000000
00000000
,  // measure 10
00001000
00000000
00000000
00001000
00010000
00000000
00001000
00000000
00000000
00000100
00000010
00000000
00000100
00000000
00000000
00000000
,  // measure 11
00000001
00000000
00000010
00001000
00000010
00000001
00000020
00000000
,  // measure 12
00000130
00000000
00000000
00000100
00001000
00000000
00000100
00000000
00000000
00010000
00001000
00000000
01000000
00000000
00000000
00000000
,  // measure 13
00100000
10000000
00010000
00100000
01000000
10000000
00010000
00000000
,  // measure 14
01000000
00100000
10000000
00100000
02000000
00000000
03010000
00100000
,  // measure 15
00002000
00000000
00000000
00000000
00013000
00000000
00000100
00001000
00000100
00000000
00000000
00000100
00000000
00000000
00000100
00000000
,  // measure 16
00000010
00000001
00001000
00000001
00000100
00000010
00001000
00000100
,  // measure 17
00000010
00001100
00010000
11000000
,  // measure 18
00010000
01000000
00100000
01000000
00010000
10000000
00100000
10000000
,  // measure 19
01000000
00110000
00001000
00000011
,  // measure 20
00000001
00000100
00001000
00000100
00001000
00010000
00001000
00010000
,  // measure 21
00200000
00000000
10300000
01000000
00010000
00001000
00000020
00000000
,  // measure 22
00000031
00001000
00000100
00001000
00010000
00001000
00010000
00100000
,  // measure 23
02000000
00000000
00000000
00000000
13000000
00000000
01000000
00000000
00010000
00000000
00001000
00000000
00000100
00000000
00000001
00000100
,  // measure 24
00000001
00000000
00001100
00001000
00000000
00000100
00010000
00001000
,  // measure 25
00100000
00000000
00000000
00110000
00000000
00000000
10000000
00000000
00000000
00000000
00010000
00000000
01000000
00000000
00100000
00000000
,  // measure 26
11000000
00000000
00010000
01010000
00100000
00001000
00010000
00000100
,  // measure 27
00000010
00000000
00000010
00000001
00000000
00000001
00001000
00000000
00001000
00000100
00000000
00000100
00000010
00000000
00000100
00000000
,  // measure 28
00001000
00000100
00010000
00001000
00100000
00000000
00010000
01000000
,  // measure 29
10000000
00000000
10000000
01000000
00010000
00000000
10000000
01000000
,  // measure 30
00110000
00000000
00001000
00000011
00000000
00000001
00000100
00000010
,  // measure 31
00001010
00000000
00010000
20200000
00000000
30300000
00000000
10000000
,  // measure 32
02000000
00000000
03020000
00000000
01030000
10000000
01000000
00010000
,  // measure 33
00002000
00000000
00003200
00000000
00000302
00001000
00001003
00000001
,  // measure 34
00000020
00000000
00002030
00000000
00003010
00000001
00000100
00001000
,  // measure 35
00020000
00000000
00230000
00000000
20300000
00010000
30010000
10000000
,  // measure 36
00100000
00000000
00110000
00000000
00100000
10000000
01000000
00010000
,  // measure 37
00001000
00000000
00011000
00000000
00010000
00001000
00000100
00000001
,  // measure 38
00000010
00000000
00001010
00000000
00000010
00000001
00000100
00001000
,  // measure 39
00010000
00000000
00011000
00000000
00010000
00001000
00100000
01000000
,  // measure 40
20000000
00000000
00000000
32000000
00000000
00000000
03020000
00000000
,  // measure 41
00032000
00000000
00000000
00003020
00000000
00000000
00001030
00010000
,  // measure 42
00200000
00000000
00000000
00320000
00000000
00000000
00031000
00000100
,  // measure 43
00000000
00002000
00000000
00020000
00000000
00003000
00030000
00000100
,  // measure 44
00000002
00000000
00000000
00000203
00000000
00000000
00010300
00001000
,  // measure 45
02000000
00000000
00000000
23000000
00000000
00000000
31000000
00001000
,  // measure 46
00010000
00000000
00000000
00000100
00000000
00000000
00000010
00000001
,  // measure 47
00000000
00000000
00000100
00000010
00000100
00000000
00000000
00000010
00000000
00000000
00001000
00000100
00000010
00000000
00000100
00000010
,  // measure 48
00000001
00000000
00000000
00000000
00000000
00000000
00000101
00000000
00000000
00000000
00000000
00000000
00000000
00000000
00000000
00000000
00001010
00000000
00000000
00011000
00000000
00000000
00110000
00000000
00000000
00000000
00000000
00000000
00000000
00000000
00000000
00000000
,  // measure 49
11000000
00000000
00000000
00000000
00000000
00000000
10010000
00000000
00000000
00000000
01010000
00000000
00000000
00011000
00000000
00000000
00001100
00000000
00000000
00011000
00000000
00000000
00110000
00000000
00000000
00000000
00001000
00100000
01000000
00000000
00100000
01000000
,  // measure 50
10000000
01000000
00100000
00010000
20000000
00000000
30100000
00010000
,  // measure 51
00002000
00000000
00103000
00010000
00002000
00000000
00003100
00000010
,  // measure 52
00000001
00000000
00000010
00001100
00000000
00001000
00000100
00010000
,  // measure 53
00001000
00000000
00010000
22000000
00000000
00000000
33000000
10000000
,  // measure 54
00200000
00000000
00320000
00000000
00130000
10000000
01000000
00010000
,  // measure 55
00002000
00000000
00003020
00000000
00000032
00001000
00001003
00000001
,  // measure 56
00000020
00000000
00002030
00000000
00003010
00000001
00000100
00001000
,  // measure 57
00020000
00000000
01030000
00000000
20000000
00010000
30010000
10000000
,  // measure 58
01000000
00000000
01010000
00000000
01000000
10000000
00100000
00010000
,  // measure 59
00001000
00000000
00011000
00000000
00010000
00001000
00000100
00000001
,  // measure 60
00000010
00000000
00001010
00000000
00000010
00000001
00000100
00001000
,  // measure 61
00010000
00000000
00011000
00000000
00001000
00010000
00100000
10000000
,  // measure 62
01100000
10000000
00100000
01000000
00020000
00000000
10030000
01000000
,  // measure 63
00020000
00000000
10030000
00100000
00020000
00000000
01030000
00001000
,  // measure 64
00011000
00000000
00010000
00010100
00000000
00001000
00000100
00000010
,  // measure 65
00000011
00000000
00000001
00000101
00000000
00000100
00000010
00001000
,  // measure 66
00000100
00000000
00000100
00000000
00000100
00000010
00000100
00000010
,  // measure 67
00000002
00000000
00000203
00000000
00002300
00000000
00003000
00001000
,  // measure 68
00020000
00000000
00230000
00000000
01300000
10000000
01000000
10000000
,  // measure 69
02000000
03020000
20030000
30000000
,  // measure 70
01010000
00000000
00000000
00000000
;

//---------------dance-double - ----------------
#NOTES:
     dance-double:
     :
     Medium:
     5:
     0.326931,0.383704,0.109630,0.198704,0.044537,289.000000,16.000000,29.000000,0.000000,0.000000,0.000000,0.326931,0.383704,0.109630,0.198704,0.044537,289.000000,16.000000,29.000000,0.000000,0.000000,0.000000:
// measure 0
00000000
00000000
00000000
00000000
,  // measure 1
00000000
00000000
00000000
00000000
,  // measure 2
00000000
00000000
00000000
00000000
,  // measure 3
00000000
00000000
00000000
00000000
,  // measure 4
00000010
00000000
00000001
00000000
00000010
00000001
00000010
00000001
,  // measure 5
00000200
00002300
00023000
00030000
,  // measure 6
00001000
00000000
00100000
00000000
00001000
00100000
00001000
00100000
,  // measure 7
00020000
20030000
32000000
03000000
,  // measure 8
00100000
00000000
00000000
00100000
00000000
00000000
00010000
00000000
00000000
00010000
00000000
00000000
20000000
00000000
00000000
30000000
,  // measure 9
00000000
00000000
01000000
00100000
01000000
00100000
01000000
00000000
,  // measure 10
00100000
00000000
00000000
00100000
00000000
00000000
00001000
00000000
00000000
00001000
00000000
00000000
00020000
00000000
00000000
00030000
,  // measure 11
00000000
00000000
00000100
00001000
00000100
00001000
00000100
00000000
,  // measure 12
00001000
00000000
00000000
00001000
00000000
00000000
00000001
00000000
00000000
00000001
00000000
00000000
00000200
00000000
00000000
00000300
,  // measure 13
00000000
00000000
00000010
00001000
00000010
00001000
00000010
00000000
,  // measure 14
00000100
00001000
00010000
00001000
,  // measure 15
00100000
00000000
00010000
10000000
02000000
00000000
03000000
00000000
,  // measure 16
00100000
00101000
00010000
00010100
,  // measure 17
00000010
00000000
00000100
00001000
00000001
00000100
00000001
00000000
,  // measure 18
00000010
00001100
00010000
00011000
,  // measure 19
00100000
00000000
00010000
10000000
01000000
00100000
00010000
00000000
,  // measure 20
01000000
00000000
00100000
10000000
00010000
00000000
01000000
00010000
,  // measure 21
10000000
00000000
01000000
00000000
00100000
00001000
00010000
00000000
,  // measure 22
00000100
00000000
00001000
00000010
00000100
00000000
00000001
00000010
,  // measure 23
00000100
00000000
00000010
00000000
00000001
00001000
00000100
00000000
,  // measure 24
00000110
00000000
00000000
00001001
00000000
00000000
00000010
00000100
,  // measure 25
00000010
00000000
00000000
00000010
00000000
00000000
00000010
00000000
00000000
00000000
00000000
00000000
00001000
00000000
00000100
00000000
,  // measure 26
00001000
00000000
00000000
00010100
00000000
00000000
00010000
00001000
,  // measure 27
01000000
00000000
00000000
01000000
00000000
00000000
01000000
00000000
00000000
01000000
00000000
00000000
01000000
00000000
00000000
00000000
,  // measure 28
00010000
00100000
00010000
00100000
00010000
00000000
10000000
01000000
,  // measure 29
20000000
00000000
30010000
01000000
00020000
00000000
00130000
01000000
,  // measure 30
00100000
00000000
00000000
00101000
00000000
00000000
00010000
00000000
,  // measure 31
00000100
00000000
00000000
00001100
00000000
00000010
00000001
00000010
,  // measure 32
00000001
00000100
00000010
00001000
,  // measure 33
00000100
00000000
00010000
00000000
00001000
00010000
00001000
00010000
,  // measure 34
00001000
00100000
00010000
10000000
,  // measure 35
01000000
00000000
00100000
00000000
01000000
10000000
01000000
10000000
,  // measure 36
01000000
00000000
00100000
00000000
00001000
00000000
00010000
00001000
,  // measure 37
00010000
00000000
00000100
00000000
00000010
00000000
00000001
00001000
,  // measure 38
00000001
00000000
00000100
00000000
00000010
00000000
00001000
00000100
,  // measure 39
00001000
00000000
00000010
00000000
00010000
00001000
00010000
00001000
,  // measure 40
00020000
00000000
00000000
00000000
,  // measure 41
00032000
00000000
00000000
00100000
,  // measure 42
00203000
00000000
00000000
00000000
,  // measure 43
02000000
00000000
00000000
03300000
,  // measure 44
20010000
00000000
00000000
00000000
,  // measure 45
30200000
00000000
00000000
00320000
,  // measure 46
00032000
00000000
00000000
00003010
,  // measure 47
00000002
00000000
00000000
00001003
,  // measure 48
00002002
00000000
00000000
00003003
00000000
00000000
00000000
00000000
00002000
00000000
00000000
00013000
00000000
00000000
00000000
00000000
,  // measure 49
20020000
00000000
00000000
30030000
00000000
00000000
00000000
00000000
00010000
00000000
00000000
00001000
00000000
00010000
00001000
00010000
,  // measure 50
00001000
00000000
00000100
00000000
00000100
00000000
00000010
00000001
,  // measure 51
00000020
00000000
00000130
00001000
00000200
00000000
00010300
00001000
,  // measure 52
00010000
00000000
00000000
00110000
00000000
00000000
00100000
00000000
,  // measure 53
10000000
00000000
00000000
10100000
00000000
10000000
00010000
10000000
,  // measure 54
00010000
00000000
00100000
00000000
00001000
00000000
00010000
00000100
,  // measure 55
00010000
00000000
00001000
00000000
00000100
00000000
00000000
00000010
,  // measure 56
00000100
00000000
00000001
00000000
00001000
00000000
00000100
00000010
,  // measure 57
00000100
00000000
00001000
00000000
00000100
00000000
00000000
00010000
,  // measure 58
00001000
00000000
00100000
00000000
00010000
00000000
01000000
00100000
,  // measure 59
10000000
00000000
01000000
00000000
00100000
00000000
00000000
00001000
,  // measure 60
00010000
00000000
00000100
00000000
00000010
00000000
00000100
00001000
,  // measure 61
00000001
00000000
00000100
00000000
00000010
00000100
00000010
00000100
,  // measure 62
00000001
00000000
00000001
00000000
00001000
00000000
00000100
00001000
,  // measure 63
00000010
00000000
00000010
00001000
00000100
00000000
00010000
00001000
,  // measure 64
00010000
00000000
00000000
00011000
00000000
00000000
00001000
00000000
,  // measure 65
00000100
00000000
00000000
00000101
00000000
00000000
00000000
00000001
,  // measure 66
00000010
00000100
00001000
00010000
,  // measure 67
00100000
00000000
01000000
00000000
10000000
00000000
00000000
10000000
,  // measure 68
01000000
00100000
00010000
00001000
,  // measure 69
00000100
00000010
00000002
00000000
,  // measure 70
00000013
00000000
00000000
00000000
;

//---------------dance-double - ----------------
#NOTES:
     dance-double:
     :
     Easy:
     3:
     0.196746,0.383704,0.061667,0.198704,0.000000,163.000000,9.000000,29.000000,0.000000,0.000000,0.000000,0.196746,0.383704,0.061667,0.198704,0.000000,163.000000,9.000000,29.000000,0.000000,0.000000,0.000000:
// measure 0
00000000
00000000
00000000
00000000
,  // measure 1
00000000
00000000
00000000
00000000
,  // measure 2
00000000
00000000
00000000
00000000
,  // measure 3
00000000
00000000
00000000
00000000
,  // measure 4
10000000
01000000
00000000
01000000
,  // measure 5
00010000
00001000
00000000
00010000
,  // measure 6
00001000
00000100
00000000
00000100
,  // measure 7
00000001
00000020
00000030
00000000
,  // measure 8
00000100
00000000
00001000
00000100
,  // measure 9
00010000
00000000
00010000
00000000
,  // measure 10
00001000
00000000
00100000
00010000
,  // measure 11
10000000
00000000
01000000
00000000
,  // measure 12
10000000
00000000
01000000
00100000
,  // measure 13
00010000
00000000
00100000
00000000
,  // measure 14
00001000
00000000
00010000
00000000
,  // measure 15
00022000
00000000
00033000
00000000
,  // measure 16
00010000
00000000
00000100
00000000
,  // measure 17
00000010
00000001
00001000
00000000
,  // measure 18
00000010
00000000
00000100
00000000
,  // measure 19
00000001
00000010
00000100
00000000
,  // measure 20
00001000
00000000
00001000
00000000
,  // measure 21
00000100
00000000
00000100
00000000
,  // measure 22
00010000
00000000
00001000
00000000
,  // measure 23
00100000
00000000
00010000
10000000
,  // measure 24
02000000
00000000
00000000
03000000
00000000
00000000
00100000
00000000
,  // measure 25
00220000
00000000
00000000
00330000
00000000
00000000
00001000
00000000
,  // measure 26
00020000
00000000
00000000
00030000
00000000
00000000
00000100
00000000
,  // measure 27
00002200
00000000
00000000
00003300
00000000
00000000
00000010
00000000
,  // measure 28
00000001
00000001
00000001
00001000
,  // measure 29
00000200
00000300
00001000
00000100
,  // measure 30
00020000
00000000
00000000
00030000
00000000
00000000
00001000
00000000
,  // measure 31
00200000
00000000
00000000
00300000
00000000
00000000
00010000
00000000
,  // measure 32
10000000
00000000
01000000
00100000
,  // measure 33
01000000
01000000
01000000
00000000
,  // measure 34
10000000
00000000
00010000
00100000
,  // measure 35
00010000
00010000
00010000
00000000
,  // measure 36
00100000
00000000
00001000
00010000
,  // measure 37
00001000
00001000
00001000
00000000
,  // measure 38
00000100
00000000
00000001
00000100
,  // measure 39
00000001
00000001
00000001
00000000
,  // measure 40
00000020
00000000
00000000
00000030
00000000
00000000
00000000
00000000
,  // measure 41
00000200
00000000
00000000
00000300
00000000
00000000
00000000
00000000
,  // measure 42
00020000
00000000
00000000
00030000
00000000
00000000
00000000
00000000
,  // measure 43
00002000
00000000
00000000
00003000
00000000
00000000
00000000
00000000
,  // measure 44
00200000
00000000
00000000
00300000
00000000
00000000
00000000
00000000
,  // measure 45
02000000
00000000
00000000
03000000
00000000
00000000
00000000
00000000
,  // measure 46
20000000
00000000
00000000
30000000
00000000
00000000
00000000
00000000
,  // measure 47
00020000
00000000
00000000
00030000
00000000
00000000
01000000
00000000
,  // measure 48
02200000
00000000
00000000
03300000
00000000
00000000
00000000
00000000
00022000
00000000
00000000
00033000
00000000
00000000
00000000
00000000
,  // measure 49
00000220
00000000
00000000
00000330
00000000
00000000
00000000
00000000
00022000
00000000
00000000
00000000
00000000
00000000
00033000
00000000
,  // measure 50
00011000
00001000
00001000
00100000
,  // measure 51
00010000
00000000
10000000
01000000
,  // measure 52
00100000
00000000
00100000
00001000
,  // measure 53
00010000
00000000
00010000
00000100
,  // measure 54
00000010
00000000
00000001
00001000
,  // measure 55
00000100
00010000
00001000
00000000
,  // measure 56
00100000
00000000
00010000
10000000
,  // measure 57
01000000
00100000
01000000
00000000
,  // measure 58
10000000
00000000
00100000
01000000
,  // measure 59
00001000
00010000
00001000
00000000
,  // measure 60
00010000
00000000
00000100
00000010
,  // measure 61
00000100
00001000
00000001
00000000
,  // measure 62
00000110
00000000
00000001
00000000
,  // measure 63
00001000
00000100
00000010
00000100
,  // measure 64
00001000
00000000
00001000
00000000
,  // measure 65
00000100
00010000
00002000
00000000
,  // measure 66
00103000
00000000
00100000
00000000
,  // measure 67
00010000
10000000
00010000
00000000
,  // measure 68
01000000
00000000
01000000
00000000
,  // measure 69
00001000
00010000
00001000
00000000
,  // measure 70
00000100
00000000
00000000
00000000
;
