#VERSION:0.81;
#TITLE:reunion;
#SUBTITLE:;
#ARTIST:Tatsh;
#TITLETRANSLIT:;
#SUBTITLETRANSLIT:;
#ARTISTTRANSLIT:;
#GENRE:Cyber Waltz;
#ORIGIN:;
#CREDIT:;
#BANNER:reunion-bn.png;
#BACKGROUND:reunion-bg.png;
#PREVIEWVID:;
#JACKET:reunion-jk.png;
#CDIMAGE:;
#DISCIMAGE:;
#LYRICSPATH:;
#CDTITLE:;
#MUSIC:reunion.ogg;
#OFFSET:-0.381000;
#SAMPLESTART:34.298042;
#SAMPLELENGTH:15.652176;
#SELECTABLE:YES;
#BPMS:0.000=184.000;
#STOPS:;
#DELAYS:;
#WARPS:;
#TIMESIGNATURES:0.000=4=4,
104.000=3=4,
152.000=4=4,
280.000=3=4,
328.000=2=4,
330.000=4=4;
#TICKCOUNTS:0.000=4;
#COMBOS:0.000=1;
#SPEEDS:0.000=1.000=0.000=0;
#SCROLLS:0.000=1.000;
#FAKES:;
#LABELS:0.000=Song Start;
#BGCHANGES:;
#KEYSOUNDS:;
#ATTACKS:
;

//---------------dance-single - ----------------
#NOTEDATA:;
#CHARTNAME:;
#STEPSTYPE:dance-single;
#DESCRIPTION:;
#CHARTSTYLE:;
#DIFFICULTY:Hard;
#METER:8;
#RADARVALUES:0.693928,0.589256,0.782415,0.114102,0.004075,486.000000,96.000000,14.000000,0.000000,0.000000,0.000000,0.000000,0.000000,0.693928,0.589256,0.782415,0.114102,0.004075,486.000000,96.000000,14.000000,0.000000,0.000000,0.000000,0.000000,0.000000;
#CREDIT:DJ OMiY;
#NOTES:
// measure 0
0000
0000
0000
0000
,  // measure 1
0000
0000
0000
0000
,  // measure 2
0010
0100
0001
1000
,  // measure 3
0100
0010
0001
1000
,  // measure 4
0010
0100
0001
1000
,  // measure 5
0100
0000
0000
0000
0010
0000
0000
0000
0100
0000
0010
0000
0100
0000
0000
0100
,  // measure 6
1000
0001
0100
0010
,  // measure 7
0100
0001
1000
0100
,  // measure 8
0010
0001
0010
0001
1000
0100
0010
0001
,  // measure 9
2000
0000
3000
0000
0010
0100
0010
0100
,  // measure 10
0001
1000
0100
0000
0010
0100
1000
0000
,  // measure 11
0010
0100
0001
0000
1000
0010
0100
0001
,  // measure 12
0010
0100
1000
0000
0010
1000
0100
0000
,  // measure 13
0010
0100
1000
0000
0001
0010
0001
0100
,  // measure 14
0001
0010
0100
0000
1000
0100
0010
0000
,  // measure 15
0100
1000
0001
0000
1000
0010
0001
0010
,  // measure 16
1000
0001
0100
0000
0010
0100
0001
0000
,  // measure 17
0010
0100
1000
0000
0100
0010
0001
1000
,  // measure 18
0001
0100
0010
1000
0001
0010
0001
1000
,  // measure 19
0010
0100
0001
0010
0100
1000
0001
0000
,  // measure 20
0100
0010
0100
0001
1000
0100
0010
0001
,  // measure 21
1000
0010
1000
0001
0010
0100
1000
0000
,  // measure 22
0001
0010
0001
0010
0100
0010
0100
1000
,  // measure 23
0100
1000
0001
0100
0010
1000
0001
0000
,  // measure 24
1000
0010
1000
0010
0100
0010
0100
0001
,  // measure 25
0100
0001
0010
0100
1000
0001
0100
0000
,  // measure 26
0101
0011
0101
1010
,  // measure 27
1100
1010
1001
0110
,  // measure 28
1001
0011
1100
0011
,  // measure 29
1010
0011
1010
0101
,  // measure 30
1100
0101
1010
0110
,  // measure 31
0101
0011
0110
1100
,  // measure 32
1010
1001
1010
0101
,  // measure 33
1001
0101
0011
0110
,  // measure 34
0011
1100
0110
1100
,  // measure 35
0011
1010
0101
1100
,  // measure 36
0101
1010
1001
0110
,  // measure 37
1001
0000
0010
0100
0010
0100
0010
0100
,  // measure 38
0001
0000
0001
0100
0000
0100
0010
0000
,  // measure 39
0010
1000
0000
1000
0100
0010
0001
0000
,  // measure 40
1000
0000
0010
1000
0000
1000
0001
0000
,  // measure 41
0001
0100
0000
0100
0010
1000
0001
0000
,  // measure 42
1000
0000
1000
0100
0000
0100
0001
0000
,  // measure 43
0001
0100
0000
0100
1000
0001
1000
0000
,  // measure 44
0002
0023
0032
0203
,  // measure 45
2300
0000
3100
0001
1000
0000
1000
0001
,  // measure 46
0100
0010
0100
0000
0001
0100
0001
0000
,  // measure 47
1000
0100
0010
0000
0100
0010
0001
0000
,  // measure 48
0100
0010
1000
0000
0010
0100
0001
0000
,  // measure 49
0010
0001
0100
0000
0010
1000
0100
0000
,  // measure 50
1000
0001
0010
0000
0100
0010
0001
0000
,  // measure 51
0100
0010
1000
0000
0001
1000
0010
0000
,  // measure 52
0100
0010
1000
0000
0100
0010
0001
0000
,  // measure 53
2000
0000
0000
0000
3000
0001
1000
0001
,  // measure 54
1000
0010
0100
0001
1000
0010
1000
0001
,  // measure 55
0100
0010
1000
0001
0100
0000
0001
0000
,  // measure 56
0010
0100
0010
0100
1000
0100
1000
0001
,  // measure 57
0100
0001
1000
0100
0010
0000
0001
0000
,  // measure 58
0100
0010
0100
0001
0100
0010
0100
0001
,  // measure 59
1000
0100
1000
0010
0100
0000
0010
0000
,  // measure 60
1000
0100
0010
0001
0010
0100
1000
0001
,  // measure 61
0010
0100
1000
0100
0010
0000
0001
0000
,  // measure 62
0100
0010
1000
0010
0100
0001
1000
0001
,  // measure 63
0010
0001
1000
0100
0010
0000
0001
0000
,  // measure 64
1000
0001
0010
0001
1000
0010
0100
0010
,  // measure 65
1000
0100
0010
0001
1000
0000
0001
0000
,  // measure 66
0100
0001
0010
0100
1000
0100
0010
0001
,  // measure 67
0100
0010
1000
0001
0010
0000
0100
0000
,  // measure 68
1000
0001
1000
0001
0100
0010
0100
0010
,  // measure 69
2000
0000
0001
3001
,  // measure 70
0101
0011
0101
1010
,  // measure 71
1100
1010
1001
0110
,  // measure 72
1001
0011
1100
0011
,  // measure 73
1010
0011
1010
0101
,  // measure 74
1100
0101
1010
0110
,  // measure 75
0101
0011
0110
1100
,  // measure 76
1010
1001
1010
0101
,  // measure 77
1001
0101
0011
0110
,  // measure 78
0011
1100
0110
1100
,  // measure 79
0011
1010
0101
1100
,  // measure 80
0101
1010
1001
0110
,  // measure 81
1001
0000
0001
0010
0100
1000
0001
0010
,  // measure 82
0100
0000
0000
0000
1000
0010
1000
0001
,  // measure 83
0100
0001
1000
0100
1000
0001
0010
0001
,  // measure 84
1000
0000
0010
0000
0100
0010
0100
0001
,  // measure 85
0010
0001
1000
0100
1000
0010
0100
0010
,  // measure 86
1000
0001
1001
0000
,  // measure 87
0000
0202
0000
0303
1001
0000
0000
0000
,  // measure 88
0000
2020
0000
3030
1001
2002
0000
0000
,  // measure 89
0000
0000
0000
0000
,  // measure 90
0000
0000
0000
3003
0000
0000
0000
0000
;

//---------------dance-single - ----------------
#NOTEDATA:;
#CHARTNAME:;
#STEPSTYPE:dance-single;
#DESCRIPTION:;
#CHARTSTYLE:;
#DIFFICULTY:Medium;
#METER:7;
#RADARVALUES:0.527432,0.589256,0.366757,0.203754,0.000000,383.000000,45.000000,25.000000,0.000000,0.000000,0.000000,0.000000,0.000000,0.527432,0.589256,0.366757,0.203754,0.000000,383.000000,45.000000,25.000000,0.000000,0.000000,0.000000,0.000000,0.000000;
#CREDIT:DJ OMiY;
#NOTES:
0000
0000
0000
0000
,
0000
0000
0000
0000
,
1000
0100
0010
0001
,
1000
0100
0010
0001
,
0001
0010
0100
1000
,
0001
0010
0100
1000
,
0010
1000
0001
0100
,
0010
1000
0001
0100
,
0001
0010
0100
0000
0010
0100
1000
0000
,
1001
0000
0000
0000
1000
0100
0010
0001
,
0100
0010
1000
0001
,
0010
0001
1000
0010
,
1000
0010
0100
0001
,
1000
0000
0010
0000
1000
0001
1000
0010
,
0100
0001
0010
1000
,
0010
0001
0100
1000
,
0100
0001
0010
1000
,
0001
0000
0100
0000
1000
0000
0001
1000
,
0001
0010
0100
0000
0010
0100
1000
0000
,
0001
0010
0100
0000
0010
0001
1000
0000
,
1000
0100
0010
0000
0100
0010
0001
0000
,
1000
0100
0010
0000
0001
1000
0001
0000
,
0200
0302
0023
0230
,
0320
0032
2003
3200
,
0302
0203
2300
3002
,
0103
0010
0100
0010
1000
0001
0100
0001
,
0010
0010
0110
1000
,
1000
1100
0001
0001
,
0101
1000
1000
1010
,
0001
0001
0011
0100
,
0100
0110
0001
0001
,
1001
1000
1000
1010
,
0001
0010
0011
1000
,
0010
1010
0100
0010
,
0110
0001
1000
1001
,
0010
0001
1010
0100
,
0001
1100
0010
0100
,
0011
1100
0110
1001
,
0010
0000
0000
1000
0000
0000
0001
0000
,
0000
0010
0000
0000
0001
0000
0001
0000
,
0100
0000
0000
0010
0000
0000
1000
0000
,
0000
0100
0000
0000
0010
0000
0001
0000
,
1000
0000
0000
0101
0000
0000
1000
0000
,
0000
0011
0000
0000
1000
0000
0010
0000
,
0002
0023
2030
3002
,
0023
0230
2300
3001
,
0100
0000
0010
1000
0010
0000
0100
0000
,
0001
1000
0100
0010
,
0001
0000
1000
0001
0100
0000
0010
0000
,
1000
0001
0010
0000
,
0100
0000
1000
0001
1000
0000
0010
0000
,
1000
0100
0010
0001
,
1000
0000
0001
0010
0100
0000
1000
0000
,
2002
0000
3003
0010
,
1000
0010
1000
0000
0001
0100
0001
0000
,
0010
0001
0010
0000
0100
1000
0100
0000
,
1000
0010
1000
0000
0001
0100
0001
0000
,
1000
0001
1000
0000
0010
0100
0010
0000
,
1000
0100
1000
0000
0001
0010
0001
0000
,
0100
0010
0100
0000
0001
0100
0001
0000
,
1000
0010
1000
0000
0001
0010
0001
0000
,
1000
0100
0010
0000
0100
0010
0001
0000
,
0100
0001
1000
0000
0010
1000
0100
0000
,
0010
0100
1000
0000
0001
0100
0010
0000
,
1000
0100
0010
0000
0100
1000
0010
0000
,
0100
0001
0010
0000
0100
0010
0100
0000
,
0010
0001
1000
0000
0001
0100
0010
0000
,
0100
0001
0010
0000
0100
1000
0010
0000
,
0100
0001
1000
0000
0010
0100
0001
0000
,
0100
0001
1000
0001
0100
0000
1001
0000
,
0010
0010
0110
1000
,
1000
1100
0001
0001
,
0101
1000
1000
1010
,
0001
0001
0011
0100
,
0100
0110
0001
0001
,
1001
1000
1000
1010
,
0001
0010
0011
1000
,
0010
1010
0100
0010
,
0110
0001
1000
1001
,
0010
0001
1010
0100
,
0001
1100
0010
0100
,
0011
1100
0110
2002
,
0000
0000
3003
0000
0001
0000
0000
0010
,
0000
0000
1000
0000
0000
0100
0000
0000
,
0001
0000
1000
0000
0001
0000
0000
0100
,
0000
0000
1000
0000
0000
0010
0000
0000
,
0001
1000
1001
0000
,
0000
0110
0000
0000
1001
0000
0000
0000
,
0000
0101
0000
0000
0002
2000
0000
0000
,
0000
0000
0000
0000
,
0000
0000
0000
3003
0000
0000
0000
0000
;

//---------------dance-single - ----------------
#NOTEDATA:;
#CHARTNAME:;
#STEPSTYPE:dance-single;
#DESCRIPTION:;
#CHARTSTYLE:;
#DIFFICULTY:Easy;
#METER:5;
#RADARVALUES:0.498324,0.662914,0.537910,0.546061,0.000000,295.000000,66.000000,67.000000,0.000000,0.000000,0.000000,0.000000,0.000000,0.498324,0.662914,0.537910,0.546061,0.000000,295.000000,66.000000,67.000000,0.000000,0.000000,0.000000,0.000000,0.000000;
#CREDIT:DJ OMiY;
#NOTES:
0000
0000
0000
0000
,
0000
0000
0000
0000
,
1000
1000
1000
1000
,
1000
1000
1000
1000
,
0001
0001
0001
0001
,
0001
0001
1000
0001
,
0010
0010
0010
0010
,
0010
0010
0100
0100
,
1000
1000
1000
1000
,
2002
3003
0001
0100
,
0010
1000
0000
1000
,
0001
0010
0000
0010
,
0001
0100
0000
0100
,
0010
1000
0001
1000
,
0100
0010
0000
0010
,
0001
1000
0000
1000
,
0001
0100
0000
0100
,
0010
1000
0001
1000
,
0001
0010
0100
1000
,
0001
0010
0100
1001
,
1000
0100
0010
0001
,
1000
0100
0010
1001
,
0010
1000
0001
0100
,
0010
1000
0001
1001
,
1000
0010
0100
0001
,
1000
1000
1000
0001
,
0202
0303
0101
2200
,
3300
1100
2020
3030
,
1010
2002
3003
1001
,
0202
0303
0101
0022
,
0033
0011
2200
3300
,
1100
2020
3030
1010
,
2002
3003
1001
0220
,
0330
0110
2002
3003
,
1001
0022
0033
0011
,
2020
3030
1010
0202
,
0303
0101
1001
0110
,
1001
0010
0010
0010
,
1000
1000
0001
0000
,
0100
0010
1000
0100
,
0001
0100
1000
0000
,
0010
1000
0001
0010
,
0001
1000
0100
0000
,
0010
0001
1000
0010
,
1000
0001
0100
0000
,
0010
0100
0001
0000
,
2000
0000
3010
0100
,
0002
0000
0023
0000
,
0031
0100
0010
1000
,
0002
0003
1000
0100
,
2000
0000
3010
0100
,
0020
0000
2030
0000
,
3001
0100
0010
1000
,
0002
0000
2000
3003
,
0101
1000
0100
1000
,
0010
0100
0001
1000
,
0100
0010
0001
1000
,
0010
0100
0001
1000
,
1000
0100
1000
0100
,
0010
0001
1000
0010
,
0100
0001
1000
0001
,
0010
0100
1000
0010
,
0010
0100
0001
1000
,
0100
0001
0100
1000
,
0001
0100
0010
1000
,
0001
0010
0001
1000
,
1000
0001
0010
1000
,
0010
0001
0100
0010
,
1000
0010
0001
0010
,
1000
1000
0001
0001
,
0202
0303
0101
2200
,
3300
1100
2020
3030
,
1010
2002
3003
1001
,
0202
0303
0101
0022
,
0033
0011
2200
3300
,
1100
2020
3030
1010
,
1001
0001
1000
0010
,
0010
0100
1001
1000
,
0001
0010
0001
1000
,
1010
1000
0010
0101
,
0001
0100
1001
1001
,
1001
0110
1001
0220
,
0000
0000
0330
0000
0002
0000
0000
0203
,
0000
0000
2300
0000
0000
3200
0000
0000
,
0301
0000
0010
0000
0200
0000
0000
2300
,
0000
0000
3020
0000
0000
0230
0000
0000
,
0301
1000
1001
0000
,
0000
0110
0000
0000
1001
0000
0000
0000
,
0000
1100
0000
0000
0200
0020
0000
0000
,
0000
0000
0000
0000
,
0000
0000
0000
0330
0000
0000
0000
0000
;

//---------------dance-single - ----------------
#NOTEDATA:;
#CHARTNAME:;
#STEPSTYPE:dance-single;
#DESCRIPTION:;
#CHARTSTYLE:;
#DIFFICULTY:Beginner;
#METER:2;
#RADARVALUES:0.210740,0.220971,0.277105,0.154853,0.000000,128.000000,34.000000,19.000000,0.000000,0.000000,0.000000,0.000000,0.000000,0.210740,0.220971,0.277105,0.154853,0.000000,128.000000,34.000000,19.000000,0.000000,0.000000,0.000000,0.000000,0.000000;
#CREDIT:DJ OMiY;
#NOTES:
0000
0000
0000
0000
,
0000
0000
0000
0000
,
0020
0000
0000
0000
,
0000
0000
0030
0000
,
2000
0000
0000
0000
,
3000
0000
0001
0001
,
0002
0000
0000
0000
,
0003
0000
0100
0000
,
0200
0000
0300
0000
,
0020
0000
0030
0000
,
2002
0000
0000
0000
,
3003
0000
0000
0000
,
1000
0000
0000
0000
,
0010
0000
0000
0000
,
0100
0000
0000
0000
,
0001
0000
0000
0000
,
0010
0000
0000
0000
,
0100
0000
0000
0000
,
1000
0000
1000
0000
,
0001
0000
0001
0000
,
0010
0000
0100
0000
,
1000
0000
0010
0000
,
0100
0000
0100
0000
,
0001
0000
0001
0000
,
1000
0000
0010
0000
,
0100
0000
0001
0000
,
1001
0000
0000
1001
,
0000
0000
0110
0000
,
0000
0110
0000
0000
,
1001
0000
0000
1001
,
0000
0000
0110
0000
,
0000
0110
0000
0000
,
1100
0000
0000
1100
,
0000
0000
0101
0000
,
0000
0101
0000
0000
,
0011
0000
0000
0011
,
0000
0000
1010
0000
,
0000
1010
0000
0000
,
0001
0000
0000
0100
,
0000
0000
0010
0000
,
1000
0000
0000
0100
,
0000
0000
0010
0000
,
0100
0000
0000
1000
,
0000
0000
0001
0000
,
0010
0000
0000
0001
,
0000
0000
0100
0000
,
0010
0000
1000
0000
,
0100
0000
0010
0000
,
0002
0000
0003
0000
,
0200
0000
0300
0000
,
0010
0000
1000
0000
,
0001
0000
1000
0000
,
0200
0000
0300
0000
,
2000
0000
3000
0000
,
0010
0000
0010
0000
,
0100
0000
0100
0000
,
0001
0000
0001
0000
,
1000
0000
1000
0000
,
0010
0000
1000
0000
,
0001
0000
0100
0000
,
0001
0000
0010
0000
,
0100
0000
1000
0000
,
0001
0000
0100
0000
,
0010
0000
0100
0000
,
0001
0000
0010
0000
,
0100
0000
1000
0000
,
0001
0000
1000
0000
,
0100
0000
0010
0000
,
0001
0000
1000
0000
,
0010
0000
0010
0000
,
1001
0000
0000
1001
,
0000
0000
0110
0000
,
0000
0110
0000
0000
,
1001
0000
0000
1001
,
0000
0000
0110
0000
,
0000
0110
0000
0000
,
1100
0000
0000
1100
,
0000
0000
0101
0000
,
0000
0101
0000
0000
,
0011
0000
0000
0011
,
0000
0000
1010
0000
,
0000
1010
0000
0000
,
0000
0000
0000
0000
2000
0000
0000
3000
,
0000
0000
0002
0000
0000
0003
0000
0000
,
0100
0000
0000
0000
0020
0000
0000
0030
,
0000
0000
0200
0000
0000
0300
0000
0000
,
0001
0000
2000
0000
,
0000
3000
0000
0000
0002
0000
0000
0000
,
0000
0003
0000
0000
2002
0000
0000
0000
,
0000
0000
0000
0000
,
0000
0000
0000
3003
0000
0000
0000
0000
;
