#TITLE:π·ρ·maniac;
#SUBTITLE:;
#ARTIST:DM Ashura;
#TITLETRANSLIT:pi-rho-maniac;
#SUBTITLETRANSLIT:;
#ARTISTTRANSLIT:;
#GENRE:Mega Trance;
#CREDIT:;
#BANNER:pi-rho-maniac-bn.png;
#BACKGROUND:pi-rho-maniac-bg.png;
#LYRICSPATH:;
#CDTITLE:;
#MUSIC:pi-rho-maniac.ogg;
#OFFSET:-0.811000;
#SAMPLESTART:17.007215;
#SAMPLELENGTH:12.972973;
#LASTBEATHINT:284.017273;
#SELECTABLE:YES;
#BPMS:0.000000=148.000000
;
#STOPS:
;
#BGCHANGES:;
#KEYSOUNDS:;
#ATTACKS:;

//---------------dance-single - ----------------
#NOTES:
     dance-single:
     :
     Hard:
     9:
     0.639593,0.661340,0.238782,0.392284,0.217462,451.000000,28.000000,46.000000,0.000000,0.000000,0.000000,0.639593,0.661340,0.238782,0.392284,0.217462,451.000000,28.000000,46.000000,0.000000,0.000000,0.000000:
// measure 0
0000
0000
0000
0000
,  // measure 1
0000
0000
0000
0000
,  // measure 2
0000
0000
0000
0000
,  // measure 3
0000
0000
0000
0000
,  // measure 4
1001
0001
1000
0001
,  // measure 5
1000
0001
1000
0001
,  // measure 6
0100
0010
0100
0010
0100
0010
0100
0010
,  // measure 7
1000
0001
1000
0001
1000
0100
0010
0001
,  // measure 8
1000
0101
0001
1100
,  // measure 9
0110
1001
0110
1002
,  // measure 10
0013
0001
0100
1000
0100
0001
1000
0100
,  // measure 11
1000
0001
0100
0010
1000
0010
0100
0001
,  // measure 12
1000
0100
1000
0001
1000
0100
0010
0001
,  // measure 13
1000
0001
0100
0001
0010
0100
1000
0001
,  // measure 14
0010
0000
0000
0001
0000
0000
0100
0000
0000
0010
0000
0000
1000
0000
0100
0000
,  // measure 15
1000
0000
0000
0001
0000
0000
0010
0000
0000
0100
0000
0000
0010
0000
0001
0000
,  // measure 16
1000
0000
0000
0100
0000
0000
0001
0000
0000
0100
0000
0000
1000
0000
0100
0000
,  // measure 17
1000
0000
0000
0010
0000
0000
0100
0000
0000
0001
0000
0000
1000
0100
1000
0100
,  // measure 18
0010
0001
0200
0000
0310
1000
0002
0000
,  // measure 19
1003
0100
0010
0100
1000
0001
2000
0000
,  // measure 20
3010
1000
0200
0000
0310
0001
0200
0000
,  // measure 21
0310
0000
0000
0000
0000
0000
0000
0000
1000
0001
1000
0001
0100
0001
0100
0001
,  // measure 22
1000
0000
0000
0010
0000
0000
1000
0000
0000
0000
0001
0000
0000
0000
0100
0000
,  // measure 23
0020
0000
0000
0000
1030
0000
0001
0000
1000
0000
0100
0000
0010
0001
0010
0000
,  // measure 24
0100
0000
0000
0010
0000
0000
0001
0000
0000
0000
1000
0000
0010
0000
0100
0000
,  // measure 25
0001
0000
0010
0000
1000
0000
0010
0000
0001
1000
0001
1000
0100
0000
0100
0000
,  // measure 26
1000
0000
0000
0010
0000
0000
0100
0000
0000
0000
0010
0000
0000
0000
0001
0000
,  // measure 27
0010
0000
0100
0000
0010
0000
1000
0000
0002
0000
0000
0000
1003
0100
0010
0000
,  // measure 28
0001
0000
0000
1000
0000
0000
0010
0000
0000
0000
1000
0000
0000
0000
0100
0000
,  // measure 29
1000
0100
0010
0100
1000
0000
0001
0000
0010
0001
1000
0001
0010
0000
0001
0000
,  // measure 30
0100
0000
0010
0000
1000
0000
0000
0010
0000
0000
0100
0000
0001
0000
0010
0000
,  // measure 31
0100
0010
0001
0010
0110
0000
1001
0000
,  // measure 32
1000
0000
0001
0000
0010
0000
0000
0100
0000
0000
1000
0000
0001
0000
0010
0000
,  // measure 33
0001
0100
0001
0010
1001
0000
0110
0000
,  // measure 34
0001
0000
0100
0000
0010
0000
0000
0100
0000
0000
1000
0000
0100
0000
0001
0000
,  // measure 35
1000
0100
0010
0001
0101
0000
1100
0000
,  // measure 36
0010
0000
1000
0000
0100
0000
0000
0010
0000
0000
0100
0000
1000
0000
0001
0000
,  // measure 37
0011
0000
0000
0000
1100
0000
0000
0000
0001
0010
0100
1000
0001
1000
0001
1000
,  // measure 38
0002
0103
0010
0200
0301
1000
0020
1030
,  // measure 39
0100
0010
0001
1000
,  // measure 40
0020
0130
0001
2000
3001
0010
0200
1300
,  // measure 41
0001
0100
1000
0100
,  // measure 42
0002
1003
0100
0020
0130
1000
0020
0130
,  // measure 43
0002
1003
0100
0020
0031
1000
0002
0013
,  // measure 44
0200
1300
0001
2000
3010
0100
0002
0013
,  // measure 45
0100
0000
0000
0000
1001
0000
0000
0000
0010
1000
0000
1000
0001
0000
0100
0001
,  // measure 46
1000
0100
0010
0001
0100
0010
1000
0001
,  // measure 47
0010
0100
1000
0100
0010
0001
0100
0000
,  // measure 48
0010
0100
0010
1000
0001
0100
0001
0010
,  // measure 49
0200
0000
0000
0000
1300
0000
0000
0000
0020
0000
0000
2030
0000
0000
3002
0000
,  // measure 50
0013
0100
1000
0001
0100
0001
1000
0100
,  // measure 51
0001
0100
1000
0001
0010
1000
0010
0001
,  // measure 52
0100
0010
0100
0001
0100
0010
0100
0001
,  // measure 53
1000
0000
0100
0000
0010
0001
0000
1000
0010
1000
0000
0001
1000
0000
0001
0010
,  // measure 54
0100
1000
0100
0010
0002
0000
0103
0010
,  // measure 55
1000
0001
1000
0100
0002
0000
0203
0000
,  // measure 56
1300
0000
0010
0000
0000
0100
0000
0000
0001
0000
1000
0000
0001
0000
0000
0000
,  // measure 57
0011
1100
1010
0101
,  // measure 58
1000
0010
0100
0001
0020
0000
0230
0000
,  // measure 59
0310
0001
0100
0010
2000
0000
3200
0000
,  // measure 60
0310
0100
2000
0000
3002
0000
0203
0000
,  // measure 61
0310
0000
0000
0000
1001
0000
0000
0000
0110
0000
0000
0010
1000
0000
0001
0100
,  // measure 62
0001
1000
0100
0010
0002
0000
0103
0001
,  // measure 63
1000
0100
0010
0100
2000
0000
3020
0000
,  // measure 64
0031
0000
0010
0000
0000
0100
0000
0000
0010
0000
0000
0000
1000
0000
0000
0000
,  // measure 65
0011
1010
1100
0101
,  // measure 66
1001
0001
0100
0001
0020
0000
0130
1000
,  // measure 67
0010
0001
0010
1000
0200
0000
0320
0000
,  // measure 68
0031
0100
0010
0010
1000
0001
0010
0000
,  // measure 69
2200
0000
0000
0000
3300
0000
0000
0000
0001
0100
0001
0100
0001
0100
0001
0100
,  // measure 70
0020
0000
0030
0000
;

//---------------dance-single - ----------------
#NOTES:
     dance-single:
     :
     Medium:
     7:
     0.487309,0.511035,0.179086,0.127919,0.089543,364.000000,21.000000,15.000000,0.000000,0.000000,0.000000,0.487309,0.511035,0.179086,0.127919,0.089543,364.000000,21.000000,15.000000,0.000000,0.000000,0.000000:
// measure 0
0000
0000
0000
0000
,  // measure 1
0000
0000
0000
0000
,  // measure 2
0000
0000
0000
0000
,  // measure 3
0000
0000
0000
0000
,  // measure 4
1001
0010
0001
0100
,  // measure 5
0010
1000
0100
0001
,  // measure 6
0010
1000
0001
0100
,  // measure 7
0010
1000
0100
0010
,  // measure 8
0100
1001
0010
1001
,  // measure 9
0020
0000
0230
0000
0302
0000
1003
0100
,  // measure 10
1000
0000
0001
0000
0000
0100
0000
0000
0001
0000
0000
0000
1000
0000
0000
0000
,  // measure 11
0010
0000
1000
0000
0000
0100
0000
0000
0010
0000
0000
0000
0001
0000
0000
0000
,  // measure 12
0100
0000
0010
0000
0000
0100
0000
0000
0001
0000
0000
0000
0010
0000
0000
0000
,  // measure 13
0100
0000
1000
0000
0000
0001
0000
0000
0100
0000
0000
0000
0010
0000
1000
0000
,  // measure 14
0010
0000
0100
0000
0000
0001
0000
0000
0010
0000
0000
0000
0001
0000
0000
0000
,  // measure 15
1000
0000
0100
0000
0000
0010
0000
0000
0001
0000
0000
0000
1000
0000
0000
0000
,  // measure 16
0001
0000
0100
0000
0000
0010
0000
0000
1000
0000
0000
0000
0100
0000
0000
0000
,  // measure 17
0010
0000
0100
0000
0000
1000
0000
0000
0001
0000
0100
0000
0001
0000
1000
0000
,  // measure 18
0100
0010
0001
0000
0100
0010
1000
0000
,  // measure 19
0001
1000
0010
0000
0100
0001
0010
0000
,  // measure 20
0100
1000
0001
0000
0010
0100
1000
0000
,  // measure 21
1001
0000
0000
0000
1000
0100
0001
0100
,  // measure 22
1000
0000
0000
0001
0000
0000
0100
0000
0001
0000
0000
0000
0010
0000
0001
0000
,  // measure 23
0100
0000
0010
1000
0100
0010
0100
1000
,  // measure 24
0010
0000
0000
0100
0000
0000
0001
0000
1000
0000
0000
0000
0010
0000
0100
0000
,  // measure 25
0001
0100
0010
0100
0002
0000
1003
1000
,  // measure 26
0010
0000
0000
1000
0000
0000
0100
0000
0010
0000
0000
0000
0001
0000
1000
0000
,  // measure 27
0001
0100
0010
0100
0001
0000
1000
0001
,  // measure 28
0100
0000
0000
0001
0000
0000
0010
0000
0001
0000
0000
0000
1000
0000
0000
0000
,  // measure 29
0010
0100
0010
0100
0001
0010
0100
0010
,  // measure 30
0001
0000
0000
0000
1000
0000
0000
0010
0000
0000
1000
0000
0001
0000
0000
0000
,  // measure 31
0010
0000
0000
0000
0100
0000
0000
1000
0001
0000
0000
0000
0110
0000
0000
0000
,  // measure 32
0010
0000
0000
0000
1000
0000
0000
0001
0000
0000
0010
0000
0001
0000
0000
0000
,  // measure 33
0010
0000
0000
0000
1000
0000
0000
0010
0100
0000
0000
0000
1001
0000
0010
0000
,  // measure 34
0100
0000
0000
0000
0001
0000
0000
1000
0000
0000
0001
0000
0100
0000
0000
0000
,  // measure 35
0010
0000
0000
0000
1000
0000
0000
0100
0010
0000
0000
0000
0011
0000
0000
0000
,  // measure 36
0100
0000
0000
0000
0010
0000
0000
1000
0000
0000
0001
0000
0010
0000
0000
0000
,  // measure 37
0100
0000
1100
0000
0101
0001
0010
0100
,  // measure 38
1000
0000
0010
0100
0001
0000
0010
0000
,  // measure 39
0100
0000
1000
0000
0001
0100
0001
1000
,  // measure 40
0100
0000
0010
0100
1000
0000
0010
0000
,  // measure 41
0100
0000
0010
0000
1000
0100
0010
0001
,  // measure 42
1000
0000
0001
0100
0001
0000
0010
0000
,  // measure 43
0100
0000
1000
0010
0001
0000
0010
0000
,  // measure 44
0100
0000
0001
1000
0010
0000
0100
0000
,  // measure 45
0001
0010
0001
0000
1000
0100
0010
0001
,  // measure 46
1000
0000
0001
0010
0100
0000
0010
0000
,  // measure 47
0001
0000
1000
0000
0010
0100
0001
0100
,  // measure 48
0010
0000
0100
0001
1000
0000
0100
0000
,  // measure 49
0010
0000
0100
0000
1000
0001
0010
0001
,  // measure 50
0100
0000
0010
1000
0100
0000
1000
0000
,  // measure 51
0010
0000
1000
0001
0010
0000
0100
0000
,  // measure 52
1000
0001
0101
0010
,  // measure 53
0001
0010
0001
0010
0100
1000
0001
1000
,  // measure 54
0100
1010
0101
0011
,  // measure 55
0100
0001
0010
0000
1100
0000
0101
0000
,  // measure 56
0010
0100
0001
1000
0010
0000
0100
0000
,  // measure 57
0002
0023
2030
3200
,  // measure 58
0301
1000
0010
0100
0001
0000
0010
0000
,  // measure 59
0010
0001
1000
0100
1000
0000
0010
0000
,  // measure 60
0100
0001
0010
0000
0100
1000
0010
0000
,  // measure 61
0100
0010
0100
0001
1000
0100
0001
0100
,  // measure 62
1000
0010
0100
0000
0011
0000
1100
0000
,  // measure 63
0001
0100
0010
0000
0101
0000
1001
0000
,  // measure 64
0010
0100
0001
0000
0010
0100
1000
0000
,  // measure 65
0020
2030
3200
0302
,  // measure 66
0103
1000
0100
0010
0001
0000
0100
0000
,  // measure 67
0010
0100
0001
0010
0100
0000
1000
0000
,  // measure 68
0010
0100
0001
1000
0010
0000
0110
0000
,  // measure 69
2002
0000
0000
0000
3003
0000
0000
0000
0010
0000
0001
0000
1000
0010
1000
0010
,  // measure 70
2000
0000
3000
0000
;

//---------------dance-single - ----------------
#NOTES:
     dance-single:
     :
     Easy:
     4:
     0.364264,0.390792,0.153502,0.315533,0.000000,244.000000,18.000000,37.000000,0.000000,0.000000,0.000000,0.364264,0.390792,0.153502,0.315533,0.000000,244.000000,18.000000,37.000000,0.000000,0.000000,0.000000:
// measure 0
0000
0000
0000
0000
,  // measure 1
0000
0000
0000
0000
,  // measure 2
0000
0000
0000
0000
,  // measure 3
0000
0000
0000
0000
,  // measure 4
0010
1000
0010
0001
,  // measure 5
0010
1000
0010
0001
,  // measure 6
0010
1000
0010
0001
,  // measure 7
0010
1000
0100
0010
,  // measure 8
0001
1100
1000
0101
,  // measure 9
0020
0230
0310
1001
,  // measure 10
0010
1000
0100
0010
,  // measure 11
0001
0100
0001
1000
,  // measure 12
0010
0100
0001
0010
,  // measure 13
0100
1000
0100
0001
,  // measure 14
0100
1000
0010
0100
,  // measure 15
0001
1000
0010
0100
,  // measure 16
0010
1000
0001
1000
,  // measure 17
0100
0001
0010
1000
,  // measure 18
1001
0000
0010
0010
,  // measure 19
1001
0000
0100
0001
,  // measure 20
1100
0000
0101
0001
,  // measure 21
1001
0000
0100
0100
,  // measure 22
0001
0010
0100
1000
,  // measure 23
0020
0000
0130
0001
,  // measure 24
1000
0100
1000
0010
,  // measure 25
1000
2000
3200
0300
,  // measure 26
0010
0001
1000
0010
,  // measure 27
0200
0000
0301
0010
,  // measure 28
0001
1000
0010
0100
,  // measure 29
0001
0010
0011
1100
,  // measure 30
0010
0100
0001
1000
,  // measure 31
0100
1000
0011
0101
,  // measure 32
0010
0100
0001
1000
,  // measure 33
0001
0100
1010
1100
,  // measure 34
0010
0100
1000
0001
,  // measure 35
0010
0100
1001
0110
,  // measure 36
0001
0100
0010
1000
,  // measure 37
0002
1003
2000
3002
,  // measure 38
0103
0010
1000
0100
,  // measure 39
0020
0030
0001
0000
,  // measure 40
0100
0001
1000
0010
,  // measure 41
2000
3000
0001
0000
,  // measure 42
0100
0001
1000
0100
,  // measure 43
1000
0010
0100
0001
,  // measure 44
0020
0030
0100
0010
,  // measure 45
0002
0003
0100
0000
,  // measure 46
0010
1000
0001
0100
,  // measure 47
0020
0030
1000
0000
,  // measure 48
0001
0010
0001
1000
,  // measure 49
0200
0300
1000
0000
,  // measure 50
0010
0100
0001
1000
,  // measure 51
0100
0010
0001
1000
,  // measure 52
0002
0003
0100
0001
,  // measure 53
2000
3000
0010
0100
,  // measure 54
0001
0001
0200
0320
,  // measure 55
1030
0001
2000
3200
,  // measure 56
0310
0100
1000
0001
,  // measure 57
0200
0302
0023
0230
,  // measure 58
1300
0010
2000
3002
,  // measure 59
0013
0100
0020
0032
,  // measure 60
0103
0010
0100
0001
,  // measure 61
1000
0100
1000
0001
,  // measure 62
0100
0010
1000
1000
,  // measure 63
0100
0010
0001
0001
,  // measure 64
0100
0001
1000
0001
,  // measure 65
0020
0230
2300
3002
,  // measure 66
0103
0010
0100
0100
,  // measure 67
0001
1000
0010
0010
,  // measure 68
1000
0100
0010
0001
,  // measure 69
2002
3003
0010
0100
,  // measure 70
2002
0000
3003
0000
;

//---------------dance-single - ----------------
#NOTES:
     dance-single:
     :
     Beginner:
     2:
     0.219289,0.238782,0.017056,0.289949,0.000000,144.000000,2.000000,34.000000,0.000000,0.000000,0.000000,0.219289,0.238782,0.017056,0.289949,0.000000,144.000000,2.000000,34.000000,0.000000,0.000000,0.000000:
// measure 0
0000
0000
0000
0000
,  // measure 1
0000
0000
0000
0000
,  // measure 2
0000
0000
0000
0000
,  // measure 3
0000
0000
0000
0000
,  // measure 4
2000
0000
0000
3000
,  // measure 5
0200
0000
0000
0300
,  // measure 6
0020
0000
0000
0030
,  // measure 7
0002
0000
0000
0003
,  // measure 8
0000
0100
0000
0100
,  // measure 9
0010
0010
0010
0010
,  // measure 10
1000
0000
1000
0000
,  // measure 11
0001
0000
0001
0001
,  // measure 12
0001
0000
0100
0000
,  // measure 13
0010
0100
0010
0000
,  // measure 14
1000
0000
1000
0000
,  // measure 15
0100
0100
0100
0000
,  // measure 16
0010
0000
0010
0000
,  // measure 17
0001
1000
0001
0000
,  // measure 18
0100
0000
0010
0000
,  // measure 19
1000
0000
0001
0000
,  // measure 20
0010
0000
0100
0000
,  // measure 21
2002
0000
3003
0000
,  // measure 22
0010
0010
0010
0000
,  // measure 23
1000
0000
0001
0000
,  // measure 24
0100
0100
0100
0000
,  // measure 25
0001
0000
0010
0000
,  // measure 26
0001
0001
0001
0000
,  // measure 27
0010
0000
0100
0000
,  // measure 28
1000
1000
1000
0000
,  // measure 29
0010
0000
1000
0000
,  // measure 30
0001
0000
1000
0000
,  // measure 31
0100
0000
0010
0001
,  // measure 32
0010
0000
0100
0000
,  // measure 33
0010
0000
0001
1000
,  // measure 34
0001
0000
1000
0000
,  // measure 35
0100
0000
1000
0001
,  // measure 36
1000
0000
0001
0000
,  // measure 37
0010
0000
0100
1000
,  // measure 38
0200
0300
0020
0030
,  // measure 39
0002
0003
0000
0000
,  // measure 40
0200
0300
0020
0030
,  // measure 41
2000
3000
0000
0000
,  // measure 42
0002
0003
0200
0300
,  // measure 43
0002
0003
0020
0030
,  // measure 44
0200
0000
0300
0000
,  // measure 45
2000
0000
3000
0000
,  // measure 46
0020
0030
2000
3000
,  // measure 47
0002
0003
0000
0020
,  // measure 48
0030
0200
0300
2000
,  // measure 49
3000
0000
0200
0300
,  // measure 50
0020
0030
0002
0003
,  // measure 51
2000
3000
0020
0030
,  // measure 52
0200
0000
0300
0000
,  // measure 53
0002
0000
0003
0000
,  // measure 54
1000
1000
0010
0000
,  // measure 55
0001
0001
0010
0000
,  // measure 56
1000
0000
0001
0000
,  // measure 57
0100
0100
0100
0000
,  // measure 58
0001
0001
0100
0000
,  // measure 59
0010
0010
1000
0000
,  // measure 60
1000
0000
0100
0000
,  // measure 61
0010
0000
0001
0000
,  // measure 62
0100
0100
0010
0000
,  // measure 63
1000
1000
0001
0000
,  // measure 64
0100
0000
0010
0000
,  // measure 65
1000
1000
1000
0000
,  // measure 66
0001
0001
0010
0000
,  // measure 67
0100
0100
0010
0000
,  // measure 68
0001
0000
1000
0000
,  // measure 69
2002
3003
0020
0000
,  // measure 70
0030
0000
0000
0000
;
