#TITLE:meme;
#SUBTITLE:;
#ARTIST:Zektbach;
#TITLETRANSLIT:;
#SUBTITLETRANSLIT:;
#ARTISTTRANSLIT:;
#GENRE:IDM;
#CREDIT:;
#BANNER:meme-bn.png;
#BACKGROUND:meme-bg.png;
#LYRICSPATH:;
#CDTITLE:;
#MUSIC:meme.ogg;
#OFFSET:-2.098000;
#SAMPLESTART:14.485097;
#SAMPLELENGTH:12.387097;
#SELECTABLE:YES;
#BPMS:0.000000=155.000000
;
#STOPS:
;
#BGCHANGES:;
#KEYSOUNDS:;
#ATTACKS:;

//---------------dance-single - ----------------
#NOTES:
     dance-single:
     :
     Hard:
     8:
     0.507895,0.548488,0.008025,0.192610,0.108343,418.000000,1.000000,24.000000,0.000000,0.000000,0.000000,0.507895,0.548488,0.008025,0.192610,0.108343,418.000000,1.000000,24.000000,0.000000,0.000000,0.000000:
0000
0000
0000
0000
,
0000
0000
0000
0000
,
0000
0000
0000
0000
,
0000
0000
0000
0000
,
0000
0000
0000
0000
,
0000
0000
0000
0000
,
0000
0000
0000
0000
,
1000
0000
0000
0000
0001
0000
0000
1000
0000
0001
1000
0000
0001
0000
0000
0000
,
0100
0000
0010
1000
0100
0000
0010
0001
,
0100
0000
0010
1000
0100
0000
0010
0001
,
0100
0000
0010
1000
0000
0001
0001
0000
,
0010
0000
0000
0000
0001
0000
0100
0010
0100
0000
0001
0000
1000
0000
0000
0000
,
0010
0000
0100
0001
0010
0000
0100
1000
,
0010
0000
0100
0001
0010
0000
0100
1000
,
0010
0000
0100
0001
0000
1000
1000
0000
,
0100
0000
0000
0000
1000
0000
0010
0100
0010
0000
1000
0000
0001
0000
0000
0000
,
0020
0000
0100
0100
0000
0000
1000
1000
,
0000
0000
0100
0100
0000
0000
0001
0031
,
0010
0000
0001
1000
0000
1000
0100
0000
,
1000
0000
0000
0000
0010
0000
1000
0001
1000
0000
0010
0000
0010
0000
0000
0000
,
0200
0000
1000
1000
0000
0000
0010
0010
,
0000
0000
0001
0001
0000
0000
0010
0310
,
0100
0000
0001
0010
0000
0100
1000
0000
,
0001
0000
0000
0000
1000
0000
0001
0010
0001
0000
0100
0000
0100
0000
0000
0000
,
0010
1000
0001
0010
0100
1000
0010
0100
,
0001
1000
0100
1000
0001
0100
0010
1000
,
0001
1000
0010
1000
0100
1000
0001
1000
,
0100
0000
0010
0000
0001
0000
1000
0001
0000
0000
0100
0000
0010
0000
0000
0000
,
1000
0100
1000
0100
0010
0001
0010
0100
,
1000
0001
0100
0001
0010
0100
1000
0010
,
0100
0001
0100
0010
1000
0001
1000
0100
,
1000
0000
0001
0000
0010
0000
0001
1000
0000
0000
0010
0000
0100
0000
0000
0000
,
0010
1000
0001
1000
0010
1000
0001
1000
,
0100
0010
0001
0100
1000
0100
0001
1000
,
0001
0010
0001
0100
0001
0010
1000
0010
,
0001
0000
1000
0000
0010
0000
0100
0001
0000
0000
1000
0000
0001
0000
0000
0000
,
0100
0010
0100
1000
0100
0010
0100
0001
,
1000
0010
0100
0010
1000
0001
0010
0100
,
1000
0001
1000
0010
1000
0001
1000
0100
,
0010
0000
0001
0000
1000
0000
0100
0010
0000
0000
0100
0000
1000
0000
0100
0000
,
0020
0000
0002
0030
,
0200
0003
2000
0300
,
0020
3000
2000
0030
,
0200
3000
0002
0300
,
1003
0000
0100
0000
0010
0000
0100
0000
1000
0001
0000
0001
1000
0000
0010
0000
,
0100
0000
0001
0000
0100
0000
0001
0000
0010
0100
0000
0100
1000
0000
0100
0000
,
1000
0000
0001
0000
1000
0000
0010
0000
0100
0001
0000
0001
0100
0000
0001
0000
,
1000
0000
0100
0000
1000
0000
0001
0000
0010
0100
0000
0100
0010
0000
0001
0000
,
1000
0000
0010
0000
1000
0000
0001
0000
0100
0001
0000
0001
0100
0000
0010
0000
,
1000
0000
0001
0000
1000
0000
0010
0000
1000
0100
0000
0100
1000
0000
0001
0000
,
0010
0000
0001
0000
0100
0000
0010
0000
1000
0001
0000
0001
1000
0000
0100
0000
,
0010
0000
0100
0000
0010
0000
0001
0000
0100
0001
0000
0001
1000
0000
0001
0000
,
1001
0000
0010
1000
0100
0000
0010
0001
,
0100
0000
0010
1000
0100
0000
0010
0001
,
0100
1000
0100
0001
,
0010
0000
1000
0000
0010
0000
0001
0001
,
0010
0000
0100
1000
0010
0000
0100
0001
,
0010
0000
0100
1000
0010
0000
0100
0001
,
0010
1000
0010
0001
,
0100
0000
1000
0000
0100
0000
0001
0001
,
1000
0000
0010
1000
0100
0000
0100
1000
,
0010
0000
0100
0001
0010
0000
0010
0001
,
0100
0010
1000
0010
0100
0001
1000
0100
,
0010
0001
0010
0001
0100
1000
0100
0001
,
1000
0000
0010
1000
0100
0000
0100
1000
,
0010
0000
0100
0001
0010
0000
0010
0001
,
0100
0010
1000
0001
0010
0001
1000
0100
,
0010
0001
1000
0010
1000
0001
0010
0100
,
1000
0002
0000
0020
,
0003
0200
0030
2000
,
0300
0020
3000
0200
,
0030
0002
0300
1003
,
0001
2000
0000
0200
,
3000
0002
0300
0020
,
0003
0002
0030
0200
,
0003
0000
0000
0000
2000
0000
0000
0000
0300
0000
0000
0000
0001
0000
0000
3001
;

//---------------dance-single - ----------------
#NOTES:
     dance-single:
     :
     Medium:
     6:
     0.388660,0.426601,0.072229,0.184585,0.000000,307.000000,9.000000,23.000000,0.000000,0.000000,0.000000,0.388660,0.426601,0.072229,0.184585,0.000000,307.000000,9.000000,23.000000,0.000000,0.000000,0.000000:
0000
0000
0000
0000
,
0000
0000
0000
0000
,
0000
0000
0000
0000
,
0000
0000
0000
0000
,
0000
0000
0000
0000
,
0000
0000
0000
0000
,
0000
0000
0000
0000
,
1000
0000
0001
0000
1000
0001
1001
0000
,
0010
0000
0100
0001
0000
0000
0001
1000
,
0000
0000
1000
0100
0000
0000
0010
0100
,
1000
1000
0001
0001
,
1000
0000
0001
0000
0100
0010
0100
0000
,
0001
0000
0010
0100
0000
0000
0100
1000
,
0000
0000
1000
0010
0000
0000
0010
0100
,
0001
0001
1000
1000
,
0001
0000
1000
0000
0001
0010
0100
0000
,
1001
0000
0010
0010
0000
0000
0001
0001
,
0000
0000
0100
0100
0000
0000
1000
1000
,
0100
0001
0010
1000
,
0010
0000
0001
0000
1000
0100
1000
0000
,
0010
0000
1000
1000
0000
0000
0100
0100
,
0000
0000
0001
0001
0000
0000
0100
0100
,
1000
0001
0100
0010
,
1000
0000
0100
0000
1000
0001
1000
0000
,
0010
0100
0001
0000
0010
0000
0001
0000
,
1000
0100
0010
0000
0100
0000
1000
0000
,
0010
0100
0001
0000
0010
0100
1000
0000
,
0010
0100
0001
0000
1000
0000
1001
0000
,
0010
1000
0001
0000
0100
0000
0001
0000
,
0010
0001
0100
0000
0010
0000
1000
0000
,
0001
0100
0010
0000
1000
0100
0010
0000
,
0100
1000
0001
0100
0010
0000
1001
0000
,
0010
0100
0001
0000
0100
0010
1000
0000
,
0001
0010
0001
0000
1000
0100
1000
0000
,
0010
0100
0001
0000
0010
0100
1000
0000
,
0100
0010
0001
1000
0010
0000
1001
0000
,
0100
1000
0010
0000
0100
0001
1000
0000
,
0010
1000
0100
0000
0010
0001
0100
0000
,
0001
0010
0100
0000
0010
0100
1000
0000
,
0010
0100
1000
0001
0100
0001
1000
0100
,
0020
0000
0002
0030
,
0200
0003
0020
0300
,
2000
0030
0200
3000
,
0020
0300
0002
0030
,
1003
0001
1000
0000
0010
0000
0110
0000
,
1000
0100
1000
0000
0001
0000
0101
0000
,
0010
0001
0010
0000
0100
0000
1100
0000
,
0001
1000
0001
0000
0100
0000
1001
0000
,
0020
0000
0000
0000
1030
0100
1000
0000
,
0002
0000
0000
0000
0013
0001
0100
0000
,
0020
0000
0000
0000
1030
0001
1000
0000
,
0200
0000
0000
0000
0310
0001
0010
0100
,
1000
0000
0001
0100
0000
0000
0010
1000
,
0000
0000
0100
0010
0000
0000
0001
1000
,
0001
0100
0010
0100
,
0001
1000
0100
0010
,
0001
0000
1000
0100
0000
0000
0010
0001
,
0000
0000
0100
0010
0000
0000
1000
0010
,
0100
0001
1000
0001
,
1000
1000
0001
0001
,
0010
0000
0001
0100
0010
0000
1000
0010
,
0100
0000
0001
1000
0100
0000
0010
0100
,
1000
0100
0010
0002
,
0203
0320
2030
3100
,
0100
0000
1000
0010
0100
0000
0010
0100
,
0001
0000
1000
0001
0010
0000
0001
1000
,
0100
0010
0001
2000
,
3200
2300
3002
0103
,
0200
0010
0000
0010
,
0000
1000
0000
0301
,
0000
0100
0000
0100
,
0000
0100
0000
0100
,
0020
1000
0000
0001
,
0000
0100
0000
1030
,
0000
0010
0000
0010
,
0000
0000
0000
0000
0010
0000
0000
0000
0000
0000
0000
0000
0020
0000
0000
0030
;

//---------------dance-single - ----------------
#NOTES:
     dance-single:
     :
     Easy:
     3:
     0.223565,0.243772,0.024076,0.232737,0.000000,163.000000,3.000000,29.000000,0.000000,0.000000,0.000000,0.223565,0.243772,0.024076,0.232737,0.000000,163.000000,3.000000,29.000000,0.000000,0.000000,0.000000:
// measure 0
0000
0000
0000
0000
,  // measure 1
0000
0000
0000
0000
,  // measure 2
0000
0000
0000
0000
,  // measure 3
0000
0000
0000
0000
,  // measure 4
0000
0000
0000
0000
,  // measure 5
0000
0000
0000
0000
,  // measure 6
0000
0000
0000
0000
,  // measure 7
0000
0000
0000
0000
,  // measure 8
0110
0001
0000
1000
,  // measure 9
0000
0001
0000
0100
,  // measure 10
0010
1000
0000
1000
,  // measure 11
0100
0010
0000
0010
,  // measure 12
0001
1000
0000
1000
,  // measure 13
0000
0010
0000
0010
,  // measure 14
0100
0001
0000
0001
,  // measure 15
1000
0100
1000
0001
,  // measure 16
0020
0000
0000
0000
,  // measure 17
0000
0000
0032
0000
,  // measure 18
0203
0000
0000
0000
,  // measure 19
0000
0000
0320
0000
,  // measure 20
2030
0000
0000
0000
,  // measure 21
0000
0000
3002
0000
,  // measure 22
0023
0000
0000
0000
,  // measure 23
0230
0000
0000
0300
,  // measure 24
0001
0100
0010
0000
,  // measure 25
1000
0100
1000
0000
,  // measure 26
0010
1000
0001
0000
,  // measure 27
0100
0001
1000
0000
,  // measure 28
0010
1000
0100
0000
,  // measure 29
0010
0100
1000
0000
,  // measure 30
0001
0100
0001
0000
,  // measure 31
1000
0010
0100
0000
,  // measure 32
0001
0010
0001
0010
,  // measure 33
0100
1000
0100
0000
,  // measure 34
1000
0010
1000
0010
,  // measure 35
0100
0001
0100
0000
,  // measure 36
0001
1000
0001
0000
,  // measure 37
0100
0010
0100
0000
,  // measure 38
0001
0010
0001
0000
,  // measure 39
1000
0010
0100
0000
,  // measure 40
2002
0000
0000
0000
,  // measure 41
0000
0000
3000
0000
,  // measure 42
0200
0000
0000
0000
,  // measure 43
0003
0000
0020
0330
,  // measure 44
1001
0000
0001
1000
,  // measure 45
0100
0000
0010
0100
,  // measure 46
1000
0000
0010
0100
,  // measure 47
0010
0000
1000
0100
,  // measure 48
0020
0000
0031
0100
,  // measure 49
0002
0000
0103
0001
,  // measure 50
2000
0000
3010
1000
,  // measure 51
0200
0000
0310
0100
,  // measure 52
1000
0001
0000
0100
,  // measure 53
0000
0001
0000
0100
,  // measure 54
0020
0000
0130
0010
,  // measure 55
2000
0000
3100
0010
,  // measure 56
0001
1000
0000
0100
,  // measure 57
0000
1000
0000
0100
,  // measure 58
0020
0000
0031
1000
,  // measure 59
0020
0000
0130
0001
,  // measure 60
1000
0000
0100
0000
,  // measure 61
0010
0001
0100
0010
,  // measure 62
1000
0000
0001
0000
,  // measure 63
0100
0010
1000
0100
,  // measure 64
0010
0000
0001
0000
,  // measure 65
0100
0001
1000
0001
,  // measure 66
0100
0000
0010
0000
,  // measure 67
1000
0100
0010
0001
,  // measure 68
2000
0000
0000
0000
,  // measure 69
3200
0000
0000
0000
,  // measure 70
0320
0000
0000
0000
,  // measure 71
0032
0000
0000
0000
,  // measure 72
0203
0000
0000
0000
,  // measure 73
0320
0000
0000
0000
,  // measure 74
2030
0000
0000
0000
,  // measure 75
3002
0000
0000
0000
0000
0000
0000
0000
0000
0000
0000
0000
2000
0000
0000
3003
;

//---------------dance-single - ----------------
#NOTES:
     dance-single:
     :
     Beginner:
     2:
     0.145604,0.212774,0.016051,0.096305,0.000000,113.000000,2.000000,12.000000,0.000000,0.000000,0.000000,0.145604,0.212774,0.016051,0.096305,0.000000,113.000000,2.000000,12.000000,0.000000,0.000000,0.000000:
// measure 0
0000
0000
0000
0000
,  // measure 1
0000
0000
0000
0000
,  // measure 2
0000
0000
0000
0000
,  // measure 3
0000
0000
0000
0000
,  // measure 4
0000
0000
0000
0000
,  // measure 5
0000
0000
0000
0000
,  // measure 6
0000
0000
0000
0000
,  // measure 7
2002
0000
3003
0000
,  // measure 8
1000
1000
0000
1000
,  // measure 9
0000
1000
0000
1000
,  // measure 10
0000
0000
0000
0000
,  // measure 11
0100
0000
0010
0000
,  // measure 12
0001
0001
0000
0001
,  // measure 13
0000
0001
0000
0001
,  // measure 14
0000
0000
0000
0000
,  // measure 15
0100
0000
0010
0000
,  // measure 16
2000
0000
0000
0000
,  // measure 17
3000
0000
0001
0000
,  // measure 18
0200
0000
0000
0000
,  // measure 19
0300
0000
0010
0000
,  // measure 20
0020
0000
0000
0000
,  // measure 21
0030
0000
0100
0000
,  // measure 22
0002
0000
0003
0000
,  // measure 23
2000
0000
3000
0000
,  // measure 24
0001
0000
0100
0000
,  // measure 25
0001
0000
0100
0000
,  // measure 26
0010
0000
1000
0000
,  // measure 27
0010
0000
1000
0000
,  // measure 28
0100
0000
1000
0000
,  // measure 29
0100
0000
1000
0000
,  // measure 30
0001
0000
0010
0000
,  // measure 31
0001
0000
0010
0000
,  // measure 32
0001
0000
0100
0000
,  // measure 33
0010
0000
1000
0000
,  // measure 34
0001
0000
0100
0000
,  // measure 35
0010
0000
1000
0000
,  // measure 36
0001
0000
0010
0000
,  // measure 37
0100
0000
1000
0000
,  // measure 38
0001
0000
0010
0000
,  // measure 39
0100
0000
1000
0000
,  // measure 40
0002
0000
0000
0000
,  // measure 41
0000
0000
0000
0000
,  // measure 42
0000
0000
0000
0000
,  // measure 43
0000
0000
0003
0000
,  // measure 44
1000
0000
0100
0100
,  // measure 45
0100
0000
0010
0010
,  // measure 46
0010
0000
0001
0001
,  // measure 47
0001
0000
1000
1000
,  // measure 48
1000
0000
0010
0010
,  // measure 49
0010
0000
1000
1000
,  // measure 50
1000
0000
0100
0100
,  // measure 51
0100
0000
0010
0020
,  // measure 52
0030
0010
0000
0010
,  // measure 53
0000
0010
0000
0010
,  // measure 54
0000
0000
0010
0000
,  // measure 55
0001
0000
1000
0000
,  // measure 56
0001
0001
0000
0001
,  // measure 57
0000
0001
0000
0001
,  // measure 58
0000
0000
1000
0000
,  // measure 59
0010
0000
1000
0000
,  // measure 60
0100
0100
0000
0100
,  // measure 61
0000
0100
0000
0100
,  // measure 62
0000
0000
0100
0000
,  // measure 63
1000
0000
0001
0000
,  // measure 64
1000
1000
0000
1000
,  // measure 65
0000
1000
0000
1000
,  // measure 66
0000
0000
0010
0000
,  // measure 67
0100
0000
0010
0000
,  // measure 68
2002
0000
0000
0000
,  // measure 69
0000
0000
0000
0000
,  // measure 70
0000
0000
0000
0000
,  // measure 71
0000
0000
3003
0000
,  // measure 72
0200
0000
0000
0000
,  // measure 73
0000
0000
0000
0000
,  // measure 74
0000
0000
0000
0000
,  // measure 75
0000
0000
0000
0300
;
