#TITLE:know;
#SUBTITLE:;
#ARTIST:emon(Tes.) feat. conoqa;
#TITLETRANSLIT:;
#SUBTITLETRANSLIT:;
#ARTISTTRANSLIT:;
#GENRE:;
#CREDIT:;
#BANNER:know-bn.png;
#BACKGROUND:know-bg.png;
#LYRICSPATH:;
#CDTITLE:;
#MUSIC:know.ogg;
#OFFSET:-2.880000;
#SAMPLESTART:77.411240;
#SAMPLELENGTH:15.000000;
#SELECTABLE:YES;
#BPMS:0.000000=128.000000
;
#STOPS:
;
#BGCHANGES:;
#KEYSOUNDS:;
#ATTACKS:;

//---------------dance-single - S-HEAVY----------------
#NOTES:
     dance-single:
     DJ OMiY-HSP:
     Hard:
     8:
     0.382554,0.559677,0.071410,0.294567,0.160673,300.000000,292.000000,8.000000,33.000000,0.000000,0.000000,0.382554,0.559677,0.071410,0.294567,0.160673,300.000000,292.000000,8.000000,33.000000,0.000000,0.000000:
0000
0000
0000
0000
,
0000
0000
0000
0000
,
0000
0000
0000
0000
,
0000
0000
0000
0000
,
0000
0000
0000
0000
,
0000
0000
0000
0000
,
0000
0000
0000
0000
,
0000
0000
0000
0000
,
1000
0000
0000
0000
0000
0000
0001
0000
0000
0000
0000
0000
0010
0000
0001
0010
,
0100
1000
0001
0100
0020
0000
0000
0000
,
0130
0000
0000
0001
0000
0000
0010
0000
,
0100
0000
1000
0100
,
0020
0000
0000
0002
0000
0000
0000
0000
,
0000
0000
0033
0001
,
0200
0000
0000
0320
0000
0000
2030
0000
,
0000
3000
0100
0010
,
0002
0000
0000
0103
2000
0000
0000
3100
,
0001
0200
0302
0023
,
0230
0000
0000
1300
0020
0000
0000
0031
,
0020
0030
2000
3100
,
0010
0001
0011
0000
,
0001
0100
1010
0000
,
1000
0100
0011
0000
,
0100
0000
0000
0000
0001
0000
1000
0100
0010
0000
0001
0000
1000
0000
0001
0000
,
0100
0010
0100
0001
1000
0100
0010
0001
,
0000
1000
0001
0010
0100
1000
0100
0020
,
0100
0000
0001
0000
0100
0000
0031
0020
,
0100
0000
1000
0000
0130
0010
0001
1000
,
0010
0100
0010
0001
0010
1000
0010
0100
,
0000
0001
0010
0100
0010
0001
1000
0200
,
0010
0000
1000
0000
0010
0000
1300
0200
,
0001
0010
0001
0010
,
1300
0100
2000
3020
,
0230
0301
0020
0032
,
2003
3100
0002
0203
,
2300
0000
0000
0000
3001
0000
0000
0000
0100
0000
0000
0001
0100
0000
0100
0010
,
0100
0001
0100
0010
1000
0100
0010
0001
,
1000
0010
0100
0001
0010
0001
1000
0100
,
0010
0001
0010
0000
0001
0100
0001
0000
1000
0010
1000
0000
0100
1000
0100
0000
,
2000
0000
3002
0000
0013
0000
0100
0010
,
1001
0100
0001
0010
0001
1000
0100
1000
,
0010
0100
0001
1000
0100
0010
0100
0010
,
0001
1000
0100
1000
0010
0100
1000
0100
,
0010
0100
0001
0100
0010
1000
0001
0010
,
0100
0000
0010
0001
0000
0000
1000
0001
0000
0000
0001
0100
0000
0000
1000
0100
,
0000
0000
0001
0010
0000
0000
1000
0010
0000
0000
0100
0010
0000
0000
0001
0010
,
0000
0000
0100
1000
0000
0000
0010
0100
0000
0000
0001
1000
0000
0000
1000
0100
,
0000
0000
0100
0010
0000
0000
0001
1000
0001
0000
0100
0000
0110
0000
0000
0000
,
1001
0010
0001
0100
0010
1000
1100
1000
,
0001
0000
0001
0000
0010
0000
0010
0000
0001
0000
0100
0010
0200
0000
0000
0000
,
0301
0010
0100
1000
0100
0010
0110
1000
,
0001
0000
0100
0000
1000
0000
0100
0000
0001
0000
1000
0100
0020
0000
0000
0000
,
0130
0000
1000
0100
0000
0000
0100
1000
0001
0000
1000
0100
0010
0000
0010
0100
,
0010
0000
0001
1000
0000
1000
0000
1000
0010
0000
1000
0001
0010
0000
0001
0000
,
0100
0000
0010
1000
0000
0000
0010
0100
0000
0000
0001
0010
0000
0000
0001
1000
,
0100
0010
0100
1000
0100
0010
0001
0000
,
2000
0000
0000
0000
,
3000
0000
0000
0000
;

//---------------dance-single - S-STANDARD----------------
#NOTES:
     dance-single:
     DJ OMiY-SSP:
     Medium:
     5:
     0.277989,0.356158,0.044631,0.357050,0.000000,218.000000,213.000000,5.000000,40.000000,0.000000,0.000000,0.277989,0.356158,0.044631,0.357050,0.000000,218.000000,213.000000,5.000000,40.000000,0.000000,0.000000:
0000
0000
0000
0000
,
0000
0000
0000
0000
,
0000
0000
0000
0000
,
0000
0000
0000
0000
,
0000
0000
0000
0000
,
0000
0000
0000
0000
,
0000
0000
0000
0000
,
0000
0000
0000
0000
,
2000
0000
0000
3200
0000
0000
0320
0000
,
0032
0000
0000
0000
1003
0100
1000
0000
,
0020
0000
0000
0230
0000
0000
0302
0000
,
0023
0000
0130
1000
,
0200
0000
0000
0002
0000
0000
0000
0000
,
0000
0303
0000
0100
,
2000
0000
0000
3020
0000
0000
0230
0000
,
0000
0000
0010
0301
,
0101
0000
0000
1000
0100
0000
0000
0001
,
0100
1000
0001
0100
,
0010
0000
0000
1000
0010
0000
0000
0001
,
0010
0000
1000
0001
,
0010
0100
0020
0030
,
0001
1000
0200
0300
,
1000
0001
2000
3000
,
0010
0000
0100
0000
0001
0000
1000
0001
,
0000
0001
0100
0000
0010
0000
1000
0100
,
0000
0100
0010
0000
0100
0000
1000
0002
,
0010
0000
0010
0000
0100
0000
0103
0002
,
1000
0000
1000
0000
1003
0001
1000
0010
,
0000
0010
0100
0000
0010
0000
1000
0001
,
0000
0001
1000
0000
0100
0000
0010
0200
,
1000
0000
1000
0000
0010
0000
0310
0200
,
1000
0010
1000
0310
,
0110
0010
0002
2003
,
3002
0103
0020
2030
,
3200
0310
0200
2300
,
3002
0023
0032
0103
,
0010
0000
1000
0002
0100
0000
1000
0000
,
0200
0303
1000
0001
,
0010
0001
1000
0100
0010
0000
0100
0000
,
2000
0000
3002
0000
0203
0000
0310
1000
,
0001
0100
0001
0000
1000
0100
1000
0000
,
0010
0100
0010
0000
1000
0100
1000
0000
,
0001
0010
0001
0000
1000
0010
1000
0000
,
0001
0100
0001
0000
1000
0000
0010
0010
,
0100
0001
0100
0000
0010
0100
0010
0000
,
1000
0100
1000
0000
0010
1000
0010
0000
,
0100
0001
0100
0000
0001
0010
0001
0000
,
1000
0100
1000
0000
0010
0000
0110
0000
,
1000
0100
0001
0000
0100
0000
1000
0000
,
0010
0000
0100
0000
0010
0100
0002
0000
,
0013
0100
1000
0000
1000
0100
0001
0000
,
0100
1000
0011
1100
,
0020
0100
1000
0130
,
0010
0000
0100
0000
0001
1000
0001
0000
,
0020
0001
0100
0031
,
1000
0001
1000
0001
0010
0100
1000
0000
,
0020
0000
0000
0000
,
0030
0000
0000
0000
;

//---------------dance-single - S-LIGHT----------------
#NOTES:
     dance-single:
     DJ OMiY-LSP:
     Easy:
     4:
     0.207854,0.279838,0.044631,0.196378,0.000000,163.000000,158.000000,5.000000,22.000000,0.000000,0.000000,0.207854,0.279838,0.044631,0.196378,0.000000,163.000000,158.000000,5.000000,22.000000,0.000000,0.000000:
0000
0000
0000
0000
,
0000
0000
0000
0000
,
0000
0000
0000
0000
,
0000
0000
0000
0000
,
0000
0000
0000
0000
,
0000
0000
0000
0000
,
0000
0000
0000
0000
,
0000
0000
0000
0000
,
0000
0000
0000
0000
,
1000
0001
0200
0000
,
0320
0000
0000
0000
,
2030
0000
0100
0100
,
0200
0000
0000
3300
0000
0000
0000
0000
,
0000
0000
0000
0010
,
0002
0000
0000
0003
0000
0000
0200
0000
,
0000
0000
0310
0100
,
0010
0000
1000
0000
,
0001
0010
0001
1000
,
0100
0000
1000
0000
,
0010
0000
0100
0100
,
0001
0002
0013
0000
,
1000
2000
3100
0000
,
0010
0020
0130
0000
,
0001
1000
0010
0100
,
0001
0010
0001
0000
,
1000
0100
1000
0010
,
0200
0010
0010
0310
,
0020
1000
1000
1030
,
0010
1000
0100
0010
,
0001
1000
0100
0001
,
0200
1000
1000
1000
,
2300
0001
0001
3001
,
0010
0010
0001
1000
,
0010
0010
1000
0001
,
0010
0010
0001
1000
,
0010
0100
0001
1000
,
0200
0000
0020
0000
,
0000
0330
0001
1000
,
0001
0100
1000
0010
,
0002
2003
0002
3003
,
0110
0001
1000
0100
,
1000
0010
0001
0010
,
1000
0100
1000
0001
,
0010
0100
1000
0001
,
0010
1000
0001
0100
,
1000
0010
0100
0001
,
1000
0001
0010
0001
,
1000
0100
0100
0100
,
0110
0001
1000
1001
,
0010
0010
0100
0100
,
0001
0100
0001
0010
,
0100
0100
1000
1100
,
2002
0000
3003
0010
,
0001
0100
1000
0010
,
0001
1000
0100
1000
,
0100
0010
0100
2000
,
0002
0000
0000
0000
,
3003
0000
0000
0000
;

//---------------dance-single - BEGINNER----------------
#NOTES:
     dance-single:
     DJ OMiY-BEG:
     Beginner:
     1:
     0.107115,0.178079,0.008926,0.169599,0.000000,84.000000,83.000000,1.000000,19.000000,0.000000,0.000000,0.107115,0.178079,0.008926,0.169599,0.000000,84.000000,83.000000,1.000000,19.000000,0.000000,0.000000:
// measure 0
0000
0000
0000
0000
,  // measure 1
0000
0000
0000
0000
,  // measure 2
0000
0000
0000
0000
,  // measure 3
0000
0000
0000
0000
,  // measure 4
0000
0000
0000
0000
,  // measure 5
0000
0000
0000
0000
,  // measure 6
0000
0000
0000
0000
,  // measure 7
0000
0000
0000
0000
,  // measure 8
0000
0000
0000
0000
,  // measure 9
1000
0000
0001
0000
,  // measure 10
2000
0000
3000
0000
,  // measure 11
0020
0000
0030
0000
,  // measure 12
2000
0000
3000
0000
,  // measure 13
0200
0000
0300
0000
,  // measure 14
0020
0000
0030
0000
,  // measure 15
0002
0000
0003
0000
,  // measure 16
0100
0000
0001
0000
,  // measure 17
0200
0300
0000
0000
,  // measure 18
0010
0000
1000
0000
,  // measure 19
0001
0000
0010
0000
,  // measure 20
0200
0000
0300
0000
,  // measure 21
0020
0000
0030
0000
,  // measure 22
0002
0000
0000
0000
,  // measure 23
0003
0000
0000
0000
,  // measure 24
1000
1000
1000
0000
,  // measure 25
0001
0001
0001
0000
,  // measure 26
2000
0000
3000
0000
,  // measure 27
0020
0000
0030
0000
,  // measure 28
0100
0100
0100
0000
,  // measure 29
0001
0001
0001
0000
,  // measure 30
2000
0000
3000
0000
,  // measure 31
0200
0000
0000
0000
,  // measure 32
0300
0000
0010
0010
,  // measure 33
0010
0000
0001
0001
,  // measure 34
0001
0000
1000
1000
,  // measure 35
1000
0000
0001
0000
,  // measure 36
2000
0000
0000
0000
,  // measure 37
0000
0000
3000
0000
,  // measure 38
0020
0000
0030
0000
,  // measure 39
0200
0000
0300
0000
,  // measure 40
1001
0000
1000
0000
,  // measure 41
0001
0000
1000
0000
,  // measure 42
0100
0000
0010
0000
,  // measure 43
0100
0000
1000
0000
,  // measure 44
0001
0000
0100
0000
,  // measure 45
0001
0000
0010
0000
,  // measure 46
0001
0000
0100
0000
,  // measure 47
0001
0000
0100
0000
,  // measure 48
0010
0000
1000
0000
,  // measure 49
0100
0100
0100
0000
,  // measure 50
0010
0000
0100
0000
,  // measure 51
1000
1000
1000
0000
,  // measure 52
0002
0000
0003
0000
,  // measure 53
0100
0100
0100
0000
,  // measure 54
0010
0000
1000
0000
,  // measure 55
0001
0001
0001
0000
,  // measure 56
0200
0000
0000
0000
,  // measure 57
0300
0000
0000
0000
;
