#VERSION:0.83;
#TITLE:jelly kiss;
#SUBTITLE:;
#ARTIST:Togo project feat. Sana;
#TITLETRANSLIT:;
#SUBTITLETRANSLIT:;
#ARTISTTRANSLIT:;
#GENRE:A.O.R.;
#ORIGIN:;
#CREDIT:;
#BANNER:jelly kiss-bn.png;
#BACKGROUND:jelly kiss-bg.png;
#PREVIEWVID:;
#JACKET:jelly kiss-jk.png;
#CDIMAGE:;
#DISCIMAGE:;
#LYRICSPATH:;
#CDTITLE:;
#MUSIC:jelly kiss.ogg;
#OFFSET:-0.405000;
#SAMPLESTART:63.293888;
#SAMPLELENGTH:17.777775;
#SELECTABLE:YES;
#BPMS:0.000=135.000;
#STOPS:;
#DELAYS:;
#WARPS:;
#TIMESIGNATURES:0.000=4=4;
#TICKCOUNTS:0.000=4;
#COMBOS:0.000=1;
#SPEEDS:0.000=1.000=0.000=0;
#SCROLLS:0.000=1.000;
#FAKES:;
#LABELS:0.000=Song Start;
#LASTSECONDHINT:115.960556;
#BGCHANGES:;
#KEYSOUNDS:;
#ATTACKS:
;

//---------------dance-single - S-HEAVY----------------
#NOTEDATA:;
#CHARTNAME:DJ OMiY-HSP;
#STEPSTYPE:dance-single;
#DESCRIPTION:S-HEAVY;
#CHARTSTYLE:;
#DIFFICULTY:Hard;
#METER:8;
#RADARVALUES:0.428095,0.511227,0.236357,0.413624,0.126620,355.000000,327.000000,28.000000,49.000000,0.000000,0.000000,0.000000,0.000000,0.000000,0.428095,0.511227,0.236357,0.413624,0.126620,355.000000,327.000000,28.000000,49.000000,0.000000,0.000000,0.000000,0.000000,0.000000;
#CREDIT:DJ OMiY;
#NOTES:
// measure 0
0000
0000
0000
0000
,  // measure 1
0000
0000
0000
0000
,  // measure 2
0000
0000
0000
0000
,  // measure 3
0000
0000
0000
0000
,  // measure 4
1000
0000
0200
0000
0000
0001
0000
2300
,  // measure 5
0000
0000
0000
0000
0000
0000
3010
0000
0000
0000
0100
0000
0000
0000
0001
1000
,  // measure 6
0001
0000
0020
0000
0000
0001
0000
0200
,  // measure 7
0000
0000
0000
0330
,  // measure 8
2000
0000
3002
0000
0000
0010
0000
0100
,  // measure 9
0000
0000
0000
0000
0000
0000
1003
0000
0000
0000
0010
0000
0000
0000
1000
0001
,  // measure 10
2000
0000
3020
0000
0000
0001
0000
0130
,  // measure 11
0010
0100
0001
0000
1000
0000
0001
0100
0000
0100
0000
0000
0010
0000
0000
0000
,  // measure 12
0110
0000
1000
0100
1000
0002
0100
0013
,  // measure 13
0000
0000
0100
1000
0000
1000
0001
0100
,  // measure 14
0010
0000
0100
0001
1000
0020
1000
0130
,  // measure 15
0002
0000
0000
0000
0000
0000
0000
0000
0000
0000
0000
0000
0100
0000
0000
0000
0000
0000
1000
0000
0003
0000
0000
0000
0000
0000
0000
0001
0000
0000
0000
0000
0000
0000
0000
0000
1000
0000
0000
0000
0000
0000
0000
0000
0000
0000
0000
0000
,  // measure 16
0110
0000
1000
0001
0010
0200
1000
0310
,  // measure 17
0000
0000
0000
0000
0100
0000
1000
0000
0000
0000
0001
0000
0100
0000
0001
0010
,  // measure 18
0002
0000
1003
0100
0000
0010
0010
0100
,  // measure 19
1000
0001
0000
0010
0001
0000
1000
0000
0000
0000
0010
0000
1000
0000
0001
0000
,  // measure 20
0020
0000
1030
0010
0000
0001
0100
0010
,  // measure 21
0110
0000
1001
0000
0000
0000
0000
0000
0000
0000
0010
1000
0010
1000
0010
0000
,  // measure 22
0100
0001
0010
0000
1000
0100
0000
0101
,  // measure 23
0000
0000
0000
0002
0000
0000
2003
0000
,  // measure 24
3100
1000
0010
0000
0001
0100
0000
0110
,  // measure 25
0000
0000
0000
1000
0000
0000
0100
0000
,  // measure 26
1001
0000
0001
1000
0010
0200
0001
0310
,  // measure 27
0100
0000
0001
1000
0001
0000
0100
0000
0000
0000
0010
0000
0100
0000
0001
0000
,  // measure 28
0010
0010
0100
1000
0100
0020
0100
0031
,  // measure 29
2000
0000
0000
0000
0000
0000
3010
0000
1000
0000
0001
0000
,  // measure 30
0110
0000
1001
0001
0100
1000
0100
0001
,  // measure 31
1000
0010
0000
0010
1000
0000
0100
0000
0000
0000
0010
0000
0100
0000
1000
0010
,  // measure 32
0100
0000
0001
0200
0000
0320
1000
0130
,  // measure 33
0002
0000
0103
0100
0001
1000
0100
1000
,  // measure 34
0010
0000
0100
0002
0000
2003
0100
3010
,  // measure 35
0110
1001
0000
0000
0000
0000
0000
0000
,  // measure 36
0010
0100
1001
0000
0010
1000
0010
0101
,  // measure 37
0000
0000
0100
0010
0000
0010
1000
0000
,  // measure 38
0100
1000
0110
0000
0010
0100
0010
2001
,  // measure 39
0000
3200
0000
0320
0000
0031
0100
0010
,  // measure 40
0100
0001
0010
0200
0000
0310
0100
1000
,  // measure 41
0100
0001
0100
0020
0000
0031
0100
1000
,  // measure 42
0200
0000
0302
0000
0000
0013
0000
0110
,  // measure 43
0000
0000
1000
0020
0100
0000
0230
0000
,  // measure 44
0301
0000
1010
0000
0000
0101
1000
0001
,  // measure 45
0020
0000
0000
0000
0000
0000
0031
0000
0000
0100
0000
0000
0001
0000
0010
0000
0100
0000
1000
0000
0100
0000
0010
0000
,  // measure 46
0001
0000
1000
0000
0000
0000
0100
0020
0000
0000
0000
0000
0130
0000
0000
0000
,  // measure 47
1000
0000
0001
0000
0000
0000
0001
0200
0000
0000
0000
0000
0310
0000
0000
0000
,  // measure 48
1000
0000
0100
0000
0100
0000
1000
0002
0000
0000
0000
0000
0013
0000
0010
0000
,  // measure 49
0100
0000
0010
0000
0100
0000
1000
0002
0000
0000
0000
0000
0103
0000
0000
0000
,  // measure 50
0010
0000
0100
0000
0001
1000
0100
0020
0000
0000
0000
0000
0130
0000
1000
0000
,  // measure 51
1000
0000
0010
0000
1000
0100
1000
0100
0000
0000
0001
0000
0200
0000
0000
0000
,  // measure 52
0000
0000
0000
0300
,  // measure 53
0000
0000
0000
0000
1000
0001
0110
0000
,  // measure 54
0001
0010
0001
1100
0000
0000
1000
0100
,  // measure 55
0000
0100
0001
0100
1000
0010
1001
0000
,  // measure 56
0010
0100
1000
0201
0000
0320
0000
2030
,  // measure 57
0000
3100
1000
0010
0100
0001
0010
2000
,  // measure 58
0000
3010
0001
0100
0010
1000
0100
0002
,  // measure 59
0000
0103
0010
0001
0100
0000
2020
0000
,  // measure 60
3030
0011
0001
1100
0000
0010
0000
0100
,  // measure 61
0000
0000
0001
0000
0000
1000
0100
0000
0010
0000
0000
0000
1001
0000
0000
0000
,  // measure 62
0010
0101
0000
2002
0000
0000
0000
0000
,  // measure 63
0000
0000
0000
3003
;

//---------------dance-single - S-STANDARD----------------
#NOTEDATA:;
#CHARTNAME:DJ OMiY-SSP;
#STEPSTYPE:dance-single;
#DESCRIPTION:S-STANDARD;
#CHARTSTYLE:;
#DIFFICULTY:Medium;
#METER:5;
#RADARVALUES:0.313534,0.376694,0.236357,0.168826,0.033765,260.000000,232.000000,28.000000,20.000000,0.000000,0.000000,0.000000,0.000000,0.000000,0.313534,0.376694,0.236357,0.168826,0.033765,260.000000,232.000000,28.000000,20.000000,0.000000,0.000000,0.000000,0.000000,0.000000;
#CREDIT:DJ OMiY;
#NOTES:
0000
0000
0000
0000
,
0000
0000
0000
0000
,
0000
0000
0000
0000
,
0000
0000
0000
0000
,
0010
0000
0100
0000
0000
0001
0000
1000
,
0000
0000
0000
0100
0000
0100
0000
0010
,
0100
0000
1000
0000
0000
0001
0000
0100
,
0000
0000
0000
0000
,
0010
0000
0100
0000
0000
0001
0000
0010
,
0000
0000
0000
0100
0000
1000
0000
0010
,
0100
0000
0010
0000
0000
1000
0000
0100
,
1000
0000
0001
0000
1000
0000
0001
1000
,
0110
0000
0100
0000
0001
1000
0000
1001
,
0000
0000
0000
0001
0000
0100
0000
0001
,
0010
0000
0001
0000
1000
0100
0000
2200
,
0000
0000
0000
3300
,
0011
0000
0001
0000
0100
0010
0000
0110
,
0000
0000
0000
1000
0000
0001
0000
0001
,
0020
0001
0000
0130
,
0010
0001
1000
0010
,
0200
0010
0000
0301
,
0100
0010
0000
0000
0000
0000
0000
0000
,
0001
0000
0101
0000
1000
0100
0000
0100
,
0000
0000
0000
0020
0000
0000
0032
0000
,
1003
0000
1001
0000
0000
0100
0000
0010
,
2000
0000
0000
0100
0000
0000
3001
0000
,
1001
0000
0010
0000
0100
0001
1000
0010
,
0000
0000
0000
0100
0000
0001
0000
0000
,
1000
0000
0100
0000
0010
0100
1000
0002
,
2000
0000
0000
3003
0000
0000
0010
0000
0100
0000
0010
0000
,
0100
0000
0110
0000
0001
0010
1000
0010
,
0000
0000
0000
0001
0000
0100
0000
0000
,
0010
0000
1000
0100
0000
1000
0000
0000
,
0010
0000
0100
0001
0000
0001
0100
0010
,
0100
0000
0001
1000
0000
0010
0000
0000
,
0100
0010
0000
0000
0000
0000
0000
0000
,
1001
0000
0110
0000
0001
1000
0000
1001
,
0000
0000
1000
0100
0000
0001
0100
0000
,
1001
0000
0110
0000
1000
0001
0000
2000
,
0000
3020
0000
0230
0000
0000
0301
0000
,
1000
0100
0001
0100
1000
1000
0000
0001
,
0000
1000
0000
0010
0100
0010
1000
0000
,
0100
0000
1001
0000
0000
0110
0000
1001
,
0000
0000
1000
0100
0001
0000
0001
0000
,
0100
0000
1100
0000
0000
0101
0000
1010
,
0000
0000
0002
0203
,
0310
0000
0000
0000
1000
0000
0000
0100
0000
0000
1000
0000
0001
0000
0000
0000
,
0100
0000
0000
0000
0010
0000
0000
0010
0000
0000
0100
0000
0001
0000
0000
0000
,
1000
0000
0000
0000
0001
0000
0000
0010
0000
0000
0001
0000
1000
0000
1000
0000
,
0000
0000
0000
0000
0010
0000
0000
0100
0000
0000
0010
0000
1000
0000
0001
0000
,
0000
0000
0000
0000
0010
0000
0000
0001
0000
0000
1000
0000
0010
0000
0100
0000
,
0000
0000
0000
0000
0001
0000
0000
0001
0000
0000
1000
0000
0200
0000
0000
0000
,
0000
0000
0300
0000
,
0100
0100
1001
0110
,
0001
1000
0000
1001
0000
0000
0001
0100
,
0000
0100
0001
0000
1100
0000
0011
0000
,
0010
0100
0000
2000
0000
3002
0000
0023
,
0000
0000
0130
0000
1000
0001
0100
0001
,
1000
0010
0000
1000
0000
0100
0000
0001
,
0000
0100
0010
0001
0100
0000
0110
0000
,
0000
0001
0000
1000
0000
0010
0000
0100
,
0000
0001
0000
0010
0100
0000
0110
0000
,
0000
1200
0000
0002
0000
0000
0000
0000
,
0000
0000
0000
0303
;

//---------------dance-single - S-LIGHT----------------
#NOTEDATA:;
#CHARTNAME:DJ OMiY-LSP;
#STEPSTYPE:dance-single;
#DESCRIPTION:S-LIGHT;
#CHARTSTYLE:;
#DIFFICULTY:Easy;
#METER:2;
#RADARVALUES:0.155561,0.215253,0.143502,0.185709,0.000000,129.000000,112.000000,17.000000,22.000000,0.000000,0.000000,0.000000,0.000000,0.000000,0.155561,0.215253,0.143502,0.185709,0.000000,129.000000,112.000000,17.000000,22.000000,0.000000,0.000000,0.000000,0.000000,0.000000;
#CREDIT:DJ OMiY;
#NOTES:
0000
0000
0000
0000
,
0000
0000
0000
0000
,
0000
0000
0000
0000
,
0000
0000
0000
0000
,
1000
0000
0001
0000
,
1000
0000
0001
0000
,
1000
0000
0001
0000
,
1000
0000
0000
0000
,
0010
0000
0100
0000
,
0010
0000
0100
0000
,
0010
0000
0100
0000
,
0020
0000
0000
0030
,
1001
0000
0001
0100
,
0000
0000
0001
0000
,
1000
0000
0100
0010
,
0000
0000
0000
0000
,
1001
0000
0010
1000
,
0000
0000
0100
0000
,
2000
0000
0000
3000
,
0001
0000
1000
0000
,
0002
0000
0000
0003
,
1001
0000
0000
0000
,
0110
0110
0000
0000
,
0000
0000
1000
0001
,
1001
1001
0000
0000
,
0020
0000
0000
0030
,
1001
0000
0010
0001
,
0000
0000
1000
0000
,
0001
0000
0100
0001
,
0000
0000
0020
0030
,
0110
0000
0100
0001
,
0000
0000
1000
0000
,
0001
0000
1000
0000
,
0001
0000
1000
0000
,
0010
0000
0100
0000
,
0110
0000
0000
0000
,
2002
3003
0100
0000
,
0001
0000
0010
0000
,
0220
0330
1000
0000
,
0001
0000
1000
0000
,
2002
3003
0010
0000
,
0220
0330
0001
0001
,
2000
0000
0000
3000
,
1000
0000
0001
0000
,
1000
1000
0000
0000
,
0001
0000
0200
0300
,
0010
0000
0100
0000
,
0001
0000
0100
0000
,
0010
0000
1000
0100
,
1000
0000
0100
0000
,
0010
0000
0001
1000
,
0000
0010
0100
0020
,
0000
0000
0000
0030
,
0000
0000
2002
3003
,
0010
0000
1000
0000
,
0100
0000
0220
0330
,
0001
0000
0010
0010
,
0010
0000
0100
0000
,
1000
0000
0010
0100
,
0010
0000
1000
0000
,
0001
0000
1000
0000
,
0010
0000
0110
0000
,
0000
0002
0000
2000
0000
0000
0000
0000
,
0000
0000
0000
3003
;

//---------------dance-single - ----------------
#NOTEDATA:;
#CHARTNAME:;
#STEPSTYPE:dance-single;
#DESCRIPTION:;
#CHARTSTYLE:;
#DIFFICULTY:Beginner;
#METER:1;
#RADARVALUES:0.106119,0.157958,0.067530,0.143502,0.000000,88.000000,80.000000,8.000000,17.000000,0.000000,0.000000,0.000000,0.000000,0.000000,0.106119,0.157958,0.067530,0.143502,0.000000,88.000000,80.000000,8.000000,17.000000,0.000000,0.000000,0.000000,0.000000,0.000000;
#CREDIT:;
#NOTES:
0000
0000
0000
0000
,
0000
0000
0000
0000
,
0000
0000
0000
0000
,
0000
0000
0000
0000
,
2000
0000
3000
0000
,
0002
0000
0003
0000
,
2000
0000
3000
0000
,
0001
0000
0000
0000
,
0200
0000
0300
0000
,
0020
0000
0030
0000
,
0200
0000
0300
0000
,
0010
0000
0000
0000
,
1001
0000
0000
0000
,
0010
0000
0100
0000
,
0010
0000
0000
0000
,
1000
0000
0000
0000
,
1001
0000
0000
0000
,
0010
0000
0001
0000
,
0010
0000
0000
0000
,
0100
0000
0000
0000
,
1000
0000
0000
0000
,
0010
0000
0000
0000
,
0100
0100
0000
0000
,
0000
0000
0001
0000
,
0010
0010
0000
0000
,
0000
0000
0100
0000
,
1001
0000
0000
0000
,
0010
0000
1000
0000
,
0010
0000
0000
0000
,
0200
0000
0300
0000
,
0001
0001
0000
0000
,
1000
0000
0000
0000
,
0100
0100
0000
0000
,
1000
0000
0001
0000
,
1000
1000
0000
0000
,
0010
0000
0000
0000
,
2002
3003
0000
0000
,
0000
0000
0100
0000
,
2002
3003
0000
0000
,
0010
0000
0010
0000
,
0100
0100
0000
0000
,
0010
0010
0000
0000
,
2002
0000
0000
0000
,
3003
0000
0100
0000
,
0002
0003
0000
0000
,
0000
0000
1000
1000
,
1000
0000
0000
0000
,
0100
0000
0000
0000
,
0010
0000
0001
0000
,
1000
0000
0010
0000
,
0100
0000
0000
0000
,
0001
0000
0000
0020
,
0000
0000
0000
0000
,
0030
0000
0001
0001
,
0000
0000
0100
0000
,
0010
0000
1000
1000
,
0000
0000
0100
0000
,
0010
0000
0100
0100
,
0000
0000
0010
0010
,
0000
0000
1001
0000
,
0000
0000
0010
0000
,
0100
0000
2002
0000
,
0000
0003
0000
3000
0000
0000
0000
0000
;
