#TITLE:jelly kiss;
#SUBTITLE:Midihead's SMAK Mix;
#ARTIST:Togo project feat. Sana;
#TITLETRANSLIT:;
#SUBTITLETRANSLIT:;
#ARTISTTRANSLIT:;
#GENRE:Hard House;
#CREDIT:;
#BANNER:jelly kiss Midihead's SMAK Mix-bn.png;
#BACKGROUND:jelly kiss Midihead's SMAK Mix-bg.png;
#LYRICSPATH:;
#CDTITLE:;
#MUSIC:jelly kiss Midihead's SMAK Mix.ogg;
#OFFSET:-0.426000;
#SAMPLESTART:63.314888;
#SAMPLELENGTH:14.222229;
#SELECTABLE:YES;
#DISPLAYBPM:135.000000;
#BPMS:0.000000=135.000000
,199.000000=67.500000
,201.000000=135.000000
;
#STOPS:
;
#BGCHANGES:;
#KEYSOUNDS:;
#ATTACKS:;

//---------------dance-single - S-HEAVY----------------
#NOTES:
     dance-single:
     DJ OMiY-HSP:
     Hard:
     7:
     0.408794,0.447856,0.118096,0.218023,0.086301,315.000000,302.000000,13.000000,24.000000,0.000000,0.000000,0.408794,0.447856,0.118096,0.218023,0.086301,315.000000,302.000000,13.000000,24.000000,0.000000,0.000000:
0000
0000
0000
0000
,
0000
0000
0000
0000
,
0000
0000
0000
0000
,
0000
0000
0000
0000
,
1000
0000
0000
0000
0101
0000
0000
0000
0001
0000
0000
0001
0000
0000
1000
0000
,
0001
0000
0000
0000
0110
0000
0000
0000
1000
0000
0000
0010
0000
0000
0100
0000
,
0010
0000
0000
0000
1001
0000
0000
0000
0001
0000
0000
1000
0000
0000
0010
0000
,
0100
0000
0000
0100
0000
0000
0010
0000
0100
0000
0000
0000
0001
0000
2000
0000
,
0100
0000
0000
0000
0001
0000
0000
0000
3010
0000
0000
1000
0000
0000
0100
0000
,
0010
0000
0110
0000
1002
0000
2003
0100
,
3100
0110
0001
1001
,
0110
0000
1001
0000
0010
1000
0100
0001
,
0100
0000
1000
0010
0100
0001
1000
0100
,
1000
0000
0010
0100
0000
0100
0001
0100
,
0010
0000
0100
0001
0010
0100
1000
0001
,
0100
0000
0001
0010
1000
0000
1000
0010
,
0001
0000
0100
0010
0100
0001
1000
0100
,
0010
0000
0100
1000
0000
0100
0001
0100
,
0020
0001
1000
0031
,
0200
0000
1300
0100
0000
0100
0001
0100
,
0020
0100
1000
0130
,
0002
0000
1000
0000
0013
0100
1000
0000
,
0010
0100
0002
0000
1000
0000
0200
0000
,
0303
0010
2000
0000
0100
0000
0002
0000
,
3003
0000
0100
0001
0020
0000
0230
0000
,
0300
0000
1000
0000
0201
0000
0310
1000
,
0001
0000
0100
0001
0010
0001
1000
0010
,
0100
0000
0010
1000
0000
0100
0010
0100
,
1000
0000
0001
0100
0001
1000
0100
0001
,
0200
1000
0320
0001
,
0130
0000
1000
0010
0100
0010
1000
1000
,
0001
0000
0010
0100
0000
0010
0001
1000
,
0002
0010
0100
2003
,
0100
0000
3010
1000
0000
1000
0001
0010
,
0100
1000
0100
1000
0100
0000
0000
0000
0100
0000
0000
0000
0100
0000
0000
0000
,
0010
0001
0010
0001
0010
0000
0100
0000
0000
0000
0100
0000
1000
0000
0001
0000
,
0010
0000
0001
0000
1000
0000
0000
0001
0000
0000
0100
0000
0001
0000
0000
0000
,
1000
0010
1000
0100
0000
0001
0100
0000
,
1000
0000
0001
0000
0100
0000
0000
0010
0000
0000
0100
0000
0001
0000
0000
0000
,
0010
0100
0010
0002
0000
0103
0100
0001
,
1000
0100
1000
0002
0000
0010
0013
0001
,
0100
0100
0100
0020
0000
1030
0100
1000
,
0001
1100
1000
0101
,
0010
1001
0001
0010
,
0001
0000
0000
0000
1000
0000
0000
0100
0000
0000
0010
0000
0001
0000
0000
0000
,
0100
0000
0000
0000
0001
0000
0000
0010
0000
0000
0100
0000
1000
0000
0000
0000
,
0010
0000
0000
0000
0100
0000
0000
0001
0000
0000
1000
0000
0010
0000
0100
0000
,
0000
0000
0010
0000
1000
0000
0000
0001
0000
0000
0001
0000
0010
0000
0100
0000
,
0000
0000
0000
0000
1000
0000
0000
1000
0000
0000
1000
0000
0100
0000
0001
0000
,
0100
0000
0000
0000
0010
0000
0000
0001
0000
0000
0100
0000
0020
0000
0000
0000
,
0000
0000
0030
0000
1000
0100
0010
0001
,
1000
0000
0010
0000
0100
0000
0000
0001
0000
0000
0010
0000
0100
0000
0000
0000
,
0010
0001
0100
1000
0000
0100
0001
0000
,
1000
0000
0010
0000
1000
0000
0000
0100
0000
0000
1000
0000
0010
0000
0000
0000
,
0100
0001
0010
0001
0000
0001
0100
0010
,
0100
1000
0100
0001
0000
0010
0100
1000
,
0001
0001
0001
0200
0000
0310
1000
0001
,
0020
0000
0000
0000
,
0030
0000
0000
0000
;

//---------------dance-single - S-CHALLENGE----------------
#NOTES:
     dance-single:
     DJ OMiY-CSP:
     Challenge:
     9:
     0.542463,0.553234,0.208939,0.199855,0.345203,418.000000,395.000000,23.000000,22.000000,0.000000,0.000000,0.542463,0.553234,0.208939,0.199855,0.345203,418.000000,395.000000,23.000000,22.000000,0.000000,0.000000:
0000
0000
0000
0000
,
0000
0000
0000
0000
,
0000
0000
0000
0000
,
0000
0000
0000
0000
0102
0000
1003
0010
,
0100
0000
0000
0100
0000
0000
0001
0000
0010
0000
0000
0001
0000
0000
1000
0000
,
0001
0000
0000
0001
0000
0000
0100
0000
1000
0000
0000
0100
0000
0000
0010
0000
,
0100
0000
0000
0100
0000
0000
0001
0000
0010
0000
0000
0100
0000
0000
1000
0000
,
0010
0000
0100
0001
0000
0100
0001
0000
2000
0000
0000
0000
3100
0000
0010
0000
,
0100
0000
0000
0100
0000
0000
1000
0000
0001
0000
0000
0100
0000
0000
0001
0000
,
1000
0000
0000
1000
0000
0000
0100
0000
0010
0000
0000
0001
0020
0000
0001
0000
,
0230
1000
0320
0001
,
0130
0000
1000
0000
0001
0000
1000
0000
0010
0000
0100
0000
0001
0010
0100
0010
,
0001
0000
1000
0100
0010
0100
1000
0001
,
0100
0000
0010
1000
0000
0010
0001
0010
,
0100
0000
0001
0010
0100
1000
0001
0100
,
0001
0000
0000
0000
0000
0000
1000
0000
0000
0001
0010
0001
0010
0000
0000
0000
0000
0000
0100
0000
0000
1000
0010
1000
,
0010
0000
0100
0001
0010
0001
0100
1000
,
0100
0000
0000
0000
0010
0000
1000
0000
0000
0000
1000
0000
0100
0000
0010
0001
,
0100
0000
0000
0100
0000
0000
0001
0000
0010
0000
0000
0010
0000
0000
0001
0000
,
1000
0000
0000
1000
0000
0000
0010
0000
0100
0000
0001
1000
0100
0000
0010
0000
,
0100
0000
0000
0100
0000
0000
1000
0000
0001
0000
0000
0001
0000
0000
0100
0000
,
1000
0000
0000
1000
0000
0000
0100
0000
0001
0000
0010
0100
1000
0000
0100
0000
,
0010
0001
1000
0000
1100
0000
0101
0000
,
0010
0001
0100
0000
0110
0000
1001
0000
,
0001
0000
0100
0010
1000
0000
1100
0000
,
0010
0001
1000
0010
0210
0000
0320
1000
,
0130
0001
0100
0001
1000
0000
0100
0000
1000
0000
0010
0000
0001
0000
0010
0000
,
0100
0010
0100
0010
1000
0000
0200
0000
0000
0000
0310
0000
0100
0000
1000
0000
,
0001
0010
0001
0010
0100
0000
1000
0000
0010
0000
0100
0000
0010
0000
1000
0000
,
0202
0303
2002
3003
,
1000
0010
1000
0010
0100
0000
0001
0000
1000
0000
0001
0000
0100
0000
0010
0000
,
1000
0100
1000
0100
0010
0000
0001
0000
0000
0000
0100
0000
0001
0000
1000
0001
,
0010
0100
0010
0100
1000
0000
0010
0000
0100
0000
0000
0001
0000
0000
1000
0000
,
0001
0010
0001
0010
0100
0000
0010
0000
0000
0000
0001
0000
0100
0000
1000
0000
,
0100
0010
0100
0010
1000
0000
0100
0000
1000
0000
0000
0001
0000
0000
0010
0000
,
0001
1000
0001
1000
0100
0000
0010
0000
0000
0000
0100
0000
1000
0000
0001
0000
,
0100
0000
0010
0000
0110
0000
0001
1000
0000
1000
0100
0000
1000
0000
0010
0000
,
0100
0001
1000
0200
0000
0001
1300
0100
,
1000
0000
0010
0000
1010
0000
0100
0001
0000
0001
0010
0000
0001
0000
1000
0000
,
0010
0100
0010
2000
0000
0001
3100
1000
,
0001
0100
1100
0002
0000
1003
0001
0010
,
0001
1000
0110
2000
0000
3100
0100
1000
,
0010
0100
0101
0000
0010
0001
1100
0000
,
0010
0100
1010
0000
0200
0000
0302
0000
,
0013
0000
0000
0000
0001
0000
1000
0100
0000
0100
0000
0000
0110
0000
0000
0000
,
0001
0000
0000
1000
0100
1000
0000
0010
0000
0000
0100
0000
0100
0000
0000
0000
,
0001
0000
0000
0000
1010
0000
0000
0100
0001
0100
0010
0000
1000
0000
0001
0000
,
0010
0000
0000
0000
0110
0000
1000
0100
0000
1000
0100
0000
0010
0000
0010
0000
,
0001
0000
0000
1000
0001
0100
0000
0001
0000
0000
0010
0000
0010
0000
0100
0000
,
1000
0000
0000
0000
0010
0100
0001
0100
0000
0000
0010
0000
2000
0000
0000
0000
,
0000
0000
3000
0001
0000
0001
0100
0010
,
0100
0000
0001
0000
0101
0000
1000
0001
0000
0010
0001
0000
1000
0000
0010
0000
,
0100
0000
0001
0000
0010
0000
1000
0010
0000
0001
0010
0000
0001
0000
0100
0000
,
0010
0000
0100
0000
1001
0000
1000
0100
0000
0010
0001
0000
0100
0000
0001
0000
,
0010
0000
1000
0000
0010
0000
0001
1000
0000
1000
0100
0000
1000
0000
0010
0000
,
0100
0001
0011
2000
0000
3100
1000
0100
,
0001
0000
0000
0100
0000
0000
0110
0000
0000
2000
0000
0000
0000
0000
0000
3010
0000
0000
0100
0001
0100
0001
0000
0000
,
0020
0000
0000
0000
,
0030
0000
0000
0000
;

//---------------dance-single - S-STANDARD----------------
#NOTES:
     dance-single:
     DJ OMiY-SSP:
     Medium:
     5:
     0.298484,0.342478,0.054506,0.236192,0.000000,230.000000,224.000000,6.000000,26.000000,0.000000,0.000000,0.298484,0.342478,0.054506,0.236192,0.000000,230.000000,224.000000,6.000000,26.000000,0.000000,0.000000:
// measure 0
0000
0000
0000
0000
,  // measure 1
0000
0000
0000
0000
,  // measure 2
0000
0000
0000
0000
,  // measure 3
0000
0000
0000
0000
,  // measure 4
0200
0000
0000
0001
0301
0000
1000
0000
,  // measure 5
0020
0000
1030
0100
,  // measure 6
2000
0000
0000
0001
3001
0000
0100
0000
,  // measure 7
0001
0000
1000
0000
0001
0000
0100
0020
,  // measure 8
0000
1000
0000
1030
,  // measure 9
0100
1000
1002
0100
,  // measure 10
2003
3000
0002
0003
,  // measure 11
0100
0000
0010
0000
1000
0001
0010
0000
,  // measure 12
0001
0000
1000
0000
0100
0000
1000
0010
,  // measure 13
0000
0000
0000
1000
0000
1000
0100
0000
,  // measure 14
1000
0000
0001
0000
0010
0000
0001
0100
,  // measure 15
0010
0000
0000
1000
1000
0000
0000
0001
,  // measure 16
0001
0000
0010
0000
1000
0000
0010
0001
,  // measure 17
0000
0000
0000
1000
0000
0001
0100
0000
,  // measure 18
0010
0010
1000
1000
,  // measure 19
0100
0000
0100
0010
0000
0000
0001
1000
,  // measure 20
0010
1000
0001
0010
,  // measure 21
0001
0000
0100
0000
0010
0100
0001
0000
,  // measure 22
1000
0100
0020
0000
0032
0000
0203
0000
,  // measure 23
0300
0010
0200
0000
0302
0000
2003
0000
,  // measure 24
3000
0000
0010
0100
0002
0000
0023
0000
,  // measure 25
0030
0100
2100
0001
,  // measure 26
3100
0000
1000
0000
0010
0100
0010
2000
,  // measure 27
0000
0000
3000
0001
0000
0001
0100
0000
,  // measure 28
0010
0000
1000
0000
0010
0100
0001
1000
,  // measure 29
0200
0000
2300
0000
,  // measure 30
3020
0000
0100
0000
0100
0000
0130
0001
,  // measure 31
0100
0000
0000
0001
0000
1000
0001
0000
,  // measure 32
0010
0010
0001
0001
,  // measure 33
1000
0000
1000
0100
0000
0100
1000
0000
,  // measure 34
0010
0100
0010
0100
,  // measure 35
0001
0000
1000
0001
0000
0001
1000
0000
,  // measure 36
0010
0100
0002
0000
0003
0000
0100
0000
,  // measure 37
0010
0000
0100
0010
0000
0010
0100
0000
,  // measure 38
0001
0010
0200
0000
0300
0000
1000
0000
,  // measure 39
0100
0000
1000
0010
0000
0010
0100
0000
,  // measure 40
0001
1000
0001
0010
0000
0000
0100
0000
,  // measure 41
0010
0001
1000
0100
0000
0000
1000
0000
,  // measure 42
0001
1100
1000
1100
,  // measure 43
0001
0101
0001
0101
,  // measure 44
1000
0010
1000
0100
,  // measure 45
0010
0000
0001
0000
0100
0100
0001
0000
,  // measure 46
0000
0010
0001
0100
,  // measure 47
1000
0000
0100
0000
0001
0000
0010
0010
,  // measure 48
0000
0100
0010
0100
,  // measure 49
1000
0000
0100
0000
0010
0001
0200
0000
,  // measure 50
0000
0300
0010
0010
,  // measure 51
1000
0010
0200
0000
0300
0000
0001
0000
,  // measure 52
0100
0000
0010
1000
0000
1000
0010
0000
,  // measure 53
0100
0001
0020
0000
0030
0000
0100
0000
,  // measure 54
1000
0000
0100
0010
0000
0010
0100
0000
,  // measure 55
1000
0001
1000
0010
0000
0000
0100
0000
,  // measure 56
0001
0010
0001
0100
0000
0000
0010
0000
,  // measure 57
2000
0000
0000
0000
,  // measure 58
3000
0000
0000
0000
;

//---------------dance-single - S-LIGHT----------------
#NOTES:
     dance-single:
     DJ OMiY-LSP:
     Easy:
     3:
     0.194664,0.263445,0.127180,0.227108,0.000000,150.000000,136.000000,14.000000,25.000000,0.000000,0.000000,0.194664,0.263445,0.127180,0.227108,0.000000,150.000000,136.000000,14.000000,25.000000,0.000000,0.000000:
0000
0000
0000
0000
,
0000
0000
0000
0000
,
0000
0000
0000
0000
,
0000
0000
0000
0000
,
0020
0030
2000
3000
,
0200
0300
2000
3000
,
0002
0003
0200
0300
,
0010
0010
0010
1000
,
0200
0300
2000
3000
,
0020
0030
0100
0100
,
0001
0000
1000
0000
,
0001
1000
0010
0010
,
1001
0000
0100
0001
,
0000
0000
1000
0100
,
1000
1000
0010
0100
,
0000
0000
0010
0000
,
0100
0001
0010
0100
,
0000
0000
1000
0010
,
0200
0000
0001
0000
,
0010
0000
0301
0000
,
0002
0000
1000
0000
,
0100
0000
1003
0000
,
0010
0100
0001
0100
,
0000
0010
1000
0010
,
0000
1000
0100
0010
,
0000
0100
0100
0100
,
1001
0000
0100
1000
,
0000
0000
0010
0100
,
0001
0001
1000
0010
,
0100
0000
0001
0000
,
1000
0010
0100
0010
,
0000
0000
1000
0001
,
0200
0000
0001
0000
,
0010
0000
0301
0000
,
0020
0000
1000
0000
,
0100
0000
1030
0010
,
1001
1001
0000
0100
,
0000
0010
0100
0010
,
1001
1001
0000
0100
,
0000
0001
1000
0001
,
2002
3003
0100
0000
,
2002
3003
0010
0000
,
0001
0010
0000
0010
,
0000
0010
0000
0010
,
0100
0000
1000
0000
,
0100
0000
1000
0000
,
0010
0000
0100
0000
,
0001
0000
1000
0000
,
0010
0000
0001
0000
,
0010
0000
2000
0002
,
0000
3003
0000
0000
,
0110
0110
0000
1000
,
0000
0001
0010
0001
,
0110
0110
0000
1000
,
0000
0100
1000
0010
,
0220
0330
1000
0000
,
0220
0330
0001
2000
,
0002
0000
0000
0000
,
3003
0000
0000
0000
;

//---------------dance-single - S-BEGINNER----------------
#NOTES:
     dance-single:
     DJ OMiY-BEG:
     Beginner:
     1:
     0.110309,0.184411,0.099927,0.272529,0.000000,85.000000,74.000000,11.000000,30.000000,0.000000,0.000000,0.110309,0.184411,0.099927,0.272529,0.000000,85.000000,74.000000,11.000000,30.000000,0.000000,0.000000:
0000
0000
0000
0000
,
0000
0000
0000
0000
,
0000
0000
0000
0000
,
0000
0000
0000
0000
,
1000
0000
0000
0000
,
0001
0000
1000
0000
,
0010
0000
0000
0000
,
0100
0000
0100
0000
,
0020
0000
0000
0000
,
0030
0000
1000
0000
,
0100
0000
0100
0000
,
0010
0010
0010
0010
,
0010
0000
0000
0000
,
0001
0000
1000
0000
,
0001
0000
0000
0000
,
0100
0000
0010
0000
,
0100
0000
0000
0000
,
0001
0000
1000
0000
,
0020
0000
0000
0000
,
0030
0000
0000
0000
,
0200
0000
0000
0000
,
0300
0000
0000
0000
,
0000
0002
0000
0003
,
0000
2000
0000
3000
,
0000
0100
0100
0000
,
0000
0010
0010
0000
,
1001
0000
0000
0000
,
0100
0000
0010
0000
,
1000
0000
0000
0000
,
0100
0000
0010
0000
,
0001
0000
0000
0000
,
1000
0000
0001
0000
,
0010
0000
0000
0000
,
0100
0000
0010
0000
,
0002
0000
0003
0000
,
2000
0000
3000
0000
,
2002
3003
0000
0000
,
0000
0100
0100
0000
,
2002
3003
0000
0000
,
0000
0010
0010
0000
,
2002
3003
0000
0000
,
0220
0330
0000
0000
,
2002
0000
0000
0000
,
3003
0000
0000
0000
,
0100
0000
0100
0000
,
0002
0000
0003
0000
,
0010
0000
0010
0000
,
0200
0000
0300
0000
,
1000
0000
1000
0000
,
0001
0000
0100
0200
,
0000
0300
0000
0000
,
2002
3003
0000
0000
,
0000
0100
0100
0000
,
2002
3003
0000
0000
,
0000
0010
0010
0000
,
2002
3003
0000
0000
,
0220
0330
0000
0000
,
2002
0000
0000
0000
,
3003
0000
0000
0000
;
