#TITLE:dumb dumb;
#SUBTITLE:;
#ARTIST:Red Velvet;
#TITLETRANSLIT:;
#SUBTITLETRANSLIT:;
#ARTISTTRANSLIT:;
#GENRE:Frenzy House;
#CREDIT:;
#BANNER:dumb dumb-bn.png;
#BACKGROUND:dumb dumb-bg.png;
#LYRICSPATH:;
#CDTITLE:;
#MUSIC:dumb dumb.ogg;
#OFFSET:-1.648000;
#SAMPLESTART:34.106781;
#SAMPLELENGTH:13.150684;
#SELECTABLE:YES;
#BPMS:0.000000=146.000000
;
#STOPS:
;
#BGCHANGES:;
#KEYSOUNDS:;
#ATTACKS:;

//---------------dance-single - S-HEAVY----------------
#NOTES:
     dance-single:
     DJ OMiY-HSP:
     Hard:
     8:
     0.508361,0.597630,0.163521,0.218028,0.070080,457.000000,436.000000,21.000000,28.000000,0.000000,0.000000,0.508361,0.597630,0.163521,0.218028,0.070080,457.000000,436.000000,21.000000,28.000000,0.000000,0.000000:
// measure 0
0000
0000
0000
0000
,  // measure 1
0000
0000
0000
0000
,  // measure 2
0000
0000
0000
0000
,  // measure 3
0000
0000
0000
1000
0001
1000
0001
1000
,  // measure 4
0010
0100
0001
0100
0010
1000
0100
0010
,  // measure 5
0001
1000
0001
0010
0100
0000
0000
1000
,  // measure 6
0010
0100
0001
0010
1000
0010
0001
0010
,  // measure 7
0100
1000
0001
0100
0010
0000
0100
0000
,  // measure 8
0001
0000
0000
0010
0000
0000
0001
0000
0000
1000
0000
0000
0100
0000
0000
0000
,  // measure 9
0010
0000
0010
0000
0010
0001
0100
0000
,  // measure 10
0010
0000
0010
1000
0000
1000
0001
0000
0001
0100
0000
0100
0010
0000
0000
0000
,  // measure 11
0100
0000
0000
0000
0100
0000
0000
0000
0100
0001
0000
0001
0100
0000
0000
0000
,  // measure 12
0010
1000
0000
0001
0000
0010
0000
0001
,  // measure 13
0000
1000
0000
0010
0000
1000
0100
0010
,  // measure 14
0001
1000
0000
0010
0000
0100
0000
1000
,  // measure 15
0000
0100
0000
0001
0000
0010
0001
1000
,  // measure 16
0010
0000
0000
0100
0000
0000
0001
0000
0000
1000
0000
0000
0010
0000
0000
0000
,  // measure 17
1000
0000
1000
0000
1000
0100
0010
0001
,  // measure 18
0100
0000
0100
0010
0000
0010
0100
0000
0100
0001
0000
0001
0010
0000
0100
0000
,  // measure 19
1000
1100
0000
0101
0100
0000
0010
0100
,  // measure 20
0001
0000
2100
0000
3010
1000
0100
0000
,  // measure 21
0010
0000
0012
0000
0103
0001
0010
0001
,  // measure 22
1000
0001
0100
0001
1000
0001
0010
0001
,  // measure 23
0100
0100
0100
0000
0010
0100
0010
0000
,  // measure 24
0010
0000
2010
0000
3001
0010
0001
0100
,  // measure 25
0010
0000
0102
0000
1003
0001
1000
0100
,  // measure 26
1000
0010
0100
0001
0010
0100
0010
0001
,  // measure 27
1000
0000
0000
0001
1000
0000
0010
0000
0100
0000
0001
0000
0010
0000
0100
0000
,  // measure 28
1000
0000
0100
0100
0000
0010
0100
0000
,  // measure 29
1000
0000
0100
0100
0000
0010
0100
0000
,  // measure 30
1001
0000
0010
0010
0000
0001
0010
0000
,  // measure 31
0100
0000
0010
0010
0000
0001
0010
0000
,  // measure 32
1000
0100
0001
0100
1000
0000
0001
0000
,  // measure 33
0100
0000
0000
0002
0000
0000
2000
0000
0000
0000
3003
0000
0001
0000
0100
0000
,  // measure 34
0010
1000
0100
0000
0010
0000
0100
1000
,  // measure 35
0002
0100
0103
0001
2000
0100
3100
1000
,  // measure 36
1001
0001
0000
1000
0100
1000
0000
0001
,  // measure 37
0100
0001
0000
1000
0100
1000
0000
0010
,  // measure 38
0100
0001
0000
0010
0100
1000
0000
1000
,  // measure 39
0100
0010
0000
0100
1000
0001
0001
0010
,  // measure 40
0001
0000
1000
0010
0100
0001
0100
0010
,  // measure 41
1000
0000
0010
0100
0001
1000
0100
0000
,  // measure 42
0220
0000
0000
0330
,  // measure 43
2000
0100
3100
1000
0002
0100
0103
0001
,  // measure 44
2000
0000
0000
3100
0100
0000
0100
0000
,  // measure 45
0010
0000
0010
0001
0010
0000
0001
0000
,  // measure 46
0002
0000
0000
0000
0103
0001
0100
0000
,  // measure 47
0010
0000
0010
0100
0010
0000
1000
0000
,  // measure 48
2000
0000
0000
0001
3001
0100
0010
0100
,  // measure 49
1000
0100
0010
0100
0002
0000
0000
1003
,  // measure 50
0001
0100
1000
0010
,  // measure 51
0001
0000
0110
0000
1001
0000
0010
0100
,  // measure 52
1001
0000
0210
0000
0301
0100
0010
0000
,  // measure 53
1100
0000
0021
0000
0130
0010
0001
0100
,  // measure 54
1000
0100
0001
0010
0100
1000
0001
0100
,  // measure 55
0010
0010
0010
0000
1000
0001
1000
0000
,  // measure 56
0011
0000
1020
0000
0130
0001
0010
0100
,  // measure 57
1100
0000
0201
0000
0310
0100
0001
0100
,  // measure 58
1000
0100
0001
0010
0100
0010
0001
1000
,  // measure 59
0100
0000
0000
0100
0010
0000
0001
0000
1000
0000
0001
0000
0100
0000
0100
0000
,  // measure 60
0020
0000
1000
1000
0000
0000
1030
0000
,  // measure 61
0200
0000
0001
0001
0000
0000
0301
0000
,  // measure 62
1002
0000
0010
0010
0000
0000
0013
0000
,  // measure 63
0001
1000
0100
0010
0001
0010
0100
1000
,  // measure 64
0002
0000
0100
0100
0000
0000
0103
0000
,  // measure 65
2000
0000
0100
0100
0000
0000
3100
0000
,  // measure 66
1002
0000
0010
0010
0000
0000
0013
0000
,  // measure 67
1000
0001
1000
0001
1000
0001
1000
0001
,  // measure 68
0010
0000
0100
1000
0010
0000
0100
0001
,  // measure 69
0010
0010
0100
1000
0001
0100
0010
1000
,  // measure 70
0001
0100
0001
1000
0000
0000
0010
0100
,  // measure 71
0001
1000
0010
0100
0000
0000
0001
0010
,  // measure 72
0001
1000
0100
0010
0000
0000
0100
1000
,  // measure 73
0010
0100
0001
1000
0200
0000
0310
0001
,  // measure 74
0100
1000
0100
0001
0000
0000
0010
0001
,  // measure 75
1000
0000
0000
0100
1000
0000
0001
0000
0100
0000
0010
0000
0100
0000
0001
0000
,  // measure 76
0020
0000
0000
0030
;

//---------------dance-single - S-STANDARD----------------
#NOTES:
     dance-single:
     DJ OMiY-SSP:
     Medium:
     5:
     0.345952,0.414253,0.116801,0.163521,0.019467,311.000000,296.000000,15.000000,21.000000,0.000000,0.000000,0.345952,0.414253,0.116801,0.163521,0.019467,311.000000,296.000000,15.000000,21.000000,0.000000,0.000000:
0000
0000
0000
0000
,
0000
0000
0000
0000
,
0000
0000
0000
0000
,
0000
0000
0000
0000
1000
0100
0001
0000
,
1001
0010
0001
0100
,
1000
0000
0100
0001
0010
0000
0000
0000
,
1100
0001
0200
0320
,
1030
0000
0001
0010
0100
0000
0010
0000
,
0002
0000
0000
0003
0000
0000
2000
0000
0000
3000
0000
0000
0002
0000
0000
0000
,
0000
0000
0003
0000
0000
1000
0010
0000
,
2000
0000
0000
3000
0000
0000
0002
0000
0000
0003
0000
0000
2000
0000
0000
0000
,
0000
3000
0010
0010
,
0100
0001
0000
1000
0000
0001
0000
1000
,
0000
0010
0000
0100
0000
0001
0000
1000
,
0100
0010
0000
0100
0000
0010
0000
0100
,
0000
1000
0000
0001
0000
0010
0000
0100
,
0020
0000
0000
0030
0000
0000
0200
0000
0000
0300
0000
0000
0020
0000
0000
0000
,
0000
0000
0030
0000
0000
0001
1000
0000
,
0200
0000
0000
0300
0000
0000
0020
0000
0000
0030
0000
0000
0200
0000
0000
0000
,
0310
0001
0000
1001
0000
0000
1000
0000
,
0001
0000
0110
0000
1000
0001
1000
0000
,
0001
0000
0110
0000
1000
0100
1000
0000
,
0010
0100
0001
0000
1000
0100
0010
0000
,
0100
0100
0100
0000
1000
0000
1000
0000
,
0001
0110
1000
0001
,
1000
0000
0110
0000
0001
0100
0001
0000
,
1000
0100
1000
0000
0010
0100
0010
0000
,
1000
0000
0001
0000
0100
0010
0100
0000
,
0001
0001
0000
0000
1000
0000
1000
0000
,
0001
0000
0000
0100
0000
0000
1000
0000
0000
0000
0000
0000
0100
0000
0000
0000
,
0001
0001
1000
1000
0100
0000
1000
0000
,
0010
0000
0100
0100
0000
0100
0100
0000
,
0001
0010
1000
0000
0010
0000
0001
0000
,
2000
0000
0000
3020
0000
0000
0002
0000
0000
0000
0000
0000
0033
0000
0000
0000
,
0010
1000
0010
0100
,
0001
0010
0001
0000
1000
0100
1000
0000
,
0001
0000
0000
0001
0000
0000
0100
0000
0000
0000
0000
0000
1000
0000
0000
0000
,
1000
0000
0000
1000
0000
0000
0010
0000
0000
0000
0000
0000
0001
0000
0000
0000
,
0001
0000
0000
0001
0000
0000
0010
0000
0000
0000
0000
0000
0000
0000
0000
0000
,
1001
0000
0100
0010
,
1001
0000
1000
0000
0010
1000
0001
1000
,
0100
1000
0001
0100
,
0020
0000
0000
0030
,
0001
0100
1000
0010
,
0001
0000
0000
0000
1000
0000
1000
0100
,
1000
1000
1000
0010
,
0010
0000
0000
0000
0100
0001
0100
0000
,
0010
0010
0010
1000
,
1000
0000
0000
0000
0001
0010
0100
0000
,
1000
0100
0001
0000
,
0200
0000
0000
0000
,
0300
0000
0000
1000
,
1100
0000
0010
0001
,
0011
0000
0001
1000
,
0001
0010
1000
0000
1000
0010
0001
0000
,
0100
0100
0100
0000
0010
0100
0010
0000
,
1001
0000
0000
0000
1000
0001
0010
0000
,
1010
0000
0000
0000
0010
0100
0001
0000
,
1000
1000
1000
0000
0010
0010
0010
0000
,
0100
0000
0001
0000
0010
0010
0100
0000
,
0010
0000
0001
0001
0000
0000
0001
0000
,
1000
0000
0100
0100
0000
0000
0100
0000
,
1000
0000
0010
0010
0000
0000
0010
0000
,
1000
0001
0010
0100
,
1001
0000
0100
0100
0000
0000
0100
0000
,
0001
0000
0010
0010
0000
0000
0010
0000
,
0100
0000
1000
1000
0000
0000
1000
0000
,
0001
0001
0010
0010
,
1001
0000
0010
0100
0010
0000
1000
0000
,
0001
0001
0000
0000
0010
0000
0100
0000
,
1000
0010
0100
0001
0000
0000
0000
0000
,
0001
0010
0100
1000
0000
0000
0000
0000
,
0010
0100
0001
1000
0000
0000
0000
0000
,
0100
1000
0010
0100
0000
0000
0000
0000
,
0100
0001
0010
0100
0000
0000
0000
0000
,
1000
0000
0100
0100
0020
0000
0032
0000
,
0103
0000
0000
0000
;

//---------------dance-single - S-LIGHT----------------
#NOTES:
     dance-single:
     DJ OMiY-LSP:
     Easy:
     3:
     0.204679,0.236716,0.062294,0.140161,0.000000,184.000000,176.000000,8.000000,18.000000,0.000000,0.000000,0.204679,0.236716,0.062294,0.140161,0.000000,184.000000,176.000000,8.000000,18.000000,0.000000,0.000000:
0000
0000
0000
0000
,
0000
0000
0000
0000
,
0000
0000
0000
0000
,
0000
0000
0000
0000
,
1001
0010
0010
0000
,
1000
0100
0001
0000
,
0100
0000
0010
0010
,
0001
0100
1000
0000
,
0220
0000
0000
0330
,
0001
0001
0001
0001
,
2002
0000
0000
3003
,
0100
0100
0100
0100
,
0010
0000
0000
0000
,
1000
0001
1000
0000
,
0100
0000
0000
0000
,
0010
0001
0010
0000
,
2002
0000
0000
3003
,
0100
0100
0100
0100
,
0220
0000
0000
0330
,
0001
0000
1000
0001
,
1000
0000
0010
0100
,
0010
0000
1000
0100
,
1000
0001
0001
0100
,
0001
0000
0100
0010
,
0100
0000
0001
0010
,
0001
0000
1000
0010
,
0100
0100
0010
1000
,
0200
0000
0000
0300
,
1000
0000
0100
0100
,
0020
0000
0000
0030
0000
0000
0000
0000
,
0001
0001
1000
0000
,
0020
0000
0000
0030
0000
0000
0000
0000
,
0100
0000
0001
0000
,
1000
0100
1000
0000
,
0010
0000
1000
0100
,
0001
0000
0100
0000
,
1000
1000
1000
0000
,
0001
0001
0001
0000
,
0100
0001
0010
0000
,
0100
0000
1000
0001
,
1000
0000
0010
1000
,
0100
0000
1000
1000
,
0001
0000
0000
0000
,
0010
1000
0100
0010
,
0002
0000
0000
0000
,
0203
0000
0000
0000
,
0320
0000
0000
0000
,
2030
0000
0000
0000
,
3200
0000
0000
0000
,
0320
0000
0000
0000
,
0031
0000
0000
0000
,
0000
0000
0000
0000
,
1001
0000
0010
0100
,
0001
0000
1000
1000
,
0001
0001
1000
0001
,
0200
0300
0010
0000
,
1001
0000
0010
1000
,
0100
0000
1000
1000
,
0001
0001
0100
0001
,
1000
0000
0000
0000
,
0010
0000
0000
0100
,
0001
0000
0000
0010
,
0110
0000
0000
0000
,
1000
0100
0010
0001
,
1000
0000
0000
0010
,
0100
0000
0000
0001
,
0010
0000
0000
0100
,
1000
0100
0010
0001
,
1000
0000
0001
0000
,
0100
0000
0010
0010
,
1000
0000
0001
0000
,
0010
0100
0010
0001
,
1000
0000
0001
0000
,
0100
0000
0010
0010
,
0100
0000
0001
0000
,
1000
0100
0001
0010
,
1000
0000
0000
0000
;

//---------------dance-single - S-BEGINNER----------------
#NOTES:
     dance-single:
     DJ OMiY-BEG:
     Beginner:
     1:
     0.142385,0.207126,0.038934,0.031147,0.000000,128.000000,123.000000,5.000000,4.000000,0.000000,0.000000,0.142385,0.207126,0.038934,0.031147,0.000000,128.000000,123.000000,5.000000,4.000000,0.000000,0.000000:
0000
0000
0000
0000
,
0000
0000
0000
0000
,
0000
0000
0000
0000
,
0000
0000
0000
0000
,
1000
0000
0000
0000
,
0100
0100
0100
0000
,
1000
0000
0000
0000
,
0001
0001
0001
0000
,
0020
0000
0000
0000
,
0030
0000
0000
0100
,
0200
0000
0000
0000
,
0300
0000
0000
0000
,
1000
0000
0100
0000
,
1000
0000
0010
0000
,
0001
0000
0010
0000
,
1000
0000
0001
0000
,
0200
0000
0000
0000
,
0300
0000
0000
0010
,
0020
0000
0000
0000
,
0030
0000
1001
0000
,
0100
0000
0001
0001
,
0001
0000
1000
1000
,
1000
0000
0100
0000
,
0010
0000
0000
0000
,
0100
0000
1000
1000
,
1000
0000
0010
0010
,
0010
0000
0100
0000
,
0001
0000
0000
0000
,
0010
0000
0000
0000
,
0100
0000
0000
0000
,
1001
0000
0000
0000
,
0100
0000
0001
0000
,
1000
0000
0000
0000
,
0010
0000
0000
0000
,
0100
0000
0000
0000
,
0001
0001
0001
0001
,
0001
0000
0000
1000
,
1000
0000
0000
0100
,
0100
0000
0000
0000
,
0110
0000
0000
0000
,
0001
0000
0010
0010
,
0010
0000
0000
0000
,
0001
0000
0000
0000
,
1000
0000
0001
0000
,
1000
0000
0000
0000
,
0010
0000
1000
1000
,
1000
0000
0000
0000
,
0100
0000
0001
0001
,
0001
0000
0100
0000
,
0100
0000
0100
0000
,
1000
0000
0000
0000
,
0000
0000
0000
0000
,
1001
0000
1000
0000
,
0001
0000
1000
0000
,
0100
0000
0100
0000
,
0010
0000
0000
0000
,
1001
0000
0010
0000
,
0001
0000
0100
0000
,
1000
0000
0100
0000
,
0001
0000
0000
0000
,
1000
0000
0000
0100
,
0100
0000
0000
0010
,
0010
0000
0000
0000
,
0001
0001
0001
0001
,
0001
0000
0000
0000
,
1000
0000
0000
0000
,
0010
0000
0000
0000
,
0100
0100
0100
0100
,
0100
0000
0100
0000
,
0100
0000
0000
0000
,
0001
0000
1000
0000
,
0001
0000
0000
0000
,
0010
0000
0100
0000
,
1000
0000
0000
0000
,
0010
0000
0100
0000
,
0001
0000
1000
0000
,
0010
0000
0000
0000
;
