#TITLE:Z;
#SUBTITLE:;
#ARTIST:DM Ashura;
#TITLETRANSLIT:;
#SUBTITLETRANSLIT:;
#ARTISTTRANSLIT:;
#GENRE:Hardcore Trance;
#CREDIT:;
#BANNER:Z-bn.png;
#BACKGROUND:Z-bg.png;
#LYRICSPATH:;
#CDTITLE:;
#MUSIC:Z.ogg;
#OFFSET:-0.053000;
#SAMPLESTART:6.453000;
#SAMPLELENGTH:12.800000;
#LASTBEATHINT:591.000000;
#SELECTABLE:YES;
#BPMS:0.000000=300.000000
,288.000000=150.000000
,321.000000=300.000000
;
#STOPS:288.000000=2.800000
;
#BGCHANGES:;
#KEYSOUNDS:;
#ATTACKS:;

//---------------dance-single - ----------------
#NOTES:
     dance-single:
     :
     Hard:
     10:
     0.890974,1.000000,0.365528,0.060921,0.159918,763.000000,48.000000,8.000000,0.000000,0.000000,0.000000,0.890974,1.000000,0.365528,0.060921,0.159918,763.000000,48.000000,8.000000,0.000000,0.000000,0.000000:
// measure 0
0000
0000
0000
0000
,  // measure 1
0000
0000
0000
0000
,  // measure 2
0000
0000
0000
0000
,  // measure 3
0000
0000
0000
0000
,  // measure 4
0000
0000
0000
0000
,  // measure 5
0000
0000
0000
0000
,  // measure 6
0001
0100
0001
0100
0001
0100
0001
0100
,  // measure 7
0001
1000
0001
1000
0010
0100
0001
1000
,  // measure 8
0010
0100
0000
0100
0001
0000
0001
0010
,  // measure 9
0000
0010
0100
0000
1000
0000
0001
0000
,  // measure 10
1000
0010
0000
0010
0100
0000
0100
0001
,  // measure 11
0000
0001
1000
0000
0010
0000
0100
0000
,  // measure 12
0010
1000
0000
0010
0100
0000
0001
0100
,  // measure 13
0000
0001
1000
0000
0010
0000
1000
0000
,  // measure 14
0100
0010
0000
0100
1000
0000
0100
0010
,  // measure 15
0000
0001
1000
0000
0010
0000
0100
0000
,  // measure 16
0001
1000
0000
1000
0010
0000
0010
0100
,  // measure 17
0000
0100
0001
0000
1000
0000
0001
0000
,  // measure 18
1000
0010
0000
0010
0100
0000
0100
0001
,  // measure 19
0000
0001
0010
0000
0001
0000
1000
0000
,  // measure 20
0010
0100
0000
0001
0100
0000
0010
1000
,  // measure 21
0000
0100
1000
0000
0010
0000
1000
0000
,  // measure 22
0100
0010
0000
0100
1000
0000
0001
0100
,  // measure 23
0000
0010
1000
0000
0001
0100
0001
0000
,  // measure 24
1000
0000
0100
0010
0001
0000
0100
0010
,  // measure 25
1000
0010
0100
0000
0001
0000
0100
0000
,  // measure 26
0001
0000
1000
0001
0100
0000
0010
1000
,  // measure 27
0001
0010
0100
0000
0010
0000
0001
0000
,  // measure 28
1000
0000
0100
1000
0001
0000
0010
0100
,  // measure 29
1000
0100
0010
0000
0001
0000
1000
0000
,  // measure 30
0010
0000
0100
0001
0000
0001
1000
0000
,  // measure 31
1000
0010
0000
0010
0100
0000
0001
0000
,  // measure 32
0010
0000
0001
0100
0010
0000
0100
0001
,  // measure 33
1000
0010
1000
0000
0100
0000
1000
0000
,  // measure 34
0010
0000
1000
0001
0100
0000
0010
1000
,  // measure 35
0001
1000
0100
0000
1000
0000
0010
0000
,  // measure 36
0100
0000
0001
0100
0010
0000
0100
0001
,  // measure 37
1000
0100
0010
0000
0100
0000
1000
0000
,  // measure 38
0010
0100
0010
0100
0001
0100
0001
0100
,  // measure 39
0010
1000
0001
0010
0100
1000
0001
0010
,  // measure 40
0011
0100
1000
1100
,  // measure 41
0000
0000
0000
1000
0000
0000
0010
0000
0000
0100
0001
1000
,  // measure 42
0001
0100
0010
1001
,  // measure 43
0000
0000
0000
0101
0000
0000
1000
0000
0000
0100
1000
0100
,  // measure 44
1000
0000
0001
1001
,  // measure 45
0000
0000
0000
0010
0000
0000
0100
0000
0000
0001
0100
0001
,  // measure 46
0100
0000
0010
0100
0000
0010
1000
0000
,  // measure 47
0001
0000
0000
1000
0000
0000
0100
0000
0000
0010
0001
1000
,  // measure 48
0001
0100
0010
1010
,  // measure 49
0000
0000
0000
0100
0000
0000
0001
0000
0000
1000
0010
1000
,  // measure 50
0010
0000
0100
0110
,  // measure 51
0000
0000
0000
1000
0000
0000
1100
0000
0000
0010
0001
0010
,  // measure 52
0100
0010
0001
1100
,  // measure 53
0000
0000
0000
0001
0000
0000
0100
0000
0000
0010
1000
0010
,  // measure 54
1000
0000
0001
0100
0000
0001
1000
0000
,  // measure 55
0100
0000
0010
0000
0001
1000
0002
0000
,  // measure 56
0103
0010
1000
0000
0010
0100
0001
0000
,  // measure 57
0010
0001
1000
0000
0010
1000
0200
1300
,  // measure 58
0001
0100
0010
0000
1000
0100
0010
0000
,  // measure 59
0001
1000
0001
0000
0010
0001
2000
3001
,  // measure 60
0100
0010
0100
0000
0001
0010
0100
0000
,  // measure 61
1000
0100
0010
0000
0001
1000
0002
0103
,  // measure 62
0010
0000
1000
0001
0000
0100
0010
0000
,  // measure 63
0100
0000
0000
0001
0000
0000
0010
0000
0000
0100
1000
0100
,  // measure 64
1000
0001
0100
0000
0010
1000
0001
0000
,  // measure 65
0010
0001
1000
0000
0010
0100
0002
0013
,  // measure 66
0100
0010
0001
0000
1000
0010
0100
0000
,  // measure 67
0001
1000
0100
0000
1000
0010
0200
0301
,  // measure 68
1000
0010
0100
0000
0001
0010
0001
0000
,  // measure 69
1000
0100
1000
0000
0010
0000
0110
0000
,  // measure 70
0100
0010
0100
0010
1000
0010
1000
0010
,  // measure 71
0100
0001
1000
0100
0010
0001
0010
0100
,  // measure 72
2000
0000
3000
0000
0101
0000
0000
0000
1000
0000
0000
0000
0010
0000
0000
1000
,  // measure 73
0000
0000
0100
0000
0010
0000
0000
0100
0000
0000
0001
0000
0100
0000
0000
1000
,  // measure 74
0000
0000
0001
0000
0100
0000
0000
0000
0010
0000
1000
0010
0100
0000
0000
0000
,  // measure 75
0001
0000
1000
0000
0000
0000
0001
0010
0100
1000
0100
0010
0001
0000
0000
0000
,  // measure 76
0100
0010
1010
0000
0100
0001
0000
1000
,  // measure 77
0001
0000
1000
0000
0100
0000
0000
0010
0000
0000
0001
0000
0000
0000
0000
0000
,  // measure 78
0100
0000
0010
0000
0110
0000
0000
0000
1000
0000
0001
0100
0001
0000
0000
1000
,  // measure 79
0000
0000
0100
0000
0010
0000
0001
0000
0100
0000
0010
0000
1000
0001
1000
0001
,  // measure 80
0100
0010
0100
0010
0100
0000
0000
0000
0001
0000
0000
0000
1000
0000
0000
0000
,  // measure 81
0100
0000
1000
0000
0010
0100
0001
0000
,  // measure 82
0010
0000
0100
0000
1000
0001
0010
0000
,  // measure 83
0001
0000
0100
0000
0001
0010
0100
0000
,  // measure 84
1000
0001
0100
0010
,  // measure 85
0100
0001
1000
0000
0010
0000
1000
0000
,  // measure 86
0100
0000
0010
0001
0100
0000
0001
0010
,  // measure 87
0100
0000
0010
0100
1000
0000
0010
1000
,  // measure 88
0100
1000
0010
0100
,  // measure 89
0001
1000
0001
0010
,  // measure 90
0001
0000
0100
0000
0001
0100
0010
0000
,  // measure 91
0100
0000
0001
0000
1000
0010
0100
0000
,  // measure 92
0001
1000
0100
0100
,  // measure 93
0010
0001
0100
0000
0010
0000
0010
0000
,  // measure 94
1000
0100
0010
0001
1000
0010
1000
0001
,  // measure 95
0010
0100
0010
0001
1000
0010
0100
0001
,  // measure 96
0010
0100
1000
0001
0000
0001
1000
0000
,  // measure 97
1000
0010
0000
0010
0100
0000
0101
0000
,  // measure 98
1010
0000
1000
0100
0000
0100
0010
0000
,  // measure 99
0010
0001
0000
0001
1000
0000
0101
0000
,  // measure 100
0011
0000
0010
0100
0000
0100
0010
0000
,  // measure 101
0010
0001
0000
0001
1000
0000
0110
0000
,  // measure 102
1001
0000
0010
1000
0000
1000
0001
0000
,  // measure 103
0001
0100
0000
0100
0001
0000
0011
0000
,  // measure 104
1010
0000
0100
0001
0000
0100
0010
0000
,  // measure 105
1000
0010
0000
0100
0001
0000
1001
0000
,  // measure 106
1010
0000
0001
0100
0000
0001
0010
0000
,  // measure 107
0100
1000
0000
0010
0100
0000
0110
0000
,  // measure 108
0101
0000
0010
1000
0000
0100
1000
0000
,  // measure 109
0100
0010
0000
0001
0100
0000
0101
0000
,  // measure 110
1010
0000
0001
0010
0000
0100
1000
0000
,  // measure 111
0010
1000
0000
0001
0100
0000
0110
0000
,  // measure 112
1001
0000
0001
0100
0001
0000
1000
0000
,  // measure 113
0100
1000
0000
0001
0100
0000
0001
0000
,  // measure 114
1001
0000
0100
0000
0010
0100
0010
0000
,  // measure 115
1000
0001
1000
0100
0010
0000
1100
0000
,  // measure 116
0010
0000
0011
0000
1000
0001
0100
0000
,  // measure 117
0010
1000
0001
1000
0100
0000
0010
0000
,  // measure 118
0100
0000
1000
0100
0000
0100
1000
0000
,  // measure 119
0001
0100
0000
0100
0001
0000
1000
0000
,  // measure 120
0011
0000
0001
1000
0010
0000
1000
0000
,  // measure 121
0100
0010
0000
0100
1000
0000
0001
0000
,  // measure 122
1010
0000
0100
0000
0001
1000
0001
0000
,  // measure 123
0010
0001
0010
0100
1000
0000
0001
0000
,  // measure 124
0101
0000
1010
0000
0100
0001
0100
0000
,  // measure 125
0010
1000
0001
1000
0100
0000
1000
0000
,  // measure 126
1001
0000
0001
0010
0001
1000
0001
0100
,  // measure 127
0001
1000
0100
1000
0001
0010
0100
1000
,  // measure 128
0100
0010
0001
0000
1000
0000
0100
0000
,  // measure 129
0110
0001
1000
0010
,  // measure 130
0100
0001
0100
0001
0000
0000
1000
0000
0000
0001
0000
0000
,  // measure 131
1010
0001
1001
0011
,  // measure 132
0010
0100
0010
0100
0000
0000
1000
0000
0000
0001
0000
0000
,  // measure 133
1001
0010
0001
0100
,  // measure 134
0001
0000
0010
0000
0001
0000
0010
0000
0000
0000
0000
0000
0001
0000
0000
1000
0000
0000
0000
0000
0000
1000
0000
0000
,  // measure 135
0010
0100
0010
1000
,  // measure 136
0010
0100
0010
0100
0000
0000
0001
0000
0000
1000
0000
0000
,  // measure 137
0101
0001
1000
0100
,  // measure 138
1000
0001
1000
0001
0000
0000
0010
0000
0000
0100
0000
0000
,  // measure 139
1100
1000
0101
0101
,  // measure 140
1000
0100
1000
0100
0000
0000
0010
0000
0000
0001
0000
0000
,  // measure 141
1001
0010
0001
0100
,  // measure 142
1010
0000
0010
1000
0001
0100
0001
0010
,  // measure 143
0100
0010
0001
1000
0010
0100
0001
1000
,  // measure 144
0001
0100
0002
0000
0000
0000
0000
0000
,  // measure 145
0000
0000
0000
0000
,  // measure 146
0000
0000
0000
0003
;

//---------------dance-single - ----------------
#NOTES:
     dance-single:
     :
     Medium:
     8:
     0.610301,0.726391,0.121843,0.281761,0.019038,508.000000,16.000000,37.000000,0.000000,0.000000,0.000000,0.610301,0.726391,0.121843,0.281761,0.019038,508.000000,16.000000,37.000000,0.000000,0.000000,0.000000:
// measure 0
0000
0000
0000
0000
,  // measure 1
0000
0000
0000
0000
,  // measure 2
0000
0000
0000
0000
,  // measure 3
0000
0000
0000
0000
,  // measure 4
0000
0000
0000
0000
,  // measure 5
0000
0000
0000
0000
,  // measure 6
0000
0000
0000
0000
,  // measure 7
0010
1000
0010
1000
0010
1000
0010
1000
,  // measure 8
0001
0000
0000
0100
0000
0000
0000
0010
,  // measure 9
0000
1000
0000
0000
0100
0000
0010
0000
,  // measure 10
0001
0000
0000
0010
0000
0000
0000
0001
,  // measure 11
0000
1000
0000
0000
0010
0000
0100
0000
,  // measure 12
0001
0000
0000
1000
0000
0000
0000
0100
,  // measure 13
0000
0010
0000
0000
0100
0000
1000
0000
,  // measure 14
0001
0000
0000
0100
0000
0000
0000
0010
,  // measure 15
0000
1000
0000
0000
0001
0000
0010
0000
,  // measure 16
0001
0000
0000
0100
0000
0000
0000
0001
,  // measure 17
0000
1000
0000
0000
0100
0000
0010
0000
,  // measure 18
0100
0000
0000
1000
0000
0000
0000
0001
,  // measure 19
0000
0100
0000
0000
1000
0000
0100
0000
,  // measure 20
0001
0000
0000
0010
0000
0000
0000
0100
,  // measure 21
0000
1000
0000
0000
0001
0000
1000
0000
,  // measure 22
0001
0000
0000
0010
0000
0000
0000
1000
,  // measure 23
0000
0010
0000
0000
0001
0000
1000
0000
,  // measure 24
1100
0010
0001
1000
,  // measure 25
0010
0100
0001
1000
,  // measure 26
0100
1000
0010
0100
,  // measure 27
0001
0010
0200
0300
,  // measure 28
1000
0001
0100
0001
,  // measure 29
0010
0100
1000
0001
,  // measure 30
0100
0001
1000
0010
,  // measure 31
0100
0001
0010
0010
,  // measure 32
0100
1000
0100
0010
,  // measure 33
0001
1000
0001
0100
,  // measure 34
1000
0100
0001
1000
,  // measure 35
0001
0100
0002
0003
,  // measure 36
1000
0100
1000
0001
,  // measure 37
0100
0010
1000
0100
,  // measure 38
1000
0001
1000
0001
,  // measure 39
0100
0010
0100
0010
1000
0001
1000
0001
,  // measure 40
0100
0010
0100
0020
,  // measure 41
0030
1000
0100
2000
,  // measure 42
3002
0003
0100
0002
,  // measure 43
0013
0002
2003
3020
,  // measure 44
0230
0300
0000
0020
,  // measure 45
1030
0100
0010
0001
,  // measure 46
2000
0000
3000
0002
0000
0003
0200
0000
,  // measure 47
0310
1000
0001
0020
,  // measure 48
0032
0003
1000
0020
,  // measure 49
0130
0001
1000
0020
,  // measure 50
0230
0300
0001
2000
,  // measure 51
3001
2000
3020
0230
,  // measure 52
0302
0003
0010
0002
,  // measure 53
0103
0001
1000
0100
,  // measure 54
2000
0000
3000
0002
0000
0003
0020
0000
,  // measure 55
0030
0001
0100
0010
,  // measure 56
1000
0100
1000
0001
,  // measure 57
0100
0001
0010
0100
,  // measure 58
1000
0010
0100
0001
,  // measure 59
1000
0000
0010
0000
0100
0000
0001
1000
,  // measure 60
0001
0100
0001
0010
,  // measure 61
0100
1000
0010
0100
,  // measure 62
0001
0000
0000
1000
0000
0000
0001
0000
,  // measure 63
0000
0100
0010
1000
,  // measure 64
0001
0010
0001
1000
,  // measure 65
0010
0001
0010
1000
,  // measure 66
0001
0100
0001
1000
,  // measure 67
0100
0000
0010
0000
0001
0000
1000
0001
,  // measure 68
1000
0010
1000
0001
,  // measure 69
1000
0001
0010
0100
,  // measure 70
1000
0010
1000
0010
,  // measure 71
0100
0001
0100
0001
0100
0001
0100
0001
,  // measure 72
0100
0000
0000
0000
0010
0000
0000
0000
0000
0000
0000
0000
1000
0000
0000
0010
,  // measure 73
0000
0000
0100
0000
0001
0000
0000
0100
0000
0000
0010
0000
1000
0000
0000
0001
,  // measure 74
0000
0010
0100
0000
0000
1000
0001
0000
,  // measure 75
0001
0200
0000
0000
0000
0000
0300
0000
,  // measure 76
0010
1000
1001
0000
0000
0010
0000
0000
,  // measure 77
0001
0000
0100
0000
0010
0000
0000
0100
0000
0000
0001
0000
0000
0000
0000
0000
,  // measure 78
1000
0000
0100
0000
1100
0000
0000
0000
0010
0000
0100
0000
1000
0000
0000
0001
,  // measure 79
0000
0100
0010
0000
1000
0000
0100
0010
,  // measure 80
0002
1003
0100
1000
,  // measure 81
0100
0010
0001
0010
,  // measure 82
0001
0010
1000
0010
,  // measure 83
1000
0010
0100
0010
,  // measure 84
0100
1000
0001
1000
,  // measure 85
0001
0100
0001
0100
,  // measure 86
0001
0010
0100
1000
,  // measure 87
0100
0010
0001
1000
,  // measure 88
0010
0100
0001
0100
,  // measure 89
0001
0100
0010
0100
,  // measure 90
0010
1000
0100
1000
,  // measure 91
0100
0001
0100
0001
,  // measure 92
0100
2000
3000
0001
,  // measure 93
0100
0010
0200
0000
0300
0000
0001
0000
,  // measure 94
0010
0100
0020
0000
0030
0000
0001
0000
,  // measure 95
1000
0001
2000
0000
3000
0000
0010
0000
,  // measure 96
0100
0010
0100
0000
0000
0001
0000
0000
,  // measure 97
0000
0010
0000
0001
0000
0000
1000
0000
,  // measure 98
0001
0000
0100
0000
0000
0010
0000
0000
,  // measure 99
0000
1000
0000
0100
0000
0000
0010
0000
,  // measure 100
0100
0000
1000
0000
0000
0001
0000
0000
,  // measure 101
0000
0010
0000
0100
0000
0000
1000
0000
,  // measure 102
0001
0000
0010
0000
0000
0001
0000
0000
,  // measure 103
0000
0100
0000
0010
0000
0000
0100
0000
,  // measure 104
0001
0000
0010
0000
0000
0100
0000
0000
,  // measure 105
0000
1000
0000
0010
0000
0000
1000
0000
,  // measure 106
0001
0000
0100
0000
0000
0001
0000
0000
,  // measure 107
0000
0010
0000
0001
0000
0000
1000
0000
,  // measure 108
0010
0000
0100
0000
0000
0010
0000
0000
,  // measure 109
0000
1000
0000
0100
0000
0000
0010
0000
,  // measure 110
0001
0000
0100
0000
0000
1000
0000
0000
,  // measure 111
0000
0100
0000
0001
0000
0000
0010
0000
,  // measure 112
0001
1001
0000
0000
,  // measure 113
0101
0000
0000
0010
,  // measure 114
1000
1001
0000
0000
,  // measure 115
0110
0000
0001
0200
,  // measure 116
0300
1001
0000
0000
,  // measure 117
1100
0000
0000
1000
,  // measure 118
0100
0000
0010
0000
0000
0001
0000
0000
,  // measure 119
0100
0000
0000
1000
0000
0000
0010
0000
,  // measure 120
0001
1001
0000
0000
,  // measure 121
1100
0000
0000
0010
,  // measure 122
0001
0101
0000
0000
,  // measure 123
1010
0000
0001
2000
,  // measure 124
3000
0110
0000
0000
,  // measure 125
0011
0000
0000
1000
,  // measure 126
0100
1000
0010
0100
,  // measure 127
0001
0000
1000
0001
1000
0001
1000
0001
,  // measure 128
1000
0001
0100
0000
0010
0000
1000
0000
,  // measure 129
0100
1000
0001
0100
,  // measure 130
0001
1000
0100
0010
,  // measure 131
0001
0100
0010
0100
,  // measure 132
0001
1000
0100
1000
,  // measure 133
0001
0010
0100
1000
,  // measure 134
0001
0000
1000
0000
0001
0100
0001
0000
,  // measure 135
1000
0010
0100
0001
,  // measure 136
1000
0101
0001
1000
,  // measure 137
0100
0010
0100
1000
,  // measure 138
0001
1000
0001
0000
0010
0000
0100
0000
,  // measure 139
0010
0001
1000
0100
,  // measure 140
1000
0001
1000
0000
0010
0000
0100
0000
,  // measure 141
0001
0010
0100
1000
,  // measure 142
0010
0100
0001
1000
,  // measure 143
0100
0000
1000
0001
1000
0001
1000
0001
,  // measure 144
1000
0001
0200
0000
0000
0000
0000
0000
,  // measure 145
0000
0000
0000
0000
,  // measure 146
0000
0000
0000
0300
;

//---------------dance-single - ----------------
#NOTES:
     dance-single:
     :
     Easy:
     6:
     0.479755,0.614639,0.190379,0.357913,0.000000,369.000000,25.000000,47.000000,0.000000,0.000000,0.000000,0.479755,0.614639,0.190379,0.357913,0.000000,369.000000,25.000000,47.000000,0.000000,0.000000,0.000000:
// measure 0
0000
0000
0000
0000
,  // measure 1
0000
0000
0000
0000
,  // measure 2
0000
0000
0000
0000
,  // measure 3
0000
0000
0000
0000
,  // measure 4
0000
0000
0000
0000
,  // measure 5
0000
0000
0000
0000
,  // measure 6
0000
0000
0000
0000
,  // measure 7
0000
0000
0000
0000
,  // measure 8
0001
0010
0001
0000
,  // measure 9
1000
0010
0100
0000
,  // measure 10
0001
1000
0100
0000
,  // measure 11
0010
0100
1000
0000
,  // measure 12
0010
0100
0001
0000
,  // measure 13
1000
0001
0010
0000
,  // measure 14
0100
1000
0001
0000
,  // measure 15
0010
0001
0100
0000
,  // measure 16
0010
1000
0001
0000
,  // measure 17
0100
0010
1000
0000
,  // measure 18
0100
1000
0001
0000
,  // measure 19
1000
0010
0001
0000
,  // measure 20
0010
1000
0001
0000
,  // measure 21
0100
0001
0010
0000
,  // measure 22
0100
1000
0001
0000
,  // measure 23
0010
0001
1000
0000
,  // measure 24
0001
0100
1000
0000
,  // measure 25
1000
0100
0001
0000
,  // measure 26
0010
0100
1000
0000
,  // measure 27
0010
0100
0001
0000
,  // measure 28
1000
0100
0010
0000
,  // measure 29
0001
0100
0010
0000
,  // measure 30
1000
0000
0000
0100
0000
0000
0010
0000
,  // measure 31
0000
0001
0000
0000
1000
0000
0001
0000
,  // measure 32
0100
0010
1000
0000
,  // measure 33
0010
0100
0001
0000
,  // measure 34
0010
0001
1000
0000
,  // measure 35
0100
1000
0010
0000
,  // measure 36
0100
0001
1000
0000
,  // measure 37
0010
1000
0001
0000
,  // measure 38
0010
0001
0010
0001
,  // measure 39
1000
0100
0010
0001
,  // measure 40
1000
0000
0000
0101
,  // measure 41
0000
0000
0000
0010
,  // measure 42
1000
0000
0000
1001
,  // measure 43
0000
0010
0100
0000
,  // measure 44
1001
0000
0000
0110
,  // measure 45
0000
0000
0000
1000
,  // measure 46
0200
0000
0000
0300
0000
0000
0100
0000
,  // measure 47
0000
0010
0001
1000
,  // measure 48
0001
0000
0000
0101
,  // measure 49
0000
0000
0000
0010
,  // measure 50
1000
0000
0000
1001
,  // measure 51
0000
0010
0100
0000
,  // measure 52
1001
0000
0000
0110
,  // measure 53
0000
0000
0000
0001
,  // measure 54
0020
0000
0000
0030
0000
0000
0010
0000
,  // measure 55
0000
0100
1000
0100
,  // measure 56
1000
0000
0010
0000
,  // measure 57
0100
0000
0001
1000
,  // measure 58
0001
0000
0010
0000
,  // measure 59
0001
0000
1000
0100
,  // measure 60
0010
0000
0001
0000
,  // measure 61
1000
0000
0010
0100
,  // measure 62
0001
0000
0000
1000
0000
0000
0001
0000
,  // measure 63
0000
0000
0100
0010
,  // measure 64
1000
0000
0001
0000
,  // measure 65
0010
0000
0001
0010
,  // measure 66
0100
0000
1000
0000
,  // measure 67
0010
0000
1000
0100
,  // measure 68
0010
0000
0001
0000
,  // measure 69
1000
0000
0001
0000
,  // measure 70
0100
0010
0100
0010
,  // measure 71
1000
0001
0010
0100
,  // measure 72
1000
0002
0003
0010
,  // measure 73
0001
0100
0010
1000
,  // measure 74
0001
0000
1000
0000
0000
0100
0010
0000
,  // measure 75
0001
0010
0000
0000
0000
0000
0000
0000
,  // measure 76
0001
0000
0100
0000
0000
0010
0000
0000
,  // measure 77
1000
0100
1000
0000
0010
0000
0100
0000
,  // measure 78
0001
0000
1001
0000
0000
0010
0100
0000
,  // measure 79
0001
1001
0000
0010
,  // measure 80
0110
1000
0000
0100
,  // measure 81
0000
0010
0000
0001
,  // measure 82
0100
0010
0000
1000
,  // measure 83
0001
0100
0000
0010
,  // measure 84
1000
0100
0000
0010
,  // measure 85
0000
0100
0000
1000
,  // measure 86
0001
0200
0000
0320
,  // measure 87
0000
2030
0000
3001
,  // measure 88
0010
0001
0000
0100
,  // measure 89
0010
1000
0000
0010
,  // measure 90
0100
0000
0001
0000
0000
1000
0000
0000
,  // measure 91
0001
0000
0100
0000
0000
0010
0000
0000
,  // measure 92
1000
0200
0300
1000
,  // measure 93
0001
0020
0030
0100
,  // measure 94
1000
0002
0003
0100
,  // measure 95
0010
2000
3100
0010
,  // measure 96
0001
1000
0010
0100
,  // measure 97
0000
0001
1000
0001
,  // measure 98
0000
0100
0001
0010
,  // measure 99
0000
0100
1000
0001
,  // measure 100
0000
0010
0001
0100
,  // measure 101
0000
0010
0100
0001
,  // measure 102
0000
1000
0100
0010
,  // measure 103
0000
0010
0100
1000
,  // measure 104
0000
0010
1000
0001
,  // measure 105
0000
0100
0001
0010
,  // measure 106
0000
0001
1000
0010
,  // measure 107
0000
0100
0010
1000
,  // measure 108
0000
0010
1000
0001
,  // measure 109
0000
0010
0001
0010
,  // measure 110
0000
0100
1000
0001
,  // measure 111
0000
0010
0001
0100
,  // measure 112
0000
2002
0000
3003
,  // measure 113
0220
0000
0000
0330
,  // measure 114
0000
0202
0000
0303
,  // measure 115
2020
3030
0001
1001
,  // measure 116
0000
0220
0000
0330
,  // measure 117
2002
0000
3003
0000
,  // measure 118
0001
0000
0020
0000
0000
0030
0000
0000
,  // measure 119
0100
0000
0010
0002
,  // measure 120
0003
2002
0000
3003
,  // measure 121
2200
0000
0000
3300
,  // measure 122
0000
2020
0000
3030
,  // measure 123
0202
0303
1000
0002
,  // measure 124
0003
0022
0000
0033
,  // measure 125
2020
0000
0000
3030
,  // measure 126
0000
0001
0100
0001
,  // measure 127
0100
0100
0010
1000
,  // measure 128
0001
2000
3000
0100
,  // measure 129
0002
0003
0000
0100
,  // measure 130
1000
0001
0000
0000
,  // measure 131
0100
0000
0010
0100
,  // measure 132
0001
0020
0030
0001
,  // measure 133
0200
0300
0000
0000
,  // measure 134
0010
1000
0001
1000
,  // measure 135
1001
0000
0010
0010
,  // measure 136
0100
2000
3000
0010
,  // measure 137
0002
0003
0000
0010
,  // measure 138
1000
0002
0003
1000
,  // measure 139
0020
0030
1000
0200
,  // measure 140
0310
0001
0000
0100
,  // measure 141
0000
0010
1000
0001
,  // measure 142
1000
0010
1000
0001
,  // measure 143
1000
0001
0010
0100
,  // measure 144
1000
0002
0000
0000
,  // measure 145
0000
0000
0000
0000
,  // measure 146
0000
0000
0000
0003
;

//---------------dance-single - ----------------
#NOTES:
     dance-single:
     :
     Beginner:
     3:
     0.236070,0.329546,0.015230,0.098997,0.000000,202.000000,2.000000,13.000000,0.000000,0.000000,0.000000,0.236070,0.329546,0.015230,0.098997,0.000000,202.000000,2.000000,13.000000,0.000000,0.000000,0.000000:
0000
0000
0000
0000
,
0000
0000
0000
0000
,
0000
0000
0000
0000
,
0000
0000
0000
0000
,
0000
0000
0000
0000
,
0000
0000
0000
0000
,
1000
0000
1000
0000
,
0001
0000
0001
0000
,
0100
0000
0000
0000
,
0010
0000
0000
0000
,
1000
0000
0000
0000
,
0001
0000
0000
0000
,
0010
0000
0000
0000
,
0001
0000
0000
0000
,
1000
0000
0000
0000
,
0100
0000
0010
0000
,
0100
0000
0000
0000
,
1000
0000
0000
0000
,
0010
0000
0000
0000
,
0100
0000
0000
0000
,
0001
0000
0000
0000
,
0010
0000
0000
0000
,
0001
0000
0000
0000
,
1000
0000
0010
0000
,
0100
0000
0000
0000
,
0001
0000
0010
0000
,
0100
0000
0000
0000
,
1000
0000
0001
0000
,
0100
0000
0000
0000
,
0010
0000
1000
0000
,
0100
0000
1000
0000
,
0001
0000
0000
0000
,
0010
0000
0000
0000
,
0001
0000
0100
0000
,
0010
0000
0000
0000
,
1000
0000
0001
0000
,
0100
0000
0000
0000
,
0010
0000
1000
0000
,
0100
0000
0001
0000
,
0100
0000
1000
0000
,
0001
0000
0000
1000
,
0000
0000
0000
0000
,
0010
0000
0000
0100
,
0000
0001
0001
0000
,
1000
0000
0000
0100
,
0000
0000
0000
0000
,
0010
0000
0100
0000
,
1000
0000
0001
0000
,
0100
0000
0000
0010
,
0000
0000
0000
0000
,
1000
0000
0000
0001
,
0000
0010
0010
0000
,
0100
0000
0000
1000
,
0000
0000
0000
0000
,
0001
0000
0100
0000
,
1000
0000
0100
0000
,
0002
0000
0003
0000
,
2000
0000
3000
0000
,
0010
0000
0100
0000
,
0010
0000
0000
0000
,
2000
0000
3000
0000
,
0200
0000
0300
0000
,
0010
0000
0001
0000
,
1000
0000
0010
0000
,
0200
0000
0300
0000
,
0002
0000
0003
0000
,
0010
0000
0001
0000
,
1000
0000
0000
0000
,
0200
0000
0300
0000
,
2000
0000
3000
0000
,
0010
0000
0100
0000
,
0001
0000
1000
0000
,
0001
1000
0000
0100
,
0000
1000
0000
0100
,
0000
0020
0000
0000
,
0000
0030
0000
0000
,
0001
0001
0000
0000
,
0000
0100
0000
0000
,
0010
0010
0000
1000
,
0000
0001
0001
0001
,
0000
1000
0000
0000
,
0000
0010
0000
0000
,
0000
0100
0000
0000
,
0000
0001
0000
1000
,
0000
0100
0000
0000
,
0000
0010
0000
0000
,
0000
0100
0000
1000
,
0000
0100
0000
1000
,
0000
0001
0000
0000
,
0000
0100
0000
0000
,
0000
0010
0000
1000
,
0000
0001
0000
0010
,
0000
0200
0000
0300
,
0000
0020
0000
0030
,
0000
0002
0000
0003
,
0000
2000
0000
3000
,
0000
1001
0000
0000
,
0000
0100
0000
0010
,
0000
0100
0000
0000
,
0000
0001
0000
1000
,
0000
0100
0000
0000
,
0000
0010
0000
0001
,
0000
1000
0000
0000
,
0000
0010
0000
0100
,
0000
1001
0000
0000
,
0000
0001
0000
0100
,
0000
1000
0000
0000
,
0000
1000
0000
0010
,
0000
0001
0000
0000
,
0000
1000
0000
0010
,
0000
0100
0000
0000
,
0000
0001
0000
1000
,
0000
0010
0000
0000
,
0000
1000
0000
0000
,
0000
0100
0000
0010
,
0000
0001
0000
0010
,
0000
0100
0000
0000
,
0000
1000
0000
0000
,
0000
0001
0000
1000
,
0000
0010
0000
0100
,
0000
0010
0000
0000
,
0000
0100
0000
0000
,
0000
0001
0000
0010
,
0000
0100
0000
1000
,
0000
0010
0000
0000
,
0000
1000
0000
0000
,
0000
0100
0000
1000
,
0000
0010
0000
0100
,
0000
0001
0000
0000
,
1000
0000
0000
0000
,
0000
0010
0000
0000
,
1000
0000
0100
0100
,
0000
1000
0000
0000
,
0001
0000
0000
0000
,
0000
0010
0000
0001
,
0000
1000
0000
0010
,
0000
0100
0000
0000
,
0001
0000
0000
0000
,
0000
0010
0000
0000
,
0001
0000
1000
1000
,
0000
0010
0000
0000
,
0100
0000
0000
0000
,
0000
0001
0000
1000
,
0000
0010
0000
1000
,
0000
0100
0000
0000
;
