#TITLE:Weekender Girl;
#SUBTITLE:;
#ARTIST:kz(livetune) / 八王子P;
#TITLETRANSLIT:;
#SUBTITLETRANSLIT:kz(livetune) / Hachioji-P;
#ARTISTTRANSLIT:;
#GENRE:;
#CREDIT:;
#BANNER:Weekender Girl-bn.png;
#BACKGROUND:Weekender Girl-bg.png;
#LYRICSPATH:;
#CDTITLE:;
#MUSIC:Weekender Girl.ogg;
#OFFSET:0.000000;
#SAMPLESTART:71.363632;
#SAMPLELENGTH:14.545456;
#SELECTABLE:YES;
#BPMS:0.000000=132.000000
;
#STOPS:
;
#BGCHANGES:;
#KEYSOUNDS:;
#ATTACKS:;

//---------------dance-single - S-HEAVY----------------
#NOTES:
     dance-single:
     DJ OMiY-HSP:
     Hard:
     7:
     0.434509,0.437439,0.187962,0.444274,0.162331,356.000000,334.000000,22.000000,52.000000,0.000000,0.000000,0.434509,0.437439,0.187962,0.444274,0.162331,356.000000,334.000000,22.000000,52.000000,0.000000,0.000000:
// measure 0
0000
0000
0000
0000
,  // measure 1
0000
0000
0000
0000
,  // measure 2
0000
0000
0000
0000
,  // measure 3
0000
0000
0000
0000
,  // measure 4
1000
0000
0000
0000
0001
0000
0000
0100
0000
0000
0000
0000
0100
0001
0000
0000
,  // measure 5
1000
0000
0000
0100
0000
0000
1000
0000
0000
0000
0010
0000
0010
0000
0000
0000
,  // measure 6
0100
0000
0000
0000
0001
0000
0000
0010
0000
0000
0000
0000
0010
0001
0000
0000
,  // measure 7
1000
0000
0000
0002
0000
0000
0200
0000
0003
0000
0000
0000
0310
0000
0000
0000
,  // measure 8
0110
0100
0001
0000
0100
0010
1000
0100
,  // measure 9
2000
0000
0000
3200
0000
0000
0020
0000
0000
0000
0330
0000
0110
0000
0000
0000
,  // measure 10
0011
0001
0100
0000
0010
0100
0001
0000
,  // measure 11
0020
0000
0000
0230
0000
0000
2000
0000
0000
0000
3300
0000
1100
0000
0000
0000
,  // measure 12
1000
0100
0001
0100
1000
0100
0010
0000
,  // measure 13
0002
0000
0000
0203
0000
0000
0020
0000
0000
0000
0330
0000
1001
0000
0000
0000
,  // measure 14
0001
0010
1000
0010
0001
0010
0100
1000
,  // measure 15
0020
0000
0000
0230
0000
0000
0002
0000
0000
0000
0303
0000
1001
0000
0000
0000
,  // measure 16
1000
0000
0000
0000
0001
0000
0000
0001
0100
0000
0000
0000
1000
0000
0000
1000
,  // measure 17
0100
0000
0000
0000
0001
0000
0000
0001
0010
0000
0100
0000
1000
0000
0001
0000
,  // measure 18
0010
0000
0001
0000
1000
0010
1000
0001
,  // measure 19
0010
0000
0000
0100
0000
0000
0010
0000
0000
0100
0000
0000
1000
0000
0001
0000
,  // measure 20
0100
0000
0000
0000
0010
0000
0000
1000
0100
0000
0000
0000
0010
0000
0000
0001
,  // measure 21
0100
0000
0000
0000
0001
0000
0000
0010
0100
0000
1000
0000
0001
0000
0100
0000
,  // measure 22
0001
0000
0010
0000
0001
0100
0010
1000
,  // measure 23
0100
0000
0000
0001
0000
0000
0100
0000
0000
0000
2001
0000
0000
0000
0000
0000
,  // measure 24
3100
0100
0010
0000
0001
0010
0100
0010
,  // measure 25
0002
0000
0000
2003
0000
0000
0200
0000
0000
0000
3300
0000
1100
0000
0000
0000
,  // measure 26
0010
0010
1000
0000
0100
1000
0010
0001
,  // measure 27
0020
0000
0000
0230
0000
0000
0002
0000
0000
0000
0303
0000
1001
0000
0000
0000
,  // measure 28
0110
0010
0001
0000
1000
0001
0100
0001
,  // measure 29
2000
0000
0000
3002
0000
0000
0020
0000
0000
0000
0033
0000
0011
0000
0000
0000
,  // measure 30
1000
0000
0010
0000
1000
0000
0001
1000
0000
0000
0010
0000
0010
0000
0100
0000
,  // measure 31
0020
0000
0000
2030
0000
0000
0002
0000
0000
0000
3003
0000
0100
0000
0000
0000
,  // measure 32
2010
0001
0001
3200
,  // measure 33
2300
0000
3020
0000
0130
0010
0200
0000
,  // measure 34
0001
0010
0001
0320
,  // measure 35
1000
0000
0100
0000
1030
0100
0010
0001
,  // measure 36
1000
0100
1000
0001
,  // measure 37
0100
0000
0000
0100
0000
0000
0010
0000
0000
0100
0000
0000
0100
0000
0010
0000
,  // measure 38
1000
0001
1000
0100
1000
0001
0010
0001
,  // measure 39
0200
0000
1000
0000
1300
0100
0001
0010
,  // measure 40
0110
0000
0100
1000
0001
1000
0020
0000
,  // measure 41
0130
0000
0010
1000
0100
1000
0010
0001
,  // measure 42
0010
0000
0100
0002
0000
2003
0000
3200
,  // measure 43
0010
0310
0110
1001
,  // measure 44
0010
0000
0001
2000
0100
0000
3100
1000
,  // measure 45
0001
0001
0100
0200
0000
0000
0300
0010
,  // measure 46
2000
0000
3001
0020
0000
0032
0000
0203
,  // measure 47
0000
0000
1000
0000
1300
0100
0001
0010
,  // measure 48
0110
0000
0010
0001
1000
0001
0200
0000
,  // measure 49
0001
0000
0301
1000
0100
0010
0100
1000
,  // measure 50
0010
0000
0100
0001
0000
0010
0000
0100
,  // measure 51
0020
0031
1100
0011
,  // measure 52
2000
0000
3100
1000
0001
0000
0010
0100
,  // measure 53
1000
1000
0001
0002
0000
0000
0003
0100
,  // measure 54
0020
0000
0130
0002
0000
0023
0000
0230
,  // measure 55
0000
1300
0110
0011
,  // measure 56
1010
0000
0000
0100
0000
0000
0010
0000
0001
0000
0000
1000
0000
0000
0010
0000
,  // measure 57
0100
0000
0000
0001
0000
0000
0010
0000
0100
0000
1000
0000
0001
0000
0100
0000
,  // measure 58
0010
0000
0000
0100
0000
0000
0001
0000
1000
0000
0000
0100
0000
0000
0010
0000
,  // measure 59
0100
0000
0000
1000
0100
0000
0000
0000
1000
0000
1000
0000
0001
0000
0100
0000
,  // measure 60
0100
0000
0000
0010
0000
0000
1000
0000
0001
0000
0000
0010
0000
0000
0100
0000
,  // measure 61
0010
0000
0000
0001
0000
0000
0100
0000
0001
0000
1000
0000
0010
0000
1000
0000
,  // measure 62
0100
0000
0000
1000
0000
0000
0010
0000
0001
0000
0000
0010
0000
0000
1000
0000
,  // measure 63
0001
0000
0000
0100
0000
0000
0001
0000
0000
0000
0010
0000
0010
0000
0000
0000
,  // measure 64
1001
0000
0000
0000
;

//---------------dance-single - S-STANDARD----------------
#NOTES:
     dance-single:
     DJ OMiY-SSP:
     Medium:
     6:
     0.336867,0.355419,0.042719,0.299030,0.068350,276.000000,271.000000,5.000000,35.000000,0.000000,0.000000,0.336867,0.355419,0.042719,0.299030,0.068350,276.000000,271.000000,5.000000,35.000000,0.000000,0.000000:
// measure 0
0000
0000
0000
0000
,  // measure 1
0000
0000
0000
0000
,  // measure 2
0000
0000
0000
0000
,  // measure 3
0000
0000
0000
0000
,  // measure 4
1000
0000
0000
0000
0010
0000
0000
1000
0000
0000
0000
0000
0001
0000
0000
0000
,  // measure 5
0010
0000
0000
0001
0000
0100
0100
0000
,  // measure 6
0010
0000
0000
0000
1000
0000
0000
0001
0000
0000
0000
0000
0100
0000
0000
0000
,  // measure 7
0010
0000
0000
2000
0000
0000
3001
0000
,  // measure 8
0100
0001
1000
0000
0100
0000
1000
0000
,  // measure 9
0010
0000
0000
0010
0000
0000
0020
0000
0000
0000
0000
0000
0030
0000
0000
0000
,  // measure 10
0100
0000
0001
0000
1000
0100
1000
0000
,  // measure 11
0001
0000
0000
0001
0000
0000
0002
0000
0000
0000
0000
0000
0003
0000
0000
0000
,  // measure 12
0010
0001
0010
0000
0100
1000
0100
0000
,  // measure 13
1000
0000
0000
0001
0000
0000
2000
0000
0000
0000
0000
0000
3000
0000
0000
0000
,  // measure 14
0010
0000
0000
0000
1000
0000
0000
0100
0000
0000
0010
0000
0001
0000
0000
0000
,  // measure 15
0010
0000
0000
0100
0000
0000
1000
0000
0000
0000
0000
0000
0002
0000
0000
0000
,  // measure 16
0103
0001
1000
0100
,  // measure 17
1000
0000
0010
0000
0100
0000
0010
1000
,  // measure 18
0001
0010
0100
1000
,  // measure 19
0001
0000
0000
0001
0000
0000
1000
0000
0000
1000
0000
0000
0001
0000
0000
0000
,  // measure 20
0100
0010
1000
0100
,  // measure 21
0001
0000
0100
0000
1000
0000
0001
0010
,  // measure 22
0100
0010
0001
0100
,  // measure 23
0010
0000
0000
1000
0000
0000
0001
0000
0000
0000
2000
0000
0000
0000
0000
0000
,  // measure 24
3010
0100
0001
0000
0010
0000
0001
0000
,  // measure 25
1000
0000
0000
0100
0000
0000
0200
0000
0000
0000
0000
0000
1300
0000
0000
0000
,  // measure 26
0010
0100
0001
0000
1000
0000
0001
0000
,  // measure 27
0100
0000
0000
0001
0000
0000
0020
0000
0000
0000
0000
0000
0130
0000
0000
0000
,  // measure 28
0010
0001
1000
0000
0010
1000
0100
0000
,  // measure 29
1000
0000
0000
0010
0000
0000
2000
0000
0000
0000
0000
0000
3001
0000
0000
0000
,  // measure 30
0010
0000
0010
0000
0010
0000
0000
0100
0000
0000
0010
0000
0001
0000
0000
0000
,  // measure 31
1000
0000
0000
0002
0000
0000
2000
0000
0000
0000
0000
0000
3003
0000
0000
0000
,  // measure 32
0010
0010
0010
1000
,  // measure 33
0100
0001
0020
0230
,  // measure 34
1000
1000
1000
1300
,  // measure 35
0001
0000
0001
0010
0100
0010
0001
0000
,  // measure 36
1000
0100
1000
0100
,  // measure 37
0010
0001
0010
0001
,  // measure 38
0100
0000
0010
0000
1000
0001
0100
0010
,  // measure 39
2000
0000
0001
0000
3001
1000
0001
1000
,  // measure 40
0100
0000
0010
0001
0000
0001
0200
0000
,  // measure 41
0000
0000
0300
0010
0100
0000
0001
0000
,  // measure 42
1000
0000
0100
0010
0000
0200
0000
2300
,  // measure 43
0000
3001
0100
1001
,  // measure 44
0010
0000
0001
2000
0001
0000
3001
1000
,  // measure 45
0100
0010
0100
0020
0000
0000
0030
0001
,  // measure 46
1000
0000
1000
0100
0000
0100
0000
0200
,  // measure 47
0000
0000
0310
0000
0010
0001
0010
0001
,  // measure 48
2000
3000
1000
0020
0030
0010
0200
0000
,  // measure 49
0001
0000
0301
0100
0010
1000
0100
0000
,  // measure 50
1000
0000
1000
0001
0000
1000
0000
0220
,  // measure 51
0000
0330
0001
1001
,  // measure 52
0020
0000
0031
0010
0200
0000
1300
0001
,  // measure 53
0010
0001
1000
0020
0000
0000
0130
0001
,  // measure 54
1000
0000
0001
0200
0000
0320
0000
2030
,  // measure 55
0000
0001
0001
3010
,  // measure 56
1002
0010
0010
1000
,  // measure 57
1000
0000
0100
0000
0103
0000
0001
1000
,  // measure 58
0001
0010
0100
0010
,  // measure 59
0001
0000
1002
0000
0103
0001
0000
0001
,  // measure 60
2000
0100
0100
0001
,  // measure 61
0001
0010
3010
1000
,  // measure 62
0010
0000
0100
0000
0010
1000
0001
0100
,  // measure 63
0010
0000
0000
0010
0000
0000
0010
0000
0000
0000
2000
0000
0000
0000
0000
0000
,  // measure 64
3001
0000
0000
0000
;

//---------------dance-single - S-LIGHT----------------
#NOTES:
     dance-single:
     DJ OMiY-LSP:
     Easy:
     4:
     0.255091,0.300739,0.119612,0.196506,0.000000,209.000000,195.000000,14.000000,23.000000,0.000000,0.000000,0.255091,0.300739,0.119612,0.196506,0.000000,209.000000,195.000000,14.000000,23.000000,0.000000,0.000000:
// measure 0
0000
0000
0000
0000
,  // measure 1
0000
0000
0000
0000
,  // measure 2
0000
0000
0000
0000
,  // measure 3
0000
0000
0000
0000
,  // measure 4
2000
0010
0000
3010
,  // measure 5
2000
0001
0000
3001
,  // measure 6
2000
0100
0000
3100
,  // measure 7
2002
0000
3003
0110
,  // measure 8
1001
0010
0010
0001
,  // measure 9
1000
0001
0100
0000
,  // measure 10
0010
0010
0100
0001
,  // measure 11
0010
0100
0100
0000
,  // measure 12
1000
1000
0001
0100
,  // measure 13
0001
0010
0010
0000
,  // measure 14
0100
0110
0110
1000
,  // measure 15
0001
1000
1000
0002
,  // measure 16
0103
1000
0100
0001
,  // measure 17
0100
1000
0100
0001
,  // measure 18
1000
0010
0001
0010
,  // measure 19
2000
0000
3002
1003
,  // measure 20
0010
0001
0010
1000
,  // measure 21
0010
0001
0010
1000
,  // measure 22
0001
0010
1000
0010
,  // measure 23
0002
2003
3020
0030
,  // measure 24
0100
0001
0001
1000
,  // measure 25
0001
0010
0100
0000
,  // measure 26
1000
1000
0001
0100
,  // measure 27
0001
0100
0100
0000
,  // measure 28
0010
0010
0100
0001
,  // measure 29
1000
0100
0100
0000
,  // measure 30
1000
1001
1001
0001
,  // measure 31
0100
0010
0010
1000
,  // measure 32
0002
0000
0000
0013
,  // measure 33
0001
1000
0100
0020
,  // measure 34
0001
0000
0001
0000
,  // measure 35
0100
0000
0130
0100
,  // measure 36
2000
0000
0000
3001
,  // measure 37
1000
0010
0100
0002
,  // measure 38
1000
1000
0100
0103
,  // measure 39
0000
0010
0010
1001
,  // measure 40
0100
0010
0100
0002
,  // measure 41
0000
0003
1000
0100
,  // measure 42
0010
0010
0100
0100
,  // measure 43
1000
0000
0010
0110
,  // measure 44
0001
1000
0001
0000
,  // measure 45
0010
0100
0010
0000
,  // measure 46
0100
1000
1000
0100
,  // measure 47
0020
0030
0001
1001
,  // measure 48
1000
0001
0100
0020
,  // measure 49
0000
0030
0100
0010
,  // measure 50
1000
0000
0001
0010
,  // measure 51
0002
0003
0100
0110
,  // measure 52
0010
1000
0001
0000
,  // measure 53
0010
0100
0010
0000
,  // measure 54
1000
0000
0001
0000
2002
0000
0000
3003
,  // measure 55
0000
0100
0100
1001
,  // measure 56
0002
0000
1000
0000
,  // measure 57
1000
0003
0001
1000
,  // measure 58
0010
0000
0100
0001
,  // measure 59
1000
0010
0010
0000
,  // measure 60
2000
0000
0001
0000
,  // measure 61
0001
3000
1000
0001
,  // measure 62
0010
0000
0100
0010
,  // measure 63
0001
0000
0100
0000
,  // measure 64
1001
0000
0000
0000
;

//---------------dance-single - BEGINNER----------------
#NOTES:
     dance-single:
     DJ OMiY-BEG:
     Beginner:
     1:
     0.131817,0.164039,0.034175,0.179418,0.000000,108.000000,104.000000,4.000000,21.000000,0.000000,0.000000,0.131817,0.164039,0.034175,0.179418,0.000000,108.000000,104.000000,4.000000,21.000000,0.000000,0.000000:
// measure 0
0000
0000
0000
0000
,  // measure 1
0000
0000
0000
0000
,  // measure 2
0000
0000
0000
0000
,  // measure 3
0000
0000
0000
0000
,  // measure 4
0000
0100
0000
0100
,  // measure 5
0000
0100
0000
0100
,  // measure 6
0000
0001
0000
1000
,  // measure 7
2000
0000
0000
3000
,  // measure 8
0001
0000
0100
0000
,  // measure 9
0001
0000
0001
0000
,  // measure 10
1000
0000
0100
0000
,  // measure 11
1000
0000
1000
0000
,  // measure 12
0010
0000
0100
0000
,  // measure 13
0001
0000
1000
0000
,  // measure 14
0200
0000
0300
0000
,  // measure 15
0100
0100
0100
0000
,  // measure 16
0010
0000
0001
0000
,  // measure 17
1000
0000
0001
0000
,  // measure 18
0100
0000
0010
0000
,  // measure 19
2002
0000
3003
0000
,  // measure 20
0010
0000
0001
0000
,  // measure 21
0100
0000
0010
0000
,  // measure 22
0100
0000
0001
0000
,  // measure 23
2000
0000
0000
3000
,  // measure 24
0001
0000
0100
0000
,  // measure 25
0001
0000
0001
0000
,  // measure 26
1000
0000
0010
0000
,  // measure 27
1000
0000
1000
0000
,  // measure 28
0001
0000
1000
0000
,  // measure 29
0100
0000
0010
0000
,  // measure 30
0100
0000
1000
0000
,  // measure 31
0002
0000
0003
0000
,  // measure 32
0100
0000
0000
0000
,  // measure 33
0010
0000
0010
0000
,  // measure 34
0020
0000
0000
0000
,  // measure 35
0030
0000
1000
0000
,  // measure 36
0001
0000
0000
0000
,  // measure 37
1000
0000
1000
0000
,  // measure 38
2000
0000
0000
0000
,  // measure 39
3000
0000
0001
0000
,  // measure 40
2002
0000
0000
3003
0000
0000
0200
0000
,  // measure 41
0000
0300
0100
0000
,  // measure 42
0001
0000
0100
0000
,  // measure 43
0001
0000
1000
1000
,  // measure 44
2000
0000
3000
0000
,  // measure 45
0002
0000
0003
0000
,  // measure 46
0100
0000
0010
0000
,  // measure 47
0100
0000
0001
0000
,  // measure 48
2002
0000
0000
3003
0000
0000
0020
0000
,  // measure 49
0000
0030
0010
0000
,  // measure 50
0001
0000
1000
0000
,  // measure 51
0001
0000
0010
0010
,  // measure 52
0020
0000
0030
0000
,  // measure 53
0200
0000
0300
0000
,  // measure 54
1000
0000
0100
0000
,  // measure 55
0000
1000
1000
1000
,  // measure 56
2000
0000
0000
0000
,  // measure 57
3000
0000
0001
0000
,  // measure 58
0010
0000
0001
0000
,  // measure 59
0100
0000
0001
0001
,  // measure 60
0002
0000
0000
0000
,  // measure 61
0003
0000
1000
0000
,  // measure 62
0001
0000
0100
0000
,  // measure 63
0020
0000
0030
0000
,  // measure 64
0110
0000
0000
0000
;
