#TITLE:Sound of the Underground;
#SUBTITLE:;
#ARTIST:Girls Aloud;
#TITLETRANSLIT:;
#SUBTITLETRANSLIT:;
#ARTISTTRANSLIT:;
#GENRE:Drum'n'bass;
#CREDIT:;
#BANNER:Sound of the Underground-bn.png;
#BACKGROUND:Sound of the Underground-bg.png;
#LYRICSPATH:;
#CDTITLE:;
#MUSIC:Sound of the Underground.ogg;
#OFFSET:-1.455000;
#SAMPLESTART:56.989754;
#SAMPLELENGTH:23.414635;
#SELECTABLE:YES;
#BPMS:0.000000=164.000000
;
#STOPS:
;
#BGCHANGES:;
#KEYSOUNDS:;
#ATTACKS:;

//---------------dance-single - ----------------
#NOTES:
     dance-single:
     :
     Hard:
     7:
     0.573256,0.533378,0.166161,0.581564,0.000000,393.000000,20.000000,70.000000,0.000000,0.000000,0.000000,0.573256,0.533378,0.166161,0.581564,0.000000,393.000000,20.000000,70.000000,0.000000,0.000000,0.000000:
// measure 0
0000
0000
0000
0000
,  // measure 1
0000
0000
0000
0000
,  // measure 2
1000
0000
0100
1000
0100
1000
0000
0000
,  // measure 3
0001
0000
0100
0001
0100
0001
0000
0000
,  // measure 4
0100
0000
0010
0100
0000
0010
0000
0000
,  // measure 5
1000
0000
0001
0001
0100
0001
0100
0000
,  // measure 6
0010
0000
1000
0001
0000
0001
1000
0000
,  // measure 7
0100
0100
0020
0230
,  // measure 8
1300
0000
0001
0010
0001
0010
0000
0000
,  // measure 9
0100
0000
1000
0010
1000
0010
0000
0000
,  // measure 10
1000
0000
0001
0010
0000
0010
0001
0000
,  // measure 11
1000
1000
0002
2003
,  // measure 12
3010
0000
0100
0001
0100
0001
0000
0000
,  // measure 13
0001
0000
1000
1000
0100
1000
0100
0000
,  // measure 14
0010
0000
0001
1000
0000
1000
0100
0010
,  // measure 15
0001
0100
0020
2030
,  // measure 16
3001
0000
0010
0100
0010
0100
0000
0000
,  // measure 17
0100
0000
0010
0010
0001
0010
0001
0000
,  // measure 18
2000
0000
0000
3020
0000
0000
0230
0000
,  // measure 19
0302
0010
0023
0100
,  // measure 20
0230
0000
0000
2300
0000
0000
3002
0000
,  // measure 21
0023
0000
0000
0032
0000
0000
0103
0000
,  // measure 22
1001
0000
0000
1001
0000
0000
0010
0000
,  // measure 23
1000
0000
0100
0010
0001
0000
0001
0000
,  // measure 24
1100
0000
0000
1100
0000
0000
0010
0000
,  // measure 25
0100
0000
0100
0001
2000
0000
3100
0000
,  // measure 26
0101
0000
0000
0101
0000
0000
0100
0000
,  // measure 27
0010
0000
1000
0001
1000
0000
0100
0000
,  // measure 28
0110
0000
0000
0110
0000
0000
0001
0000
,  // measure 29
1000
0000
0100
0001
0100
0000
1000
0000
,  // measure 30
0101
0000
1000
0001
1000
0000
0010
0000
,  // measure 31
0100
0001
0100
0000
0020
0000
2030
0000
,  // measure 32
3100
0000
0010
0100
1000
0100
0010
0001
,  // measure 33
1000
0001
0202
0303
,  // measure 34
0010
0000
1000
0100
1000
0000
0010
0010
,  // measure 35
0100
0010
0100
0000
0002
0000
2003
0000
,  // measure 36
3010
0000
0100
0001
0010
0000
0100
0000
,  // measure 37
0020
0000
0000
0130
,  // measure 38
0011
0000
0001
0010
0200
0000
2300
0000
,  // measure 39
3010
0000
1000
0100
1000
0001
0100
0001
,  // measure 40
0020
0000
0130
0010
0001
0000
1000
0000
,  // measure 41
0001
0000
1000
0010
0001
0100
1000
0000
,  // measure 42
0010
0000
0100
0001
2000
0000
3020
0000
,  // measure 43
0230
0000
0310
1000
0100
0010
0001
0100
,  // measure 44
0010
0000
0010
0000
1000
0000
1000
0001
,  // measure 45
0100
0000
0100
0001
0010
0100
1000
0000
,  // measure 46
1010
0000
0010
0100
0002
0000
0023
0000
,  // measure 47
0230
0000
0310
0001
0010
0001
1000
0001
,  // measure 48
0100
0000
0010
0000
0100
0000
0001
0010
,  // measure 49
2000
3020
0032
0003
,  // measure 50
1001
0000
0010
1000
0100
0000
0010
0000
,  // measure 51
2002
0000
3003
0000
0010
0000
1000
0100
,  // measure 52
0002
0000
0103
1000
0100
0000
0010
0000
,  // measure 53
0002
0000
0103
1000
0200
0000
0302
0000
,  // measure 54
1003
0000
0100
0100
0000
0010
0100
0100
,  // measure 55
1000
0100
1000
0000
0001
0000
0100
0000
,  // measure 56
0101
0000
0010
1000
0000
0010
1000
0010
,  // measure 57
0100
0000
0001
0100
0000
0001
0100
0001
,  // measure 58
0010
0000
0001
0001
0000
1000
0010
1000
,  // measure 59
0001
0000
0100
0100
0000
0010
1000
0001
,  // measure 60
0020
0000
0130
0020
0000
0031
0010
0100
,  // measure 61
2000
0000
3010
2000
0000
3001
1000
0100
,  // measure 62
0010
0100
0010
0100
0010
0100
0010
0001
,  // measure 63
2002
0000
0000
3003
,  // measure 64
1010
0000
0100
0001
0020
0000
0230
0000
,  // measure 65
2300
0000
3010
0100
0001
1000
0100
0010
,  // measure 66
0001
0000
1000
0001
0010
0000
0100
0000
,  // measure 67
1000
0000
0001
0010
1000
0100
0001
0000
,  // measure 68
1000
0000
0010
1000
0200
0000
0320
0000
,  // measure 69
0230
0000
1300
0100
0010
0001
0010
0100
,  // measure 70
1000
0000
1000
0000
0001
0000
0001
0100
,  // measure 71
0010
0000
0010
0100
0001
1000
0100
0000
,  // measure 72
0110
0000
0001
1000
0002
0000
0203
0000
,  // measure 73
0320
0000
1030
0100
1000
0010
0100
0001
,  // measure 74
0010
0000
0010
0000
0001
0000
1000
0010
,  // measure 75
0200
0302
2003
3000
,  // measure 76
0011
0000
0010
0100
2000
0000
3020
0000
,  // measure 77
0230
0000
0301
1000
0001
0100
0010
1000
,  // measure 78
0200
0000
0301
0100
2000
0000
3002
0000
,  // measure 79
0203
0000
1300
0100
0002
0000
0013
0000
,  // measure 80
2002
3003
0000
0000
;

//---------------dance-single - ----------------
#NOTES:
     dance-single:
     :
     Medium:
     4:
     0.348939,0.299090,0.091389,0.199394,0.000000,259.000000,11.000000,24.000000,0.000000,0.000000,0.000000,0.348939,0.299090,0.091389,0.199394,0.000000,259.000000,11.000000,24.000000,0.000000,0.000000,0.000000:
// measure 0
0000
0000
0000
0000
,  // measure 1
0000
0000
0000
0000
,  // measure 2
1000
0000
0001
0000
0000
0001
0000
0000
,  // measure 3
0010
0000
0100
0000
0000
0100
0000
0000
,  // measure 4
1000
0000
0010
0000
0000
0010
0000
0000
,  // measure 5
0100
0001
1000
0001
,  // measure 6
0010
0000
0000
0100
0000
0000
1000
0000
,  // measure 7
0010
0100
0010
1000
,  // measure 8
0001
0000
0010
0000
0000
0010
0000
0000
,  // measure 9
0001
0000
1000
0000
0000
1000
0000
0000
,  // measure 10
0010
0000
0000
0100
0000
0000
0001
0000
,  // measure 11
0010
0010
0001
1000
,  // measure 12
0010
0000
0100
0000
0000
0100
0000
0000
,  // measure 13
0001
1000
0100
0010
,  // measure 14
0001
0000
0000
1000
0000
0000
0001
0000
,  // measure 15
0100
0010
1000
0100
,  // measure 16
1000
0000
0001
0000
0000
0001
0000
0000
,  // measure 17
1000
0000
0010
0000
0000
0010
0000
0000
,  // measure 18
0200
0000
1000
0000
,  // measure 19
0010
0000
0001
0000
,  // measure 20
0320
0000
0001
0000
,  // measure 21
0100
0000
1000
0000
,  // measure 22
0130
0000
0000
0110
0000
0000
1000
0000
,  // measure 23
0100
0100
0010
0001
,  // measure 24
1000
0000
0000
0101
0000
0000
0001
0000
,  // measure 25
0010
0010
0010
0000
,  // measure 26
0100
0000
0000
1001
0000
0000
0010
0000
,  // measure 27
1000
0100
0100
0010
,  // measure 28
0001
0000
0000
1100
0000
0000
0010
0000
,  // measure 29
1000
1000
0100
0010
,  // measure 30
0001
0000
0000
0011
0000
0000
1000
0000
,  // measure 31
0010
0010
0100
0001
,  // measure 32
1000
0000
0000
1010
0000
0000
0100
0000
,  // measure 33
0001
1000
0002
0003
,  // measure 34
0010
0000
0000
1001
0000
0000
0100
0000
,  // measure 35
0001
1000
1000
0100
,  // measure 36
0010
0001
1000
0001
,  // measure 37
0200
0000
0000
0300
,  // measure 38
1001
0001
0100
0010
,  // measure 39
2000
0000
3200
0000
,  // measure 40
0310
0001
1000
0001
,  // measure 41
0100
0000
0001
1000
0001
0000
0000
0000
,  // measure 42
0010
0010
0100
0010
,  // measure 43
0002
0000
0023
0000
,  // measure 44
0130
0100
1000
0010
,  // measure 45
1000
0000
0100
0000
1000
0001
1000
0000
,  // measure 46
0010
0010
0100
0001
,  // measure 47
2000
0000
3020
0000
,  // measure 48
0130
0001
0010
1000
,  // measure 49
0010
0001
0200
0300
,  // measure 50
0010
1000
0001
0010
,  // measure 51
0200
0000
1300
0010
,  // measure 52
0100
0100
0001
1000
,  // measure 53
0100
0100
1000
0001
,  // measure 54
0100
0000
0000
0100
0000
0000
0010
0000
,  // measure 55
1000
0000
0000
1000
0000
0000
0001
0000
,  // measure 56
0010
0000
0000
0010
0000
0000
0001
0000
,  // measure 57
1000
0001
1000
1000
,  // measure 58
0010
0000
0000
0010
0000
0000
1000
0000
,  // measure 59
0001
0000
0000
0001
0000
0000
1000
0000
,  // measure 60
0100
0000
0000
0100
0000
0000
0010
0000
,  // measure 61
0100
0000
0000
0100
0000
0000
1000
0000
,  // measure 62
0001
1000
0001
1000
,  // measure 63
2002
0000
3003
0010
,  // measure 64
1001
0010
1000
0100
,  // measure 65
0020
0000
0032
0000
,  // measure 66
0013
0100
0010
0001
,  // measure 67
0100
0000
0001
1000
0002
0000
0003
0000
,  // measure 68
1000
0100
0001
0010
,  // measure 69
2000
0000
3020
0000
,  // measure 70
0130
0010
1000
0100
,  // measure 71
0010
0000
0100
1000
0200
0000
0300
0000
,  // measure 72
0010
0010
0100
1000
,  // measure 73
0002
0000
0203
0000
,  // measure 74
0310
0000
1000
0000
0001
0000
0010
0100
,  // measure 75
0010
0001
2000
3000
,  // measure 76
0001
0100
1000
0010
,  // measure 77
0002
0000
1003
0010
,  // measure 78
0100
0100
0001
1000
,  // measure 79
0100
0100
1000
0001
,  // measure 80
0110
0000
0000
0000
;

//---------------dance-single - ----------------
#NOTES:
     dance-single:
     :
     Easy:
     3:
     0.300277,0.265858,0.049848,0.307398,0.000000,210.000000,6.000000,37.000000,0.000000,0.000000,0.000000,0.300277,0.265858,0.049848,0.307398,0.000000,210.000000,6.000000,37.000000,0.000000,0.000000,0.000000:
// measure 0
0000
0000
0000
0000
,  // measure 1
0000
0000
0000
0000
,  // measure 2
0010
0000
0010
0000
,  // measure 3
1000
0001
1000
0000
,  // measure 4
0001
0000
0010
0000
,  // measure 5
0001
1000
0001
0000
,  // measure 6
0200
0000
0320
0000
,  // measure 7
1030
1000
1000
1000
,  // measure 8
0001
0000
0100
0000
,  // measure 9
0010
1000
0100
0010
,  // measure 10
0001
0000
1000
0000
,  // measure 11
0010
0010
0010
0010
,  // measure 12
0100
0000
0001
0000
,  // measure 13
1000
0100
0010
0000
,  // measure 14
0002
0000
2003
0000
,  // measure 15
3010
0100
0010
0100
,  // measure 16
0001
0000
1000
0000
,  // measure 17
0001
0010
0100
1000
,  // measure 18
0020
0000
2000
0030
,  // measure 19
0002
3000
0020
0003
,  // measure 20
0200
0030
0020
0300
,  // measure 21
0002
0030
2000
3003
,  // measure 22
2020
0000
0000
3030
0000
0000
0000
0000
,  // measure 23
0001
0000
1000
0001
,  // measure 24
2002
0000
0000
3003
0000
0000
0000
0000
,  // measure 25
0010
1000
0200
0300
,  // measure 26
0220
0000
0000
0330
0000
0000
0000
0000
,  // measure 27
1000
0100
1000
0000
,  // measure 28
2002
0000
0000
3003
0000
0000
0000
0000
,  // measure 29
0010
1000
0010
1000
,  // measure 30
0002
0000
0000
0003
0000
0000
0100
0000
,  // measure 31
2000
0000
0000
3000
0000
0000
0100
0000
,  // measure 32
0020
0000
0000
0030
0000
0000
0100
0000
,  // measure 33
0002
0000
0000
0003
0000
0000
0010
0000
,  // measure 34
2000
0000
0000
3000
0000
0000
0010
0000
,  // measure 35
0200
0000
0000
0300
0000
0000
1000
0000
,  // measure 36
0001
0000
1000
0000
,  // measure 37
0020
0000
0100
0130
,  // measure 38
0010
1000
0010
0100
,  // measure 39
0001
0000
0010
0000
,  // measure 40
0100
0100
0010
0000
,  // measure 41
0001
1000
0001
0000
,  // measure 42
0100
0010
1000
0010
,  // measure 43
0100
0000
0001
0000
,  // measure 44
0010
0100
1000
0000
,  // measure 45
1000
0100
0010
0000
,  // measure 46
0001
1000
0010
0001
,  // measure 47
0010
0000
1000
0000
,  // measure 48
0100
1000
0010
0000
,  // measure 49
0100
0001
0010
0000
,  // measure 50
0100
1000
0001
1000
,  // measure 51
0010
0000
0100
0000
,  // measure 52
0001
0001
0001
0000
,  // measure 53
1000
1000
1000
0010
,  // measure 54
0200
0000
0000
0300
0000
0000
0001
0000
,  // measure 55
0020
0030
0020
0030
,  // measure 56
0200
0000
0000
0300
0000
0000
1000
0000
,  // measure 57
0002
0003
1000
0001
,  // measure 58
0200
0000
0000
0300
0000
0000
0010
0000
,  // measure 59
2000
3000
2000
3000
,  // measure 60
0001
0001
0010
1000
,  // measure 61
0000
0001
0010
1000
,  // measure 62
0000
0001
0010
1000
,  // measure 63
0002
0000
0000
0003
,  // measure 64
1001
0001
1000
0100
,  // measure 65
1000
0000
0010
0000
,  // measure 66
0100
0010
1000
0000
,  // measure 67
0100
0010
0001
0000
,  // measure 68
1000
0010
0100
0001
,  // measure 69
0010
0000
0100
0000
,  // measure 70
0010
0001
0100
0000
,  // measure 71
0010
1000
0100
0000
,  // measure 72
0010
0001
0010
0100
,  // measure 73
1000
0000
0010
0000
,  // measure 74
1000
0010
0001
0000
,  // measure 75
0001
0010
1000
0000
,  // measure 76
0010
0100
0001
0100
,  // measure 77
0010
0000
1000
0000
,  // measure 78
0001
0001
0010
0000
,  // measure 79
0100
0100
1000
0010
,  // measure 80
1001
0000
0000
0000
;

//---------------dance-single - ----------------
#NOTES:
     dance-single:
     :
     Beginner:
     1:
     0.181591,0.200017,0.016616,0.232626,0.000000,123.000000,2.000000,28.000000,0.000000,0.000000,0.000000,0.181591,0.200017,0.016616,0.232626,0.000000,123.000000,2.000000,28.000000,0.000000,0.000000,0.000000:
0000
0000
0000
0000
,
0000
0000
0000
0000
,
0000
0000
2000
0000
0000
3000
0000
0000
,
0000
0000
0002
0000
0000
0003
0000
0000
,
0000
0000
0200
0000
0000
0300
0000
0000
,
0000
0000
0020
0000
0000
0030
0000
0000
,
1000
0000
1000
0000
,
0010
0010
0010
0000
,
0100
0000
0200
0000
0000
0300
0000
0000
,
0001
0000
0002
0000
0000
0003
0000
0000
,
0010
0000
0010
0000
,
0100
0100
0100
0000
,
1000
0000
2000
0000
0000
3000
0000
0000
,
0001
0000
0002
0000
0000
0003
0000
0000
,
0100
0000
0001
0000
,
1000
0000
0010
0000
,
0100
0000
0200
0000
0000
0300
0000
0000
,
0001
0000
0002
0000
0000
0003
0000
0000
,
0010
0000
0000
0000
,
0100
0000
0000
0000
,
1000
0000
0000
0000
,
0001
0000
0000
0000
,
0200
0000
0000
0300
0000
0000
0000
0000
,
0010
0000
0010
0000
,
2000
0000
0000
3000
0000
0000
0000
0000
,
0001
0000
1000
0000
,
0002
0000
0000
0003
0000
0000
0000
0000
,
0100
0000
0100
0000
,
0020
0000
0000
0030
0000
0000
0000
0000
,
1000
1000
1000
0000
,
0200
0000
0000
0300
0000
0000
0000
0000
,
0010
0000
0010
0000
,
0002
0000
0000
0003
0000
0000
0000
0000
,
1000
0000
0001
0000
,
2000
0000
0000
3000
0000
0000
0000
0000
,
0001
0000
0001
0000
,
0020
0000
0000
0030
0000
0000
0000
0000
,
1001
0000
0000
0000
,
0010
0000
0010
0000
,
0010
0000
0000
0000
,
1000
0000
0001
0000
,
1000
0000
0001
0000
,
0100
0000
0100
0000
,
0100
0000
0000
0000
,
0001
0000
0100
0000
,
0001
0000
0100
0000
,
0010
0000
0010
0000
,
0010
0000
0000
0000
,
1000
0000
0100
0000
,
1000
0000
0100
0000
,
0020
0000
0030
0000
,
0020
0000
0030
0000
,
0002
0000
0003
0000
,
2000
0000
3000
0000
,
2002
0000
0000
0000
,
3003
0000
0000
0000
,
0020
0000
0000
0000
,
0030
0000
0000
0000
,
0200
0000
0000
0000
,
0300
0000
0000
0000
,
0000
0001
0001
0000
,
0000
0001
0001
0000
,
0000
0001
0001
0000
,
2000
0000
0000
3000
,
1000
0000
0001
0000
,
1000
0000
0001
0000
,
0010
0000
0100
0000
,
0010
0000
0000
0000
,
0001
0000
0100
0000
,
0001
0000
0100
0000
,
0010
0000
1000
0000
,
0010
0000
0000
0000
,
1000
0000
0100
0000
,
1000
0000
0100
0000
,
1000
0000
0001
0000
,
1000
0000
0000
0000
,
0010
0000
0100
0000
,
0010
0000
0100
0000
,
0001
0000
1000
0000
,
0001
0000
0010
0000
,
0200
0300
0000
0000
;
