#TITLE:STARLIGHT DANCEHALL;
#SUBTITLE:;
#ARTIST:P*Light;
#TITLETRANSLIT:;
#SUBTITLETRANSLIT:;
#ARTISTTRANSLIT:;
#GENRE:Happy Emotion;
#CREDIT:;
#BANNER:STARLIGHT DANCEHALL-bn.png;
#BACKGROUND:STARLIGHT DANCEHALL-bg.png;
#LYRICSPATH:;
#CDTITLE:;
#MUSIC:STARLIGHT DANCEHALL.ogg;
#OFFSET:-2.400000;
#SAMPLESTART:2.393032;
#SAMPLELENGTH:21.694916;
#SELECTABLE:YES;
#BPMS:0.000000=177.000000
;
#STOPS:
;
#BGCHANGES:;
#KEYSOUNDS:;
#ATTACKS:;

//---------------dance-single - S-HEAVY----------------
#NOTES:
     dance-single:
     DJ OMiY-HSP:
     Hard:
     9:
     0.584239,0.627839,0.235440,0.122080,0.183120,469.000000,442.000000,27.000000,14.000000,0.000000,0.000000,0.584239,0.627839,0.235440,0.122080,0.183120,469.000000,442.000000,27.000000,14.000000,0.000000,0.000000:
// measure 0
0000
0000
0000
0000
,  // measure 1
0000
0000
0000
0000
,  // measure 2
0000
0000
0000
0000
,  // measure 3
0000
0000
0000
0000
,  // measure 4
1000
0000
1100
0000
0000
0010
0001
0000
,  // measure 5
0100
0001
0101
0000
0000
0010
1000
0000
,  // measure 6
0010
0000
0110
0000
0000
1000
0001
0000
,  // measure 7
0110
0000
1001
0110
,  // measure 8
0001
0000
0001
0000
0100
0001
1000
0001
,  // measure 9
0100
0000
0010
1000
0100
0000
0100
0000
,  // measure 10
0010
0000
0010
0000
0010
0100
0010
0001
,  // measure 11
1000
0000
1000
0010
1000
0000
0001
0000
,  // measure 12
0100
0000
0010
0000
1000
0000
0001
0010
,  // measure 13
0001
0000
1000
0000
0010
0000
1000
0001
,  // measure 14
0010
0000
0001
0000
0100
0000
0010
0000
1000
0000
0001
0000
1000
0100
0010
0001
,  // measure 15
2000
0000
0000
0000
0001
3100
1000
1000
,  // measure 16
0001
0100
0010
0100
0001
0010
0100
1000
,  // measure 17
0010
1000
0100
0010
0100
1000
0001
0100
,  // measure 18
0010
1000
0100
1000
0100
1000
0100
0000
,  // measure 19
0010
0001
0100
1000
0100
0001
0000
0010
,  // measure 20
0100
1000
0001
1000
0010
0100
0001
1000
,  // measure 21
0100
0010
0001
0010
0100
1000
0001
0100
,  // measure 22
0001
0000
0001
0000
0001
0010
0100
0000
,  // measure 23
1000
0000
0000
0100
0000
0000
1000
0000
0001
0000
1000
0000
0100
0000
0100
0000
,  // measure 24
0010
0000
0000
0001
0000
0000
1000
0000
0000
0010
0000
0000
0100
0000
0001
0000
,  // measure 25
0100
0000
0000
1000
0000
0000
0100
0000
0000
0010
0000
0000
0100
0000
0001
0000
,  // measure 26
0010
0001
1000
0001
1000
0001
1000
0000
,  // measure 27
0010
0100
0001
0010
0100
1000
0000
1000
,  // measure 28
0010
0000
0000
1000
0000
0000
0100
0000
0000
0010
0000
0000
0001
0000
1000
0001
,  // measure 29
1000
0000
0000
0010
0000
0000
0100
0000
0000
0001
0000
0000
1000
0000
0100
0010
,  // measure 30
0100
1000
0001
0100
0010
0100
0001
0010
,  // measure 31
0200
0000
0000
0000
0000
0000
0000
0000
1300
0100
0000
0100
1000
0000
0000
0000
,  // measure 32
0001
0010
0001
1000
0010
0100
0001
1000
,  // measure 33
0100
0010
0100
1000
0001
0100
0001
0000
,  // measure 34
0010
0001
1000
0100
0001
0100
1000
0001
,  // measure 35
0010
0001
0100
0010
0100
0001
0100
0000
,  // measure 36
0010
0100
0001
1000
0010
1000
0001
0010
,  // measure 37
0100
0010
0001
0010
1000
0010
0001
0000
,  // measure 38
1000
0010
0100
0001
1000
0100
0010
0001
,  // measure 39
0200
0000
0000
0300
,  // measure 40
0010
0100
0010
0100
0001
0100
0001
0100
,  // measure 41
0010
1000
0100
0010
0001
1000
0010
0000
,  // measure 42
0100
0001
0100
0001
1000
0100
1000
0100
,  // measure 43
0010
0100
1000
0100
0001
0100
1000
0000
,  // measure 44
2002
0000
0000
3003
,  // measure 45
0202
0000
0000
0303
,  // measure 46
1100
1010
0011
1001
,  // measure 47
0010
0000
0000
0000
,  // measure 48
0002
0000
0000
0000
0000
0103
0000
0100
,  // measure 49
0020
0000
0000
2000
0000
0000
3030
0000
,  // measure 50
1000
0000
2000
0000
0000
3100
0000
0100
,  // measure 51
0020
0000
0000
0032
0000
0000
0203
0000
,  // measure 52
0310
1000
0010
0001
,  // measure 53
0010
1000
1010
0101
,  // measure 54
1000
0000
0100
0000
0010
0001
0010
0000
,  // measure 55
1001
0000
0000
0000
,  // measure 56
0010
0000
0010
0000
0010
0100
0010
1000
,  // measure 57
0001
0000
0001
0100
0001
0000
1000
0000
,  // measure 58
0100
0000
0100
0000
0100
0010
0100
1000
,  // measure 59
0100
0000
1000
0001
1000
0000
0010
0000
,  // measure 60
0110
0000
0000
0000
0001
0000
0000
0000
1010
0000
0000
0100
0000
0000
0001
0000
,  // measure 61
0010
0000
0000
0000
0100
0000
0000
0000
1000
0001
0000
0100
0000
0000
0001
0000
,  // measure 62
1000
0000
0010
0000
1000
0000
0001
0000
0010
0000
0001
0000
1000
0100
0010
0001
,  // measure 63
1000
0000
0000
0000
0000
0000
0010
1000
,  // measure 64
0001
0000
0000
0010
0000
0000
0001
0000
0000
0100
0000
0000
0010
0000
1000
0000
,  // measure 65
0100
0000
0000
1000
0000
0000
0010
0000
0000
0100
0000
0000
0001
1000
0001
1000
,  // measure 66
0001
0000
0000
0010
0000
0000
0001
0000
0000
0100
0000
0000
0010
0000
1000
0000
,  // measure 67
0100
0000
0000
1000
0000
0000
0001
0000
0000
0010
0000
0000
0001
0000
0000
0000
,  // measure 68
1000
0000
0000
0010
0000
0000
1000
0000
0000
0100
0000
0000
0001
0000
0100
0000
,  // measure 69
1000
0000
0000
0100
0000
0000
0010
0000
0000
0001
0000
0000
1000
0001
1000
0001
,  // measure 70
1000
0000
0000
0010
0000
0000
0100
0000
0000
0001
0000
0000
0010
0000
0100
0000
,  // measure 71
1000
0000
0000
1100
0000
0000
0001
0000
0000
0101
0000
0000
0100
0000
0000
0000
,  // measure 72
0110
0000
1010
0000
0001
1000
0001
0010
,  // measure 73
0011
0000
1100
0000
1000
0001
1000
0010
,  // measure 74
0110
0000
1001
0000
0010
1000
0010
0100
,  // measure 75
0100
0001
0010
0000
0100
1000
0100
0010
,  // measure 76
0001
0000
0101
0000
0010
0100
0010
1000
,  // measure 77
1001
0000
0010
0000
0001
1000
0010
1000
,  // measure 78
0100
0000
1000
0000
0001
0000
0100
0000
0001
0000
1000
0000
0001
0010
0100
1000
,  // measure 79
0001
1000
0001
0000
1000
0100
0010
0001
,  // measure 80
1000
0000
0000
0000
;

//---------------dance-single - S-STANDARD----------------
#NOTES:
     dance-single:
     DJ OMiY-SSP:
     Medium:
     6:
     0.376205,0.453440,0.139520,0.209280,0.000000,302.000000,286.000000,16.000000,24.000000,0.000000,0.000000,0.376205,0.453440,0.139520,0.209280,0.000000,302.000000,286.000000,16.000000,24.000000,0.000000,0.000000:
0000
0000
0000
0000
,
0000
0000
0000
0000
,
0000
0000
0000
0000
,
0000
0000
0000
0000
,
1000
0000
0001
0000
0000
1000
0001
0000
,
0100
0000
0100
0000
0000
0010
0100
0000
,
0001
0000
1000
0000
0000
0001
1000
0000
,
1001
0000
0110
1001
,
0010
0000
0010
0000
0000
0100
0000
0001
,
2000
0000
0000
0200
0000
0000
3300
0000
,
0010
0000
0010
0000
0000
0100
0000
0010
,
0002
0000
0000
0200
0000
0000
0303
0000
,
1000
0001
1000
0001
,
0100
0010
0100
0010
,
1000
0010
0100
0001
,
2002
0003
0100
3001
,
0010
0010
0001
1000
,
0100
0010
0001
1000
,
0020
0001
0100
1030
,
0001
0000
1000
0000
0010
1000
0000
1000
,
0100
0001
0100
1000
,
0010
0100
0001
0010
,
2001
0000
0001
0000
3001
1000
0001
0000
,
0020
0000
0000
0000
0000
0000
0031
0001
,
0100
0000
0010
0000
1000
0000
0010
0100
,
0001
0000
0010
0000
0100
0000
1000
0001
,
0020
1000
0100
0031
,
1000
0000
1000
0000
0001
0010
0000
0010
,
0100
1000
0010
0001
,
0010
1000
0100
0010
,
0001
1000
0010
0000
0100
0001
1000
0000
,
0110
0000
0001
1001
,
0100
0010
1000
0100
,
1000
0001
0100
0010
,
1000
0100
1000
0000
0002
0000
0003
0000
,
0010
0001
0010
0000
0200
0000
0300
0000
,
1000
0001
0010
0001
,
0100
1000
0100
0001
,
1000
0010
1000
0000
0200
0000
0300
0000
,
0220
0000
0000
0330
,
0001
1000
0001
1000
,
0010
0000
0100
0001
1000
0000
0000
0000
,
0010
0100
0001
1000
,
0100
0000
0010
0100
1000
0000
0000
0000
,
0020
0000
0000
0030
,
2000
0000
0000
3000
,
0001
0110
1000
0110
,
0001
0000
0000
0000
,
1000
0000
1000
0000
0000
1000
0100
0000
,
0001
0000
0001
0000
0000
0001
0100
0000
,
1000
0000
1000
0000
0000
1000
0100
0000
,
0020
0000
1000
0031
,
0001
0000
0001
0000
0000
0001
0100
0000
,
1000
0000
1000
0000
0000
1000
0100
0000
,
0001
0000
0001
0000
0000
0001
0100
0000
,
0010
0000
0000
0000
,
1000
0000
1000
0000
0000
0001
0000
0100
,
0020
0000
0000
0200
0000
0000
0330
0000
,
1000
0000
1000
0000
0000
0001
0000
0100
,
0002
0000
0000
0020
0000
0000
0033
0000
,
1100
0000
1001
0001
,
0101
0000
1001
1000
,
0010
0100
0010
0000
1000
0010
1000
0010
,
0200
0000
0000
0300
,
0001
0010
0001
1000
,
0010
0000
0100
0000
0001
0000
1000
0100
,
1000
0000
0010
0000
0100
0000
0001
0010
,
0001
0000
1000
0000
,
0010
0100
0001
0010
,
1000
0000
0010
0000
0001
0000
1000
0100
,
1000
0000
0010
0000
0100
0000
0001
0010
,
0002
0000
0000
0003
,
0100
0000
0100
0000
0100
0010
1000
0000
,
0010
0000
0010
0000
0010
0100
0001
0000
,
1000
1000
0001
0001
,
1000
0100
0001
0010
,
1000
0000
1000
0000
1000
0100
0010
0000
,
0001
0000
0001
0000
0001
0010
0100
0000
,
1001
0000
1001
0000
,
0100
0010
0100
0000
0001
1000
0001
1000
,
0010
0000
0000
0000
;

//---------------dance-single - S-LIGHT----------------
#NOTES:
     dance-single:
     DJ OMiY-LSP:
     Easy:
     4:
     0.282777,0.383680,0.095920,0.122080,0.000000,227.000000,216.000000,11.000000,14.000000,0.000000,0.000000,0.282777,0.383680,0.095920,0.122080,0.000000,227.000000,216.000000,11.000000,14.000000,0.000000,0.000000:
0000
0000
0000
0000
,
0000
0000
0000
0000
,
0000
0000
0000
0000
,
0000
0000
0000
0000
,
1000
0100
0000
0100
,
0001
0100
0000
0100
,
1000
0010
0000
0010
,
0001
0000
0010
1000
,
0001
0000
0001
0000
,
1000
0000
1000
0000
,
0010
0000
0010
0000
,
1000
0000
1000
0000
,
0200
0300
0020
0030
,
0002
0003
2000
3000
,
0001
0010
0100
1000
,
0001
0000
0000
0000
,
1000
0100
1000
0100
,
0010
0001
0010
0001
,
0100
0000
0100
0000
,
0010
0000
0010
0000
,
0100
0001
0100
0001
,
1000
0010
1000
0010
,
0100
0100
0100
0000
,
0010
0010
0020
0030
,
1000
0100
1000
0100
,
0001
0100
0001
0100
,
1000
0000
0001
0000
,
0010
0001
0010
0000
,
0100
1000
0100
1000
,
0010
0100
0010
0100
,
0001
0010
0001
0010
,
0200
0000
0300
0000
,
0001
0010
0100
1000
,
0001
0010
0100
1000
,
0001
0100
0001
0000
,
1000
0100
1000
0000
,
0001
0100
1000
0100
,
0001
0100
1000
0100
,
0001
1000
0001
0000
,
2002
0000
3003
0000
,
0010
0100
0010
0100
,
0002
0003
2000
3000
,
0100
1000
0100
1000
,
0020
0030
0200
0300
,
1001
0000
0000
0000
,
0110
0000
0000
0000
,
0001
1001
0100
1001
,
0010
0000
0000
0000
,
0100
0100
0100
0000
,
0010
0010
0010
0000
,
1000
0001
1000
0000
,
0010
0000
0100
0000
,
0000
0001
0000
0100
,
0000
0000
0010
1000
,
0000
0000
0000
0000
,
1001
0000
0000
0000
,
0100
0000
0100
0000
,
0010
0000
0010
0000
,
1000
0000
1000
0000
,
0001
0000
0001
0000
,
0010
0000
0001
0100
,
0010
0000
1000
0100
,
0010
0100
1000
0001
,
0200
0000
0300
1001
,
0010
0001
1000
0010
,
0100
0001
1000
0100
,
1000
0010
0100
0001
,
1000
0000
0000
0000
,
0010
0100
0001
1000
,
0100
0010
0001
0010
,
0100
0000
1000
0000
,
1001
0110
1001
0000
,
0010
0010
0010
0001
,
0100
0100
0100
0010
,
1000
0000
0001
0000
,
1000
0100
0010
0001
,
1000
1000
1000
0001
,
0010
0010
0010
0100
,
2000
0000
0000
3000
,
0100
0100
0010
0010
,
1001
0000
0000
0000
;

//---------------dance-single - BEGINNER----------------
#NOTES:
     dance-single:
     DJ OMiY-BEG:
     Beginner:
     2:
     0.151977,0.244160,0.043600,0.122080,0.000000,122.000000,117.000000,5.000000,14.000000,0.000000,0.000000,0.151977,0.244160,0.043600,0.122080,0.000000,122.000000,117.000000,5.000000,14.000000,0.000000,0.000000:
0000
0000
0000
0000
,
0000
0000
0000
0000
,
0000
0000
0000
0000
,
0000
0000
0000
0000
,
0000
0100
0000
0100
,
0000
0100
0000
0100
,
0000
0010
0000
0010
,
0010
0000
1000
1000
,
2000
0000
0000
0000
,
3000
0000
0000
0001
,
0002
0000
0000
0000
,
0003
0000
0000
0100
,
0100
0000
0000
0000
,
0010
0000
0000
0000
,
1000
0000
0001
0000
,
1000
0000
0000
0000
,
0010
0000
0010
0000
,
0100
0000
0100
0000
,
0001
0000
0000
0000
,
1000
0000
0000
0000
,
0001
0000
0001
0000
,
0010
0000
0010
0000
,
0100
0000
0000
0000
,
1000
0000
0000
0000
,
0001
0000
0010
0000
,
0001
0000
0010
0000
,
0001
0000
0000
0000
,
1000
0000
0000
0000
,
1000
0000
0010
0000
,
1000
0000
0010
0000
,
0100
0000
0001
0000
,
0100
0000
0000
0000
,
0020
0000
0030
0000
,
2000
0000
3000
0000
,
0001
0000
1000
0000
,
0001
0000
1000
0000
,
0002
0000
0003
0000
,
0020
0000
0030
0000
,
0100
0000
1000
0000
,
0100
0000
0000
0000
,
1000
0000
1000
0000
,
0100
0000
0100
0000
,
0010
0000
0010
0000
,
0001
0000
0001
0000
,
1001
0000
0000
0000
,
1001
0000
0000
0000
,
0010
0010
0010
0010
,
0010
0000
0000
0000
,
0002
0000
0000
0000
,
0000
0000
0000
0003
0000
0000
0000
0000
,
2000
0000
0000
0000
,
0000
0000
0000
3000
0000
0000
0000
0000
,
0000
0010
0000
0010
,
0000
0000
0100
0100
,
0000
0000
0000
0000
,
0110
0000
0000
0000
,
0002
0000
0000
0000
,
0003
0000
0000
1000
,
2000
0000
0000
0000
,
3000
0000
0000
0010
,
0010
0000
1000
0000
,
0001
0000
0100
0000
,
2002
0000
0000
0000
,
3003
0000
0000
0000
,
1001
0000
0010
0000
,
1000
0000
0010
0000
,
0100
0000
0001
0000
,
0100
0000
0001
0000
,
0010
0000
0001
0000
,
0010
0000
0001
0000
,
1000
0000
0100
0000
,
2000
0000
3000
0000
,
0010
0000
1000
0000
,
0100
0000
1000
0000
,
0001
0000
0100
0000
,
0010
0000
0100
0000
,
0001
0000
1000
0000
,
0001
0000
0010
0000
,
0200
0000
0300
0000
,
1000
0000
0010
0010
,
0010
0000
0000
0000
;
