#TITLE:SPARKLE;
#SUBTITLE:;
#ARTIST:Sota Fujimori 2nd Season;
#TITLETRANSLIT:;
#SUBTITLETRANSLIT:;
#ARTISTTRANSLIT:;
#GENRE:Glamorous;
#CREDIT:;
#BANNER:SPARKLE-bn.png;
#BACKGROUND:SPARKLE-bg.png;
#LYRICSPATH:;
#CDTITLE:;
#MUSIC:SPARKLE.ogg;
#OFFSET:-0.376000;
#SAMPLESTART:10.919451;
#SAMPLELENGTH:21.098902;
#SELECTABLE:YES;
#BPMS:0.000000=182.000000
,128.000000=91.000000
,136.000000=182.000000
,200.000000=91.000000
,216.000000=182.000000
;
#STOPS:
;
#BGCHANGES:;
#KEYSOUNDS:;
#ATTACKS:;

//---------------dance-single - ----------------
#NOTES:
     dance-single:
     :
     Hard:
     8:
     0.582452,0.599261,0.127696,0.428695,0.109454,386.000000,14.000000,47.000000,0.000000,0.000000,0.000000,0.582452,0.599261,0.127696,0.428695,0.109454,386.000000,14.000000,47.000000,0.000000,0.000000,0.000000:
0000
0000
0000
0000
,
0000
0000
0000
0000
,
0000
0000
0000
0000
,
0000
0000
0000
0000
,
0000
0000
0000
0000
,
0000
0000
0000
0000
,
0000
0000
0000
0000
,
0000
0000
0000
0000
,
1200
0000
0310
0001
0100
0010
0100
0002
,
0000
0000
1003
0000
0010
1000
0001
0000
,
2000
0000
3100
0000
1000
0002
0000
0200
,
0000
0003
0310
0000
1000
0001
0100
0000
,
0001
0010
0001
1000
0100
0010
0000
0200
,
0000
0000
1000
0000
0310
0100
1000
0000
,
0110
0000
0001
1000
0001
0010
0000
0200
,
0000
0300
0010
0001
1000
0001
1001
0000
,
0010
0100
0100
0001
0001
0000
0010
0001
,
0001
1000
1000
0020
0000
2030
0000
3200
,
0000
1300
0001
0100
0001
0000
1000
0100
,
0020
0000
0031
0200
0000
0320
0000
2030
,
0000
3010
0010
0100
0100
0000
0001
0010
,
0010
0001
0001
2000
0000
3002
0000
0023
,
0000
0031
0100
0001
1000
0000
0010
1000
,
0020
0000
1030
0200
0000
1300
0001
0000
,
0100
0001
0010
0001
0000
1000
0010
0000
,
0100
0000
0000
0010
0000
0000
1000
0000
0000
0000
1000
0000
0001
0000
0000
0000
,
0010
0001
1000
0010
0000
0100
0010
0000
,
1000
0000
0000
0001
0000
0000
1001
0000
0000
0000
0010
0000
0100
0000
0000
0000
,
1000
0001
0010
0001
0000
0001
0100
0000
,
0010
0000
0000
0100
0000
0000
0001
0000
0000
0000
1000
0000
0100
0000
0000
0000
,
0010
0100
1000
0001
0000
0100
0000
0010
,
1000
0000
0000
0110
0000
0000
2002
0000
0000
0000
0000
0000
3003
0000
0000
0000
,
0010
0000
0000
0010
1000
0000
0000
0000
0000
1000
0000
1000
0010
0000
0000
0000
,
1000
0000
0000
0001
0010
0000
0000
0000
0000
0001
0000
0001
0010
0100
0010
0000
,
0001
0100
0010
1000
0100
0010
0001
0000
,
1000
0010
0100
0001
0010
0100
1000
0000
,
0010
1000
0100
0010
0001
0100
0010
0000
,
2000
3002
0203
0320
,
0130
0001
0010
0100
1000
0010
0100
0000
,
0001
0100
0010
1000
0100
0010
0001
0000
,
1000
0010
0100
0001
0010
0100
0010
0000
,
0001
0100
0010
1000
0001
0010
0100
1000
,
0002
0000
0203
0000
0310
1000
0010
1000
,
0001
0010
0000
0010
0002
0003
0002
0003
,
0100
0010
0000
0010
1000
0001
1000
0001
,
0100
0010
0100
0010
2000
0000
3002
0000
,
0203
0000
0000
0310
0000
0110
0000
0001
,
0100
0010
1000
0001
2000
0000
3200
0000
,
0310
0000
0010
0000
0001
0010
0001
0010
,
0100
0000
0000
1100
0000
0000
0010
0000
0010
1000
0000
1000
,
0001
0000
0000
0000
0010
0001
0010
0100
0000
0000
1000
0000
0100
0000
0000
0000
,
2000
0000
0000
0000
3010
0100
0000
0001
0000
0000
0010
0000
0001
0000
1000
0000
,
0010
0000
0100
0010
0000
1000
0000
2000
0000
0000
0000
0000
3100
0000
1000
0000
,
0001
0000
0001
0100
1000
0100
0000
0001
0000
0000
1000
0000
0010
0100
0010
0000
,
1000
1100
0010
0011
,
0001
0100
0010
0200
0000
0000
1300
0000
,
0100
0001
0100
0010
0000
1000
0010
0000
,
0100
0001
0010
0002
0000
1000
1000
0003
,
0100
0001
0010
0001
1000
0000
0010
1000
,
0100
0010
0001
0200
0000
0302
0000
0013
,
0001
1000
0001
0010
0000
0001
0000
1000
,
0010
0100
0010
2000
0000
3200
0000
0300
,
1000
0001
1000
0010
0100
0010
1000
0000
,
0001
0010
0001
1000
0100
1000
0010
0000
,
0100
0001
0010
0100
1000
0010
0100
0000
,
0001
0100
0001
0100
0000
0110
0000
0000
,
1000
0010
1000
0001
0010
0001
0100
0000
,
0010
1000
0010
0100
0001
0100
0010
0000
,
1000
0100
1000
0001
0010
0001
1000
0000
,
0100
0010
0100
1000
0001
1000
0010
0000
,
0101
0000
1001
0000
0000
2000
0000
3200
,
0000
0320
0000
0032
0000
0103
1000
0100
,
0020
0000
0000
0030
,
1001
0000
0000
0000
;

//---------------dance-single - ----------------
#NOTES:
     dance-single:
     :
     Challenge:
     10:
     0.822209,0.998769,0.255393,0.310120,0.601998,569.000000,28.000000,34.000000,0.000000,0.000000,0.000000,0.822209,0.998769,0.255393,0.310120,0.601998,569.000000,28.000000,34.000000,0.000000,0.000000,0.000000:
// measure 0
0000
0000
0000
0000
,  // measure 1
0000
0000
0000
0000
,  // measure 2
0000
0000
0000
0000
,  // measure 3
0000
0000
0000
0000
,  // measure 4
0000
0000
0000
0000
,  // measure 5
0000
0000
0000
0000
,  // measure 6
0000
0000
0000
0000
,  // measure 7
0000
0000
0000
0000
,  // measure 8
0101
0001
0010
0001
0100
0010
1000
0200
,  // measure 9
0010
0000
1000
0000
0301
0100
1000
0000
,  // measure 10
1001
0000
1100
0000
0010
1000
0001
0200
,  // measure 11
0010
0000
0001
0000
1300
0100
0001
0100
,  // measure 12
0010
0000
1001
0001
0010
0001
1000
0200
,  // measure 13
0010
0000
1000
0000
0301
0100
1000
0000
,  // measure 14
0001
0000
0100
0010
0100
0001
0100
0020
,  // measure 15
0000
0000
1000
0000
1030
0000
0000
0000
0001
1000
0100
0010
0001
0000
0000
0000
,  // measure 16
0100
0010
0010
1000
1000
0001
0100
0001
,  // measure 17
0001
0010
0010
0200
0000
2300
0000
3001
,  // measure 18
0100
0001
0001
0010
0010
0001
1000
0100
,  // measure 19
0011
0000
0100
2000
0000
3020
0000
0031
,  // measure 20
0010
0100
0100
0001
0001
1000
0010
1000
,  // measure 21
1000
0100
0100
0020
0000
0032
0000
1003
,  // measure 22
0001
0100
0100
0010
0010
1000
0100
1000
,  // measure 23
0002
0000
0013
0100
1000
0001
0101
0000
,  // measure 24
0010
0000
1000
0000
0001
0100
0001
0000
0000
0000
1000
0000
0100
0000
1000
0000
,  // measure 25
0010
0000
0100
0010
0000
0000
1000
0000
0001
0000
0010
0000
0100
0000
1000
0000
,  // measure 26
0001
0000
0010
0000
0001
1000
0001
0000
0000
0000
1000
0000
0010
0000
1000
0000
,  // measure 27
0001
0000
0000
0100
0000
0000
1001
0000
0000
0000
0010
0000
1000
0000
0001
0000
,  // measure 28
1000
0000
0100
0000
0010
0100
1000
0000
0000
0000
0001
0000
0100
0000
0001
0000
,  // measure 29
0010
0000
0100
0010
0000
0000
0001
0000
0100
0000
0001
0000
1000
0000
0010
0000
,  // measure 30
1000
0000
0100
0000
0010
0001
0010
0000
0100
0000
1000
0000
0001
0000
0100
0000
,  // measure 31
0101
0000
0000
1010
0000
0000
0202
0000
0000
0300
0000
0000
1003
0000
0000
0000
,  // measure 32
0020
0000
1030
0100
1000
0100
0010
0001
0000
0100
0001
0010
0100
0010
0001
1000
,  // measure 33
0010
0010
1000
0100
1000
0001
1000
0100
0000
0010
0100
1000
0001
0000
1001
0000
,  // measure 34
0010
1000
0010
1000
0010
0000
0100
0001
0100
0001
0100
0000
0001
1000
0001
0000
,  // measure 35
0010
0100
0010
0100
0010
0000
0100
1000
0100
1000
0100
0000
1000
0001
1000
0000
,  // measure 36
0010
1000
0010
1000
0010
0000
1000
0001
1000
0001
1000
0000
0001
0010
0001
0000
,  // measure 37
0100
1000
0100
1000
0100
0001
0100
0001
,  // measure 38
0010
0001
0010
0001
0010
0000
0100
1000
0100
1000
0100
0000
1000
0001
1000
0000
,  // measure 39
0010
1000
0010
1000
0010
0000
0100
0001
0100
0001
0100
0000
0001
1000
0001
0000
,  // measure 40
0010
0100
0010
0100
0010
0000
0001
1000
0001
1000
0001
0000
1000
0100
1000
0000
,  // measure 41
0010
0001
0010
0001
0010
1000
0010
1000
,  // measure 42
0002
0000
0203
0000
0310
1000
0010
0100
,  // measure 43
0002
0000
2003
0000
3010
1000
0001
1000
0020
0000
0000
0030
0020
0000
0000
0030
,  // measure 44
0100
0000
0001
0000
1000
0000
0100
1000
0100
0000
0100
0000
0100
0000
0010
0000
,  // measure 45
0001
0000
0010
0000
0001
1000
0100
1000
0001
0000
0100
0000
1000
0000
0100
0000
,  // measure 46
0002
0000
0000
0000
0000
0003
0011
0000
0000
0000
1010
0000
0000
0000
0001
0000
,  // measure 47
1000
0000
0000
0010
0000
0000
0010
0000
0000
1000
0000
0000
0100
0000
1000
0000
0001
0000
1000
0000
0010
0000
0100
0000
,  // measure 48
0020
0000
0000
0000
1030
0001
0100
0001
0100
0000
0001
0000
0010
0000
0100
0000
,  // measure 49
1000
0000
0000
0010
0000
0000
0200
0000
0000
0000
0000
0000
0310
0000
1000
0000
0100
0000
0010
0000
0001
0000
0100
0000
,  // measure 50
0010
0000
0000
0000
1001
1000
0010
0002
0000
0000
0013
0000
0100
0001
1000
0001
,  // measure 51
0010
0100
0010
0100
0000
0000
0000
0000
1000
0000
0100
0000
0000
0000
1100
0000
0000
0000
0000
0000
0020
0000
0000
0000
0031
0000
1000
0000
0100
0000
0010
0000
,  // measure 52
0001
0010
1000
0010
0010
0001
0000
0201
0000
0000
0310
0000
0100
0001
0100
0010
,  // measure 53
1000
0000
0000
0000
0001
1000
0001
1000
0001
0000
0100
0000
0000
0000
0210
0000
0000
0000
0000
0000
0301
0000
0000
0000
1000
0100
0010
0001
1000
0000
0000
0000
,  // measure 54
0001
0000
0100
0000
0010
0000
0100
0000
0001
0000
1000
0000
0100
0000
0010
0001
,  // measure 55
0010
0100
0010
0002
0010
0000
1000
0000
,  // measure 56
0103
0001
0100
0010
1000
0001
0010
0001
,  // measure 57
1000
0100
0010
0011
0000
0101
0010
0000
,  // measure 58
1000
0000
0001
0000
0100
0000
0001
0000
1000
0000
0010
0000
1000
0000
0001
1000
,  // measure 59
0010
0100
0001
0020
0000
0230
0000
1300
,  // measure 60
0100
1000
0001
0100
0001
0010
0001
1000
,  // measure 61
0010
1000
0100
0010
0001
0202
0000
0303
,  // measure 62
0001
1000
0001
1000
0001
0000
0100
0001
0100
0001
0100
0000
0010
1000
0010
0000
,  // measure 63
0100
0010
0100
0010
0100
0000
0001
0100
0001
0100
0001
0000
1000
0100
1000
0000
,  // measure 64
0010
1000
0010
1000
0010
0000
1000
0100
1000
0100
1000
0000
0001
0010
0001
0000
,  // measure 65
0100
0010
1000
0101
0000
1010
1000
0010
,  // measure 66
1000
0001
1000
0001
1000
0000
0001
0010
0001
0010
0001
0000
0100
0001
0100
0000
,  // measure 67
0010
0100
0010
0100
0010
0000
1000
0010
1000
0010
1000
0000
0001
0100
0001
0000
,  // measure 68
1000
0100
1000
0100
0010
0000
0001
0010
0001
0010
0100
0000
1000
0001
1000
0000
,  // measure 69
0010
0100
0010
0100
0001
0100
0001
1000
0001
0000
0100
0010
1000
0010
1000
0001
,  // measure 70
0100
0000
0101
0000
0001
0011
0000
1100
,  // measure 71
0000
1001
0000
0210
0000
0301
0010
1000
,  // measure 72
0020
0000
0000
0030
,  // measure 73
1001
0000
0000
0000
;

//---------------dance-single - ----------------
#NOTES:
     dance-single:
     :
     Medium:
     6:
     0.454756,0.499384,0.145939,0.519907,0.045606,276.000000,16.000000,57.000000,0.000000,0.000000,0.000000,0.454756,0.499384,0.145939,0.519907,0.045606,276.000000,16.000000,57.000000,0.000000,0.000000,0.000000:
0000
0000
0000
0000
,
0000
0000
0000
0000
,
0000
0000
0000
0000
,
0000
0000
0000
0000
,
0000
0000
0000
0000
,
0000
0000
0000
0000
,
0000
0000
0000
0000
,
0000
0000
0000
0000
,
1000
0000
1000
0000
0001
0100
0000
0020
,
0000
0000
0130
0000
1000
0001
1000
0000
,
0100
0000
1000
0000
0001
0100
0000
0002
,
0000
0000
0013
0000
0001
1000
0100
0000
,
1000
0000
0010
0000
0100
0010
0000
0200
,
0000
1300
0011
1010
,
0001
0000
0100
0000
0010
1000
0000
2002
,
0000
0000
3003
0000
0010
0100
0010
0000
,
0000
1000
0100
0000
0001
0000
0001
1000
,
0100
0000
1000
0010
0000
0010
0000
0010
,
0000
1000
0001
0000
0001
0000
1000
0001
,
0200
0000
0000
0301
0000
1000
0000
0001
,
0000
0100
0010
0000
0010
0000
0001
1000
,
0010
0000
0010
1000
0000
1000
0000
1000
,
0000
0001
0010
0000
0010
0000
0001
1000
,
0001
0000
0100
0010
0000
0000
0000
0000
,
1000
0100
0010
0000
0001
0000
0100
0000
,
0001
1100
0101
1100
,
0010
1000
0001
0000
0010
0000
0001
0000
,
0100
0000
0000
0100
0000
0000
0100
0000
0000
0000
0000
0000
0110
0000
0000
0000
,
0001
1000
0100
0000
0010
0000
0001
0000
,
1000
0011
1010
0011
,
0100
0010
1000
0000
0010
0000
0100
0000
,
0001
0000
0000
1000
0000
0000
2002
0000
0000
0000
0000
0000
3003
0000
0000
0000
,
0010
1000
0100
0010
,
0001
0000
0100
0000
0010
0100
0010
0000
,
2000
0000
0000
3200
0000
0000
0320
0000
,
0032
0000
0000
0203
0000
0000
0320
0000
,
2030
0000
0000
3200
0000
0000
0320
0000
,
0031
0100
0001
0100
0000
0100
0000
0000
,
0020
0000
0000
2030
0000
0000
3002
0000
,
0023
0000
0000
2030
0000
0000
3020
0000
,
0032
0000
0000
0203
0000
0000
0320
0000
,
1030
0010
1000
0010
0000
0010
0000
0000
,
0100
0000
0100
0000
0001
0010
0001
0000
,
1000
0100
0110
0110
,
0002
0000
2003
0000
3010
0100
0010
0100
,
0001
0100
0001
0000
0010
0000
0010
0000
,
2100
0000
0000
0001
0000
3001
0000
1000
,
0001
0100
0010
0010
,
1000
0200
0310
0001
,
0100
0001
0200
0000
0310
0000
1010
0000
,
0101
0000
0000
0000
1000
0100
0000
0100
0000
0000
0000
0000
0010
0000
0000
0000
,
0001
0000
0000
0000
0010
0100
0000
0100
0000
0000
0000
0000
1000
0000
0000
0000
,
0001
0000
1000
0000
0000
0010
0000
0010
0000
0000
0000
0000
0100
0000
0000
0000
,
0010
0000
1000
0000
0000
0001
0000
0001
0000
0000
0000
0000
1000
0000
0001
0000
,
0100
0100
0100
0010
,
1000
1000
0002
0013
,
0100
0010
0100
0010
0000
0001
0000
0000
,
1000
0100
1000
0100
0000
1000
0000
0000
,
0010
0100
0001
1000
,
0100
0000
0010
0001
0000
1000
0000
0001
,
0100
0010
0100
0001
,
1000
0100
0010
0001
0000
1000
0000
0000
,
0002
0000
0000
0023
0000
0000
0230
0000
,
2300
0000
0000
3200
0000
0000
0320
0000
,
0032
0000
0000
0203
0000
0000
2300
0000
,
3100
0001
0100
0001
0000
0001
0000
0000
,
0020
0000
0000
0032
0000
0000
0203
0000
,
2300
0000
0000
3200
0000
0000
0302
0000
,
2003
0000
0000
3200
0000
0000
0320
0000
,
0130
1000
0100
1000
0000
1000
0000
0000
,
0002
0000
2003
0000
3000
0020
0000
2030
,
0000
3200
0000
0302
0000
0103
1000
0100
,
0020
0000
0000
0000
,
0031
0000
0000
0000
;

//---------------dance-single - ----------------
#NOTES:
     dance-single:
     :
     Easy:
     4:
     0.314029,0.399507,0.173302,0.237151,0.000000,196.000000,19.000000,26.000000,0.000000,0.000000,0.000000,0.314029,0.399507,0.173302,0.237151,0.000000,196.000000,19.000000,26.000000,0.000000,0.000000,0.000000:
0000
0000
0000
0000
,
0000
0000
0000
0000
,
0000
0000
0000
0000
,
0000
0000
0000
0000
,
0000
0000
0000
0000
,
0000
0000
0000
0000
,
0000
0000
0000
0000
,
0000
0000
0000
0000
,
1001
0010
0001
0100
,
1010
0000
0001
0000
,
1010
0100
0001
1000
,
0011
0000
0100
0000
,
1001
1000
0001
0100
,
0101
0000
0010
0000
,
0011
1000
0001
0010
,
1010
0000
0100
0100
,
0000
0001
1000
0000
,
0010
0100
0002
0003
,
0000
0010
0100
0000
,
1000
0000
0001
0000
,
0000
1000
0010
0000
,
0100
0001
2000
3000
,
0000
0010
0100
0000
,
0001
0000
0010
0000
,
0001
0001
0001
0100
,
2000
0000
3000
0100
,
0001
0001
0001
0010
,
2000
0000
3000
0110
,
1000
1000
1000
0010
,
0002
0000
0003
0010
,
1000
1000
1000
0100
,
0002
0000
0003
0000
,
1001
1000
0000
0001
,
0000
0010
0000
0001
,
0100
0100
0010
0000
,
1000
0001
1000
0000
,
0010
1000
0100
0000
,
0010
0001
0010
0001
,
1000
0001
0100
0000
,
0010
1000
0100
0000
,
1000
0001
0010
0000
,
0001
1000
0001
1000
,
0020
0130
0200
0310
,
2000
3001
0002
1003
,
0020
1030
2000
3010
,
0200
0301
0002
0103
,
2002
0000
0000
0003
0000
3000
0000
0000
,
0010
0010
1000
0001
,
0020
0130
1000
0001
,
2000
3020
0100
0130
,
1001
0010
0000
0010
,
1001
0100
0000
0100
,
0110
0001
0000
0001
,
0110
1000
0000
1000
,
0001
0001
1000
0100
,
1000
0010
0200
0301
,
0010
0001
1000
0100
,
0020
0000
0000
0030
,
0001
0100
0010
0100
,
0001
1000
0100
0010
,
0001
1000
0100
1000
,
0200
0000
0000
0300
,
0100
1000
0010
0000
,
0100
0001
0010
0000
,
0001
0100
1000
0000
,
0100
0001
1000
0000
,
0010
1000
0100
0000
,
0010
0100
1000
0000
,
0001
0100
0010
0000
,
1000
0001
0100
0010
,
1001
0000
2002
0000
0000
0003
0000
3000
,
0000
0001
0000
1000
0000
0000
0010
0000
,
0220
0000
0000
0330
,
1100
0000
0000
0000
;

//---------------dance-single - ----------------
#NOTES:
     dance-single:
     :
     Beginner:
     2:
     0.179817,0.199754,0.018242,0.218908,0.000000,112.000000,2.000000,24.000000,0.000000,0.000000,0.000000,0.179817,0.199754,0.018242,0.218908,0.000000,112.000000,2.000000,24.000000,0.000000,0.000000,0.000000:
0000
0000
0000
0000
,
0000
0000
0000
0000
,
0000
0000
0000
0000
,
0000
0000
0000
0000
,
0000
0000
0000
0000
,
0000
0000
0000
0000
,
0000
0000
0000
0000
,
0000
0000
0000
0000
,
0002
0000
0000
0000
0000
0000
0000
0003
,
0000
0000
1000
0000
,
2000
0000
0000
0000
0000
0000
0000
3000
,
0000
0000
0010
0000
,
0020
0000
0000
0000
0000
0000
0000
0030
,
0000
0000
0100
0000
,
0200
0000
0000
0000
0000
0000
0000
0300
,
0000
0000
0001
0000
,
0000
1000
1000
0000
,
0100
0100
0000
0000
,
0000
0010
0010
0000
,
0002
0000
0003
0000
,
0000
0010
0010
0000
,
0001
0001
0000
0000
,
0000
1000
1000
0000
,
0200
0000
0300
0000
,
1000
0000
0010
0000
,
1000
0000
0000
0000
,
0001
0000
0010
0000
,
0010
0000
0000
0000
,
1000
0000
0001
0000
,
0100
0000
0000
0000
,
0010
0000
1000
0000
,
2000
0000
3000
0000
,
0020
0000
0030
0000
,
0200
0000
0300
0000
,
0001
0001
0001
0000
,
1000
1000
1000
0000
,
0010
0010
0020
0000
,
0030
0000
0000
0000
,
0100
0100
0100
0000
,
0001
0001
0001
0000
,
1000
1000
2000
0000
,
3000
0000
0000
0000
,
0010
0000
1000
0000
,
0010
0000
1000
0000
,
0001
0000
0100
0000
,
0002
0000
0003
0000
,
0010
0000
0100
0000
,
0010
0000
0100
0000
,
1000
0000
0001
0000
,
2000
0000
3000
0000
,
0001
0001
0000
0100
,
0100
0100
0000
0010
,
0010
0010
0000
1000
,
1000
1000
0000
0001
,
0002
0000
0003
0000
,
0200
0000
0300
0000
,
0010
0000
0010
0000
,
2000
0000
3000
0000
,
0200
0000
0300
0000
,
0020
0000
0030
0000
,
0001
0000
1000
0000
,
0002
0000
0003
0000
,
0100
0100
0100
0000
,
0001
0001
0001
0000
,
0010
0010
0020
0000
,
0030
0000
0000
0000
,
0001
0001
0001
0000
,
1000
1000
1000
0000
,
0100
0100
0200
0000
,
0300
0000
0000
0000
,
0010
0000
0020
0000
0000
0000
0000
0030
,
0000
0000
0000
0000
,
2002
0000
0000
3003
,
1001
0000
0000
0000
;
