#TITLE:SEITEN NO TERIYAKI;
#SUBTITLE:;
#ARTIST:Kobaryo;
#TITLETRANSLIT:;
#SUBTITLETRANSLIT:;
#ARTISTTRANSLIT:;
#GENRE:Chaotic Speedcore;
#CREDIT:;
#BANNER:SEITEN NO TERIYAKI-bn.png;
#BACKGROUND:SEITEN NO TERIYAKI-bg.png;
#LYRICSPATH:;
#CDTITLE:;
#MUSIC:SEITEN NO TERIYAKI.mp3;
#OFFSET:-1.800000;
#SAMPLESTART:8.812965;
#SAMPLELENGTH:14.065933;
#SELECTABLE:YES;
#BPMS:0.000000=136.500000
,16.000000=273.000000
,84.000000=136.500000
,100.000000=273.000000
,164.000000=136.500000
,194.000000=273.000000
,254.000000=136.500000
,256.000000=273.000000
,324.000000=136.500000
,332.000000=68.250000
,335.000000=273.000000
;
#STOPS:377.750000=0.220000,
384.000000=0.220000
;
#BGCHANGES:;
#KEYSOUNDS:;
#ATTACKS:;

//---------------dance-single - S-HEAVY----------------
#NOTES:
     dance-single:
     DJ OMiY-HSP:
     Hard:
     10:
     0.628236,0.714074,0.139332,0.374454,0.008708,505.000000,489.000000,16.000000,43.000000,0.000000,0.000000,0.628236,0.714074,0.139332,0.374454,0.008708,505.000000,489.000000,16.000000,43.000000,0.000000,0.000000:
// measure 0
0000
0000
0000
0000
,  // measure 1
0000
0000
0000
0000
,  // measure 2
0000
0000
0000
0000
,  // measure 3
0000
0000
0000
0000
,  // measure 4
0010
0010
0010
0010
,  // measure 5
1000
0000
0001
0000
0010
0001
1000
0010
,  // measure 6
0000
0100
0010
0100
0001
0000
1000
0000
,  // measure 7
0010
1000
0100
0010
0000
0001
0000
0001
,  // measure 8
0200
0320
2030
3002
,  // measure 9
0103
0000
0010
0000
0100
0001
0100
0010
,  // measure 10
0000
1000
0001
1000
0100
0000
1000
0000
,  // measure 11
0010
0000
0010
1000
0001
0000
0100
0000
,  // measure 12
0010
1000
0000
0110
0000
0100
0001
0100
,  // measure 13
0010
0000
0100
0000
0001
0010
0100
1000
,  // measure 14
0000
0010
0100
0010
1000
0000
0001
0000
,  // measure 15
0010
0100
0010
0001
0000
1000
0000
0010
,  // measure 16
2000
3002
0203
0320
,  // measure 17
1030
0000
0001
0000
0010
0100
0010
0001
,  // measure 18
0000
1000
0100
0010
0100
0000
1000
0000
,  // measure 19
0010
0100
0010
0100
0001
0100
0001
0100
,  // measure 20
0010
1000
0000
0110
0000
0100
0001
1000
,  // measure 21
0002
0100
2003
0010
,  // measure 22
3002
0000
0020
0033
,  // measure 23
1000
0000
0010
0000
1000
0000
0010
0000
0100
0000
0001
0000
0100
0000
0000
0001
,  // measure 24
2000
3100
0002
0103
,  // measure 25
1000
0100
1000
0020
0000
0000
0030
0000
,  // measure 26
0100
0001
1000
0200
0000
0000
0300
0000
,  // measure 27
0010
0100
0010
0002
0000
0000
0003
0000
,  // measure 28
1010
0100
0011
0100
,  // measure 29
1000
0000
0000
0010
0000
0100
0001
0010
,  // measure 30
0100
0000
0000
1000
0000
0010
1000
0001
,  // measure 31
0100
0000
0000
0001
0000
0010
0001
1000
,  // measure 32
0100
1000
0010
0100
,  // measure 33
0001
0000
1000
0000
,  // measure 34
0001
0000
0100
0000
,  // measure 35
0010
1000
0010
0100
,  // measure 36
0010
1000
0001
0000
,  // measure 37
0010
0001
0010
0001
1000
0100
0000
0100
,  // measure 38
0010
0100
0010
0100
1000
0001
1000
0001
,  // measure 39
0200
0000
0000
0000
,  // measure 40
0000
0000
0000
0000
,  // measure 41
0310
0100
0001
0000
1000
0000
0001
0000
,  // measure 42
0100
0010
0100
0000
0001
1000
0100
0000
,  // measure 43
0010
0100
1000
0000
0010
0000
0100
0000
,  // measure 44
0001
0000
1000
0000
0001
0000
0000
0000
0010
0000
0011
0000
0000
1010
0000
0000
,  // measure 45
0000
0000
0110
0000
0001
1000
0001
0000
,  // measure 46
0200
0010
0310
0000
1000
0000
0001
0010
,  // measure 47
1000
0010
0100
0000
1000
0001
0001
0100
,  // measure 48
0002
0003
0010
0010
,  // measure 49
0010
0010
1001
1000
,  // measure 50
0010
0100
0000
0001
0000
1000
0000
0000
,  // measure 51
0000
0000
0010
0100
0010
0000
1000
0000
,  // measure 52
0001
0010
0000
0100
0000
0100
0000
0000
,  // measure 53
0000
0000
1000
0001
1000
0000
0010
0000
,  // measure 54
1000
0100
0000
1001
0000
0000
0001
0000
,  // measure 55
0100
0000
0001
0000
0001
0010
0000
0100
,  // measure 56
0010
0100
1000
0100
0000
0000
1000
0010
,  // measure 57
1000
0010
0100
0000
0002
0000
0203
0000
,  // measure 58
0320
0032
0000
0023
0000
2030
0000
0000
,  // measure 59
3000
0000
0010
0100
0010
0000
1000
0000
,  // measure 60
0010
0100
0000
0001
0000
0010
0000
0000
,  // measure 61
0001
0000
0100
0000
0010
0100
0000
0010
,  // measure 62
1000
0000
0010
0100
0000
0000
0001
0000
,  // measure 63
1000
0001
0010
0000
0200
0000
0300
0000
,  // measure 64
0010
0010
0010
0010
,  // measure 65
1001
0000
1000
0000
0100
1000
0100
1000
,  // measure 66
0001
0010
0001
0000
1000
0000
0001
0010
,  // measure 67
0001
0000
0100
0000
0010
0100
0010
1000
,  // measure 68
0010
0100
0001
0000
0010
0000
0100
1000
,  // measure 69
0100
0000
1000
0000
0010
0100
0001
0100
,  // measure 70
0010
2000
3002
0023
,  // measure 71
0130
1000
0001
0100
0001
0100
0010
1000
,  // measure 72
0001
0000
1000
0000
0001
0000
1000
0010
,  // measure 73
1000
0000
0100
0000
0010
0100
0010
0001
,  // measure 74
0010
0001
1000
0000
0100
0000
1000
0001
,  // measure 75
1000
0000
0010
0000
0100
0001
0100
0010
,  // measure 76
1000
0100
1000
0000
0100
0000
0010
0000
,  // measure 77
0001
0100
0000
0100
0001
0000
1000
0010
,  // measure 78
0000
0010
0100
0000
0001
1000
0100
0000
,  // measure 79
0020
0030
0002
0003
,  // measure 80
0200
0320
2030
3200
,  // measure 81
1300
0000
0000
1000
0000
0000
1000
0000
,  // measure 82
0000
0010
0100
0001
0010
1000
0010
0001
,  // measure 83
0200
0000
1000
0310
,  // measure 84
0010
0010
0010
1001
,  // measure 85
0110
0000
0010
1000
0001
0010
0000
0100
,  // measure 86
0010
0001
1000
0000
0010
1000
0010
0000
,  // measure 87
0100
0000
0001
1000
0001
0010
0000
0100
,  // measure 88
0010
0001
0010
0000
0100
0010
0001
0000
,  // measure 89
0100
0000
0010
1000
0010
0100
0000
0001
,  // measure 90
1000
0010
1000
0000
0100
0010
0001
0000
,  // measure 91
1000
0000
0010
0100
0001
0100
0000
0010
,  // measure 92
1000
0100
1000
0000
0101
0000
1001
0000
,  // measure 93
0101
0000
0010
0100
0010
1000
0000
0100
,  // measure 94
0010
0000
0001
0000
2000
0000
0000
3000
0001
0000
0000
0000
0010
0000
0000
0000
,  // measure 95
0001
0100
0001
0010
0000
0100
1000
0100
,  // measure 96
0020
0030
0000
0000
0001
0000
0000
0000
1000
0000
0000
0000
0010
0000
0100
0000
,  // measure 97
0001
0010
0000
0001
1000
0010
2000
0000
,  // measure 98
3200
0000
1300
0000
0001
0000
0010
0100
,  // measure 99
0010
0100
0000
1000
0001
0100
0001
0010
,  // measure 100
0001
1000
0100
0000
0100
0000
0010
0100
,  // measure 101
1000
0001
0000
0100
0010
0100
0001
0000
,  // measure 102
2002
0000
3003
0000
;

//---------------dance-single - S-STANDARD----------------
#NOTES:
     dance-single:
     DJ OMiY-SSP:
     Medium:
     8:
     0.431679,0.580185,0.095790,0.304788,0.004354,347.000000,336.000000,11.000000,35.000000,0.000000,0.000000,0.431679,0.580185,0.095790,0.304788,0.004354,347.000000,336.000000,11.000000,35.000000,0.000000,0.000000:
// measure 0
0000
0000
0000
0000
,  // measure 1
0000
0000
0000
0000
,  // measure 2
0000
0000
0000
0000
,  // measure 3
0000
0000
0000
0000
,  // measure 4
0100
0100
0100
0100
,  // measure 5
0001
0000
0100
0000
0010
0000
0000
1000
,  // measure 6
0000
0100
0010
0000
,  // measure 7
0001
0000
0000
1000
0000
0100
0000
0000
,  // measure 8
2000
3020
0230
0302
,  // measure 9
1003
0000
0001
0000
0010
0000
0000
0001
,  // measure 10
0000
0100
1000
0100
,  // measure 11
0001
0000
0000
1000
0000
0000
0001
0000
,  // measure 12
0100
0010
0000
1001
0000
0000
0100
0000
,  // measure 13
0001
0000
0010
0000
0100
0000
1000
0001
,  // measure 14
0000
0100
0010
0100
,  // measure 15
0001
0000
0000
1000
0000
0010
0000
0000
,  // measure 16
2000
3200
0320
0032
,  // measure 17
0103
0000
0010
0000
0100
0000
0001
0010
,  // measure 18
0000
0001
0100
1000
,  // measure 19
0100
0000
0000
0001
0000
0000
0100
0000
,  // measure 20
0010
1000
0000
0100
0000
0000
1000
0000
,  // measure 21
0020
0031
0020
1030
,  // measure 22
0002
0000
0200
0303
,  // measure 23
0010
1000
0100
0000
0010
0001
0100
0000
,  // measure 24
0220
0330
2002
3003
,  // measure 25
0010
0000
0000
1001
0000
0000
0100
0000
,  // measure 26
0001
0000
0000
0011
0000
0000
0100
0000
,  // measure 27
1000
0000
0000
1010
0000
0000
0100
0000
,  // measure 28
0001
0010
0100
1000
,  // measure 29
0010
0000
0000
0100
0000
0000
0001
0000
,  // measure 30
1000
0000
0000
0100
0000
0000
0010
0000
,  // measure 31
0001
0000
0000
1000
0000
0000
0010
0000
,  // measure 32
0100
1000
0100
0001
,  // measure 33
0010
0000
0010
0000
,  // measure 34
0100
0000
0100
0000
,  // measure 35
1000
0100
1000
0100
,  // measure 36
0010
0001
0010
0000
,  // measure 37
0001
0000
0100
0000
0001
1000
0000
0010
,  // measure 38
0000
1000
0001
0000
0100
0010
0100
0000
,  // measure 39
0002
0000
0000
0000
,  // measure 40
0000
0000
0003
0000
,  // measure 41
1000
0100
0001
0000
0100
0000
0010
0000
,  // measure 42
0001
0100
1000
0000
0100
0000
0010
0000
,  // measure 43
0100
0001
0010
0000
0100
1000
0010
0000
,  // measure 44
0100
0000
0010
0000
0100
0000
0002
0000
0000
0000
1000
0000
0000
1003
0000
0000
,  // measure 45
0000
0000
0110
0000
0001
0001
1000
0000
,  // measure 46
0020
0000
0031
0000
0010
0000
0100
0010
,  // measure 47
1000
0100
0100
0000
0010
0000
0100
0000
,  // measure 48
2002
3003
0100
0100
,  // measure 49
0100
0100
1000
0001
,  // measure 50
0020
0000
0000
0100
0000
0031
0000
0000
,  // measure 51
0000
0000
0010
0100
0010
0000
0100
0000
,  // measure 52
2000
0000
0000
0010
0000
3100
0000
0000
,  // measure 53
0000
0000
1000
0001
1000
0000
0010
0000
,  // measure 54
0100
0000
0000
0110
0000
0000
0001
0000
,  // measure 55
0100
0000
0001
0000
1000
0100
0000
0010
,  // measure 56
0001
0000
0000
0100
0000
0000
0010
0000
,  // measure 57
1000
0010
0200
0302
,  // measure 58
2003
0000
0000
3200
0000
0320
0000
0000
,  // measure 59
0000
0031
0100
0001
,  // measure 60
1000
0000
0000
0001
0000
0020
0000
0000
,  // measure 61
0030
0000
0001
0000
1000
0000
0000
1000
,  // measure 62
0100
0100
0000
0010
,  // measure 63
0001
0000
1000
0000
,  // measure 64
0100
0100
0100
0100
,  // measure 65
1000
0000
0001
0000
1000
0000
0000
0010
,  // measure 66
0000
0100
0000
0000
0000
0000
0001
0000
,  // measure 67
0100
0000
0001
0000
0010
0000
0000
0001
,  // measure 68
0000
0100
0000
0000
0000
0000
0010
0000
,  // measure 69
0100
0000
0001
0000
1000
0000
0000
0100
,  // measure 70
0000
0010
0100
1000
,  // measure 71
0010
0100
0000
0000
0010
0000
1000
0001
,  // measure 72
0000
0010
0100
0010
,  // measure 73
0001
0000
1000
0000
0010
0000
0000
0100
,  // measure 74
0000
0001
0000
0000
0000
0000
0010
0000
,  // measure 75
0001
0000
0100
0000
1000
0000
0000
0100
,  // measure 76
0000
0001
0000
0000
0000
0000
0100
0000
,  // measure 77
0010
0000
0000
1000
0000
0000
0100
0000
,  // measure 78
0000
0010
0001
0100
,  // measure 79
0001
0000
1000
0000
,  // measure 80
0100
0001
0100
0010
,  // measure 81
0002
0000
0000
0003
,  // measure 82
1000
0000
0001
0000
0100
0010
1000
0100
,  // measure 83
0020
0000
0030
0100
,  // measure 84
0100
0100
0100
1001
,  // measure 85
0010
0000
0001
0000
0000
0100
0000
0000
,  // measure 86
0010
1000
0000
0001
,  // measure 87
0100
0000
0001
0000
0000
0010
0000
0000
,  // measure 88
0100
0010
0000
0001
,  // measure 89
1000
0000
0100
0000
0000
1000
0000
0000
,  // measure 90
0010
0100
1000
0100
,  // measure 91
0010
0000
0100
0000
0000
0001
0000
0000
,  // measure 92
0010
0100
0000
1000
,  // measure 93
0001
0000
1000
0000
0000
0010
0000
0000
,  // measure 94
0100
0000
0000
0000
0002
0000
0000
0003
0010
0000
0000
0000
0100
0000
0000
0000
,  // measure 95
1000
0000
0000
0100
0000
0000
1000
0000
,  // measure 96
0020
0030
0000
0000
0100
0000
0000
0000
0010
0000
0000
0000
0100
0000
0000
0000
,  // measure 97
0000
0001
0000
0000
0010
0000
0100
0000
,  // measure 98
1000
0100
0001
0100
,  // measure 99
0000
1000
0000
0000
0010
0000
0100
0000
,  // measure 100
0001
1000
0000
0001
,  // measure 101
0000
0100
0000
0000
0001
0000
0010
0000
,  // measure 102
2002
0000
3003
0000
;

//---------------dance-single - S-LIGHT----------------
#NOTES:
     dance-single:
     DJ OMiY-LSP:
     Easy:
     5:
     0.298568,0.446296,0.052249,0.235122,0.000000,240.000000,234.000000,6.000000,27.000000,0.000000,0.000000,0.298568,0.446296,0.052249,0.235122,0.000000,240.000000,234.000000,6.000000,27.000000,0.000000,0.000000:
// measure 0
0000
0000
0000
0000
,  // measure 1
0000
0000
0000
0000
,  // measure 2
0000
0000
0000
0000
,  // measure 3
0000
0000
0000
0000
,  // measure 4
0020
0000
0000
0030
,  // measure 5
0100
0000
0010
0000
,  // measure 6
1000
0100
0010
0000
,  // measure 7
0001
0000
0100
0000
,  // measure 8
0010
1000
0010
1000
,  // measure 9
0001
0000
0010
0000
,  // measure 10
0001
0100
1000
0000
,  // measure 11
0100
0000
0001
0000
,  // measure 12
2002
0000
0000
3003
0000
0000
0000
0000
,  // measure 13
0010
0000
0100
0000
,  // measure 14
1000
0100
0010
0000
,  // measure 15
0100
0000
1000
0000
,  // measure 16
0001
0010
0001
0100
,  // measure 17
0001
0000
0010
0000
,  // measure 18
0100
0010
0001
0000
,  // measure 19
1000
0000
0010
0000
,  // measure 20
1000
0100
1000
0001
,  // measure 21
0010
0000
0001
0000
,  // measure 22
2000
0000
0002
3003
,  // measure 23
0100
0001
0010
0010
,  // measure 24
0002
0000
2000
3003
,  // measure 25
0010
0000
0000
0010
0000
0000
0000
0000
,  // measure 26
1000
0000
0000
1000
0000
0000
0000
0000
,  // measure 27
0001
0000
0000
0001
0000
0000
0000
0000
,  // measure 28
0100
0010
0100
0010
,  // measure 29
1000
0000
0001
0010
,  // measure 30
0100
0000
1000
0100
,  // measure 31
0010
0000
0001
0000
,  // measure 32
0100
0001
0010
0001
,  // measure 33
2000
0000
3000
0000
,  // measure 34
0002
0000
0003
0000
,  // measure 35
1000
0000
0001
0000
,  // measure 36
1000
0001
1000
0000
,  // measure 37
0010
0100
0010
0000
,  // measure 38
1000
0001
1000
0001
,  // measure 39
0020
0000
0000
0000
,  // measure 40
0000
0000
0030
0000
,  // measure 41
0100
1000
0010
0001
,  // measure 42
0010
1000
0100
0010
,  // measure 43
0001
1000
0010
0100
,  // measure 44
0001
0020
0030
0000
,  // measure 45
0000
1001
0010
0001
,  // measure 46
0200
0310
1000
0002
,  // measure 47
0013
0200
0310
0001
,  // measure 48
1000
0000
0020
0000
,  // measure 49
0000
0030
0100
0001
,  // measure 50
2000
0000
0000
3000
0000
0000
0000
0000
,  // measure 51
0000
0010
0100
0001
,  // measure 52
0020
0000
0000
0030
0000
0000
0000
0000
,  // measure 53
0000
0100
0010
0001
,  // measure 54
2000
0000
0000
3000
0000
0000
0000
0000
,  // measure 55
0010
0000
0100
0000
,  // measure 56
0001
0000
1000
0000
,  // measure 57
0010
0000
2002
0000
,  // measure 58
0000
0000
3003
0000
,  // measure 59
0000
0000
0110
0000
,  // measure 60
0000
0000
1001
0000
,  // measure 61
0000
0000
0010
0000
,  // measure 62
0001
0000
0100
0000
,  // measure 63
1000
0000
0100
0000
,  // measure 64
0002
0000
0000
0003
,  // measure 65
1000
0100
1000
0000
,  // measure 66
0010
0100
0010
0000
,  // measure 67
0100
0001
0100
0000
,  // measure 68
0001
0010
0001
0000
,  // measure 69
1000
0100
1000
0000
,  // measure 70
0010
0100
0010
0000
,  // measure 71
1000
0000
0100
0000
,  // measure 72
0010
0000
0001
0000
,  // measure 73
1000
0010
1000
0000
,  // measure 74
0001
0010
0001
0000
,  // measure 75
0100
0010
0100
0000
,  // measure 76
0001
0010
0100
0000
,  // measure 77
1000
0000
0100
0000
,  // measure 78
0001
0000
0100
0000
,  // measure 79
1000
0000
0001
0000
,  // measure 80
0100
0010
0100
0010
,  // measure 81
2000
0000
0000
3000
,  // measure 82
0000
0001
1000
0001
,  // measure 83
0020
0000
0030
0200
,  // measure 84
0000
0000
0300
1000
,  // measure 85
0000
0100
0000
0010
,  // measure 86
0100
1000
0000
0001
,  // measure 87
0000
0010
0000
0100
,  // measure 88
0010
0001
0000
1000
,  // measure 89
0000
0001
0000
0100
,  // measure 90
0010
0100
0000
0001
,  // measure 91
0000
0010
0000
0100
,  // measure 92
0010
0100
1000
0001
,  // measure 93
0000
0100
0000
0010
,  // measure 94
0100
0010
1000
0000
,  // measure 95
0001
0000
1000
0001
,  // measure 96
1000
0010
0000
0100
,  // measure 97
0000
0010
0100
0001
,  // measure 98
0000
0010
0000
0100
,  // measure 99
0000
0010
0100
1000
,  // measure 100
0000
0020
0000
0000
,  // measure 101
0000
0000
0000
0030
,  // measure 102
2002
0000
3003
0000
;

//---------------dance-single - BEGINNER----------------
#NOTES:
     dance-single:
     DJ OMiY-BEG:
     Beginner:
     3:
     0.167944,0.223148,0.034833,0.200289,0.000000,135.000000,131.000000,4.000000,23.000000,0.000000,0.000000,0.167944,0.223148,0.034833,0.200289,0.000000,135.000000,131.000000,4.000000,23.000000,0.000000,0.000000:
0000
0000
0000
0000
,
0000
0000
0000
0000
,
0000
0000
0000
0000
,
0000
0000
0000
0000
,
2002
0000
3003
0000
,
0010
0000
1000
0000
,
0010
0000
0100
0000
,
0002
0000
0003
0000
,
2000
0000
3000
0000
,
0001
0000
0010
0000
,
0001
0000
1000
0000
,
0010
0000
0100
0000
,
0001
0000
0000
0000
,
0100
0000
0010
0000
,
0100
0000
0001
0000
,
2000
0000
3000
0000
,
0020
0000
0030
0000
,
1000
0000
0100
0000
,
1000
0000
0001
0000
,
0100
0000
0000
0000
,
0020
0000
0030
0000
,
0100
0000
0000
0000
,
0001
0000
1000
0000
,
0010
0000
0000
0000
,
0100
0000
0010
0000
,
2000
0000
0000
3000
0000
0000
0000
0000
,
0002
0000
0000
0003
0000
0000
0000
0000
,
0200
0000
0000
0300
0000
0000
0000
0000
,
0010
0000
0010
0000
,
1000
0000
0000
0000
,
0001
0000
0000
0000
,
0010
0000
0000
0000
,
0100
0000
0010
0000
,
0002
0000
0000
0000
,
0003
0000
0000
0000
,
2000
0000
0000
0000
,
3000
0000
0000
0000
,
0010
0000
0100
0000
,
0001
0000
1000
0000
,
0020
0000
0000
0000
,
0030
0000
0000
0000
,
1000
0000
1000
0000
,
0001
0000
0001
0000
,
0100
0000
0010
0000
,
1000
0000
0100
0000
,
0000
1001
0000
0000
,
0001
0000
0010
0000
,
0001
0000
1000
0000
,
0010
0000
0200
0000
,
0000
0000
0300
0000
,
0000
0000
0000
0000
,
0000
0010
0010
0000
,
0000
0000
0000
0000
,
0000
1000
1000
0000
,
0000
0000
0001
0000
,
0000
0000
1000
0000
,
0100
0000
0010
0000
,
0001
0000
0200
0000
,
0000
0000
0000
0000
,
0300
0000
0020
0000
,
0030
0000
2000
0000
,
3000
0000
0001
0000
,
0000
0000
0010
0000
,
0000
0000
0001
0000
,
2002
0000
3003
0000
,
1000
0000
0100
0000
,
1000
0000
0000
0000
,
0001
0000
0100
0000
,
0001
0000
0000
0000
,
0010
0000
0100
0000
,
0010
0000
0100
0000
,
1000
0000
0001
0000
,
1000
0000
0000
0000
,
0010
0000
1000
0000
,
0001
0000
0000
0000
,
0010
0000
0001
0000
,
1000
0000
0000
0000
,
0100
0000
0000
0000
,
0010
0000
0000
0000
,
0100
0000
1000
0000
,
0001
0000
0000
0000
,
0200
0000
0000
0300
,
0000
0000
0000
0000
,
0010
0000
0000
2002
,
0000
3003
0000
0010
,
0000
0000
0000
1000
,
0000
0100
0000
0010
,
0000
0000
0000
0001
,
0000
0010
0000
0100
,
0000
0000
0000
1000
,
0000
0010
0000
0100
,
0000
0000
0000
0001
,
0000
0100
0000
0010
,
0000
0000
0000
1000
,
0000
0001
0000
0000
,
0000
0000
0001
0000
,
1000
0000
0000
0000
,
0000
0010
0000
0100
,
0000
0010
0000
0000
,
0000
1000
0000
0001
,
0000
1000
0000
0000
,
0000
0000
0000
0000
,
0200
0000
0300
0000
;
