#TITLE:Rum Pum Pum Pum;
#SUBTITLE:;
#ARTIST:f(x);
#TITLETRANSLIT:;
#SUBTITLETRANSLIT:;
#ARTISTTRANSLIT:;
#GENRE:Eccentropop;
#CREDIT:;
#BANNER:Rum Pum Pum Pum-bn.png;
#BACKGROUND:Rum Pum Pum Pum-bg.png;
#LYRICSPATH:;
#CDTITLE:;
#MUSIC:Rum Pum Pum Pum.OGG;
#OFFSET:0.000000;
#SAMPLESTART:55.500000;
#SAMPLELENGTH:16.000000;
#SELECTABLE:YES;
#BPMS:0.000000=120.000000
;
#STOPS:
;
#BGCHANGES:;
#KEYSOUNDS:;
#ATTACKS:;

//---------------dance-single - ----------------
#NOTES:
     dance-single:
     :
     Hard:
     8:
     0.531223,0.498245,0.250689,0.183839,0.171304,393.000000,30.000000,22.000000,0.000000,0.000000,0.000000,0.531223,0.498245,0.250689,0.183839,0.171304,393.000000,30.000000,22.000000,0.000000,0.000000,0.000000:
// measure 0
0000
0000
0000
0000
,  // measure 1
0000
0000
0000
0000
,  // measure 2
0000
0000
0000
0000
,  // measure 3
0000
0000
0000
0000
0000
0000
0000
0000
0010
0000
0000
0100
0010
0000
0010
0000
,  // measure 4
0000
1000
0100
1000
0001
1000
0100
0000
,  // measure 5
0000
0001
0100
0001
1000
0001
0100
0000
,  // measure 6
0000
0000
1000
0010
1000
0010
2000
0000
,  // measure 7
3000
0002
2003
3200
,  // measure 8
0301
0000
0100
1000
0100
0010
0100
0000
,  // measure 9
0000
0000
0001
0100
1000
0100
0001
0000
,  // measure 10
0000
0000
1000
0010
0001
1000
0200
0000
,  // measure 11
0300
0000
0000
0000
0020
0000
0000
0000
2030
0000
0000
0001
3002
0000
0010
0000
,  // measure 12
0013
0000
0000
0001
1000
0000
0010
0000
0100
0000
0010
0000
0010
0000
1000
0000
,  // measure 13
0001
0000
0000
0001
1000
0000
0100
0000
1000
0000
0010
0000
0010
0000
1000
0000
,  // measure 14
0100
0000
0000
0010
0100
0000
1000
0000
0001
0000
0100
0000
0100
0000
0001
0000
,  // measure 15
0010
0000
0000
0010
0001
0000
1000
0000
0010
0000
0100
0000
0100
0000
0010
0000
,  // measure 16
2000
0000
3000
1000
0001
0000
0100
0000
0001
0000
0000
0000
0011
0000
0011
0000
,  // measure 17
0010
1100
0011
0001
1100
0000
0100
0100
,  // measure 18
0001
0000
0000
0001
0100
0000
0010
0000
0100
0000
0000
0000
1010
0000
1010
0000
,  // measure 19
1000
0000
0101
0000
1010
0000
0010
0000
0101
0000
0000
1000
0001
0000
0010
0000
,  // measure 20
0001
0000
0000
0100
0000
0000
1000
0000
0000
0000
0100
0000
0001
0000
1000
0000
,  // measure 21
0010
0000
0000
1000
0000
0000
0001
0000
0000
0000
0010
0000
0100
0000
0010
0000
,  // measure 22
0001
0000
0000
1000
0000
0000
0100
0000
0000
0000
0100
0000
1000
0000
0010
0000
,  // measure 23
0100
0000
0100
0000
0100
0000
0100
0000
0000
0000
0010
1000
0010
0100
0000
0000
,  // measure 24
0200
0000
0300
0002
0000
0003
0020
0000
0030
0000
0100
0000
0010
0000
0001
0000
,  // measure 25
1000
0000
0000
0100
0000
0000
0001
0000
0000
0000
0100
0000
1000
0000
0001
0000
,  // measure 26
0200
0000
0300
0020
0000
0030
0020
0000
0030
0000
1000
0000
0001
0000
1000
0000
,  // measure 27
0010
0000
0010
0000
0010
0000
0010
0000
0200
0000
0301
1000
0001
0000
0100
0000
,  // measure 28
1001
0000
0000
0001
0100
0000
0010
0000
1000
0000
0100
0000
0010
0000
0001
0000
,  // measure 29
1000
0000
0000
0010
1000
0000
0001
0000
1000
0000
0100
0000
0010
0000
0010
0000
,  // measure 30
0011
0000
0000
0001
1000
0000
0001
0000
1000
0000
0100
0000
1000
0000
0010
0000
,  // measure 31
0100
0000
0000
0100
0010
0000
1000
0000
0001
0000
0100
0000
0001
0000
0010
0000
,  // measure 32
0110
0000
0000
1000
0100
0000
1000
0000
0001
0000
0010
0000
0100
0000
1000
0000
,  // measure 33
0010
0000
0000
0010
1000
0000
0001
0000
0100
0000
0001
0000
0010
0000
0100
0000
,  // measure 34
1001
0000
0000
0001
0100
0000
0001
0000
1000
0000
0100
0000
0010
0000
0100
0000
,  // measure 35
1000
0000
0000
0010
1000
0000
0001
0000
0100
0000
0001
0000
1000
0000
0100
0000
,  // measure 36
0010
0010
0010
0010
0000
0000
0200
0300
,  // measure 37
1100
0000
0000
0000
1100
0000
0000
0000
0001
0010
0000
0010
0001
0000
1000
0000
,  // measure 38
1001
0000
0000
0000
1001
0000
0000
0000
0010
1000
0000
1000
0010
0000
0100
0000
,  // measure 39
0101
0000
0000
0000
0101
0000
0000
0000
1000
0001
0000
0001
1000
0000
0010
0000
,  // measure 40
0200
0001
0001
0000
0301
1000
0001
1000
,  // measure 41
0200
0010
0010
0010
0310
0100
1000
0100
,  // measure 42
0020
0001
0001
0001
0031
1000
0001
0100
,  // measure 43
0002
1000
1003
0001
0001
1000
0010
0010
,  // measure 44
1000
0100
0100
0100
0010
0010
0010
0001
,  // measure 45
1000
0001
0001
0001
0100
0100
0100
0010
,  // measure 46
1000
0001
0001
0001
1000
1000
1000
0010
,  // measure 47
0100
0010
0010
0010
1000
1000
1000
0001
,  // measure 48
0010
0100
0000
0100
0000
0000
1000
0100
,  // measure 49
0110
0000
0000
1001
0000
0000
0000
0000
,  // measure 50
0001
0000
0000
0100
0000
0000
1000
0000
0000
0000
0010
0000
0001
0000
1000
0000
,  // measure 51
1001
0000
0000
0001
0010
0000
0001
0000
1000
0000
0010
0000
0100
0000
0100
0000
,  // measure 52
1010
0000
0000
0010
0100
0000
0001
0000
1000
0000
0100
0000
0010
0000
0010
0000
,  // measure 53
1001
0000
0000
1000
0010
0000
0100
0000
0010
0000
1000
0000
0001
0000
0001
0000
,  // measure 54
0110
0000
0000
0010
0001
0000
1000
0000
0001
0000
0100
0000
1000
0000
1000
0000
,  // measure 55
0101
0000
0000
0100
0010
0000
1000
0000
0001
0000
0010
0000
0100
0000
0100
0000
,  // measure 56
0011
0000
0000
0001
1000
0000
0100
0000
0001
0000
0100
0000
1000
0000
1000
0000
,  // measure 57
1001
0000
0000
0010
0100
0000
0001
0000
1000
0000
0100
0000
0010
0000
0010
0000
,  // measure 58
1100
0000
0000
0100
0010
0000
0100
0000
1000
0000
0001
0000
0100
0000
0100
0000
,  // measure 59
0001
0100
1000
0020
0000
0030
0000
0000
;

//---------------dance-single - ----------------
#NOTES:
     dance-single:
     :
     Medium:
     6:
     0.458403,0.446541,0.200552,0.401103,0.008356,312.000000,24.000000,48.000000,0.000000,0.000000,0.000000,0.458403,0.446541,0.200552,0.401103,0.008356,312.000000,24.000000,48.000000,0.000000,0.000000,0.000000:
0000
0000
0000
0000
,
0000
0000
0000
0000
,
0000
0000
0000
0000
,
0000
0000
0000
0000
0000
0000
0000
0000
1000
0000
0000
0001
1000
0000
0001
0000
,
0000
1000
0100
0000
0010
0000
0010
0000
,
0000
0001
0100
0000
0010
0000
0010
0000
,
0000
0000
1000
0100
0010
0001
0002
0000
,
0003
0200
0320
2030
,
3100
0000
0010
0000
0010
0100
1000
0000
,
0000
0000
0010
0000
0010
0100
0001
0000
,
0000
0000
0010
0001
0100
0010
2000
0000
,
3000
0000
0020
0000
2030
0000
3002
0010
,
0013
0000
1001
0000
0010
1000
1100
0000
,
0001
0000
0101
0000
0010
0100
1100
0000
,
0010
0000
1001
0000
1000
0001
0011
0000
,
0100
0000
0101
0000
0010
1000
1010
0000
,
0002
0000
0103
0001
0100
0000
0010
0010
,
0000
0010
0010
0000
1001
0000
0100
0010
,
2000
0000
3100
0010
0002
0000
0013
0010
,
0000
0010
0010
0000
1001
0000
0000
0000
,
0010
0000
0010
0000
1000
0100
1000
0100
,
0010
0000
0010
0000
0001
0100
0001
0100
,
0010
0000
0010
0000
1000
0001
1000
0001
,
0010
0100
1000
0001
0000
0000
0000
0000
,
0010
0000
0010
0000
0001
0100
0001
0100
,
0010
0000
0010
0000
1000
0100
1000
0100
,
0010
0000
0010
0000
0001
1000
0001
1000
,
0100
0010
0001
1000
0000
0000
0010
0100
,
0210
0000
0302
1000
2003
0010
3001
1000
,
0001
0100
0010
0000
0100
0001
1000
0010
,
0120
0000
2030
0001
3002
0010
1003
0010
,
0010
1000
0100
0000
1000
0001
0010
0001
,
1002
0000
0023
0100
0230
0010
1300
0100
,
1000
0001
0010
0000
0001
1000
0010
1000
,
2100
0000
3020
0100
0230
0010
0301
1000
,
0010
1000
0100
0010
0001
0000
1000
0000
,
0001
0001
1000
2000
0000
0000
3000
0000
,
0110
0000
0110
0000
0001
0000
1000
0001
,
1001
0000
1001
0000
0010
0000
0010
0100
,
0110
0000
0110
0000
1000
0000
0001
1000
,
0020
0000
0000
0000
0130
0001
0010
0001
,
2000
0000
0000
0000
3100
0010
1000
0010
,
0002
0000
0000
0000
0013
0001
1000
0001
,
0200
0000
0000
0000
0310
0010
0010
0010
,
2000
0002
0000
3003
0001
0010
0100
1000
,
0020
0200
0000
0330
0010
1000
0001
0100
,
0002
0020
0000
0033
0001
1000
0100
0010
,
0200
2000
0000
3300
1000
0010
0100
0001
,
1000
0100
0000
0100
0000
0000
0010
0001
,
1000
0000
0000
0001
0000
0000
0000
0000
,
0010
0000
0000
0001
0000
0000
0100
0000
0000
0000
1000
0000
0100
0000
0001
0000
,
0102
0000
0023
0001
0032
0100
0100
1003
,
0001
0001
1000
0000
0010
0010
1000
0100
,
2100
0000
3020
0100
0230
0010
0010
0301
,
0100
0000
0010
0000
1000
0010
0100
0001
,
0201
0000
0302
1000
2003
0100
0001
3001
,
1000
0001
0010
0000
0100
0010
0001
0000
,
0120
0000
2030
0100
3200
0010
0010
0301
,
0100
1000
0001
0100
0010
0000
0010
0000
,
1000
0100
0001
0100
0000
0000
0000
0000
;

//---------------dance-single - ----------------
#NOTES:
     dance-single:
     :
     Easy:
     3:
     0.257852,0.272886,0.091919,0.359321,0.000000,162.000000,11.000000,43.000000,0.000000,0.000000,0.000000,0.257852,0.272886,0.091919,0.359321,0.000000,162.000000,11.000000,43.000000,0.000000,0.000000,0.000000:
0000
0000
0000
0000
,
0000
0000
0000
0000
,
0000
0000
0000
0000
,
0000
0000
0000
0000
,
0000
0010
1000
0001
,
0000
0010
0010
0100
,
0000
1000
0100
0001
,
0000
0200
2300
3020
,
0130
0001
1000
0001
,
0000
0010
0001
0100
,
0000
0010
1000
0100
,
0000
2000
3200
0320
,
0031
0001
0000
0010
,
0100
0100
0100
0000
,
1000
0001
0000
1000
,
0100
1000
1000
0000
,
0010
0010
0100
1001
,
0000
1001
1001
0000
,
0010
1000
0001
0110
,
0000
0110
0110
0000
,
0002
0003
0001
0001
,
2000
3000
1000
1000
,
0020
0030
0010
0100
,
0002
0003
2000
3000
0000
0000
0000
0000
,
0200
0300
0100
0010
,
0020
0030
0010
0001
,
2000
3000
1000
0001
,
0020
0030
0002
0003
0000
0000
0010
0000
,
1001
0100
0100
0010
,
2000
0000
0010
3001
,
0100
0001
0010
0010
,
0002
0000
0010
1003
,
0010
1000
0100
1000
,
0020
0000
0100
1030
,
0010
0100
0001
1000
,
0200
0000
0010
0310
,
0220
0000
0000
0330
,
0001
0001
0020
0030
,
0100
0100
2000
3000
,
0001
0001
0200
0300
,
0020
0000
1000
0000
,
0230
0000
0010
0000
,
0302
0000
0010
0000
,
2003
0000
0100
0000
,
3020
0000
0100
0000
,
2030
0000
0010
0000
,
3002
0000
0100
0000
,
0023
0000
0001
0000
,
0200
0000
0000
0330
,
2002
0000
0000
3003
0000
0000
0000
0000
,
0220
0000
0000
0330
0000
0001
1000
0000
,
1001
0010
0010
1000
,
0002
0000
0010
1003
,
0010
0100
1000
0010
,
0200
0000
0010
0301
,
1000
0001
0010
0001
,
0200
0000
0010
0301
,
0100
0010
1000
0001
,
0100
0100
0100
0100
,
0002
0003
2000
3000
0000
0000
0000
0000
;

//---------------dance-single - ----------------
#NOTES:
     dance-single:
     :
     Beginner:
     1:
     0.170708,0.222800,0.066851,0.158770,0.000000,116.000000,8.000000,19.000000,0.000000,0.000000,0.000000,0.170708,0.222800,0.066851,0.158770,0.000000,116.000000,8.000000,19.000000,0.000000,0.000000,0.000000:
0000
0000
0000
0000
,
0000
0000
0000
0000
,
0000
0000
0000
0000
,
0000
0000
0000
0000
,
1000
0000
1000
0000
,
0001
0000
0001
0000
,
0010
0000
0010
0000
,
0000
0100
0100
0100
,
0100
0000
1000
0000
,
0010
0000
0100
0000
,
0001
0000
0010
0000
,
0000
0100
0100
0100
,
0100
0000
0100
0000
,
0010
0000
0001
0000
,
1000
0000
0001
0000
,
0100
0000
0010
0000
,
1000
1000
1000
0000
,
1001
0000
1001
0000
,
0010
0010
0010
0000
,
0101
0000
0101
0000
,
2000
0000
3000
1000
,
0002
0000
0003
0001
,
0200
0000
0300
0100
,
0100
0100
0000
0000
,
0020
0000
0030
0010
,
2000
0000
3000
1000
,
0200
0000
0300
0100
,
0010
0010
0000
0000
,
1001
0000
0001
0000
,
0100
0100
0000
0010
,
0010
0000
1000
0000
,
0001
0001
0000
1000
,
1000
0000
0100
0000
,
0010
0010
0000
0001
,
0001
0000
1000
0000
,
0001
0001
0000
1000
,
2000
0000
0000
3000
0000
0000
0000
0000
,
0010
0010
0010
0000
,
1000
1000
1000
0000
,
0100
0100
0100
0000
,
0020
0000
0000
0030
,
0002
0000
0000
0003
,
0200
0000
0000
0300
,
0020
0000
0000
0030
,
2000
0000
0000
3000
,
0200
0000
0000
0300
,
0002
0000
0000
0003
,
0020
0000
0000
0030
,
2000
0000
0000
3000
0000
0000
0000
0000
,
0002
0000
0000
0003
0000
0000
0000
0000
,
2002
0000
0000
3003
0000
0000
1001
0000
,
1001
0000
0001
0000
,
0100
0100
0000
0100
,
0100
0000
0010
0000
,
1000
1000
0000
0001
,
0001
0000
0010
0000
,
0100
0100
0000
1000
,
1000
0000
0001
0000
,
0100
0100
0000
0001
,
0001
0001
0000
0000
;
