#TITLE:Road 2 London;
#SUBTITLE:;
#ARTIST:Sota Fujimori;
#TITLETRANSLIT:;
#SUBTITLETRANSLIT:;
#ARTISTTRANSLIT:;
#GENRE:Percussive Fanfare;
#CREDIT:;
#BANNER:Road 2 London-bn.png;
#BACKGROUND:Road 2 London-bg.png;
#LYRICSPATH:;
#CDTITLE:;
#MUSIC:Road 2 London.ogg;
#OFFSET:-0.982000;
#SAMPLESTART:15.437831;
#SAMPLELENGTH:17.389397;
#SELECTABLE:YES;
#BPMS:0.000000=83.000000
,44.000000=163.000000
,172.000000=81.500000
,180.000000=163.000000
;
#STOPS:
;
#BGCHANGES:;
#KEYSOUNDS:;
#ATTACKS:;

//---------------dance-single - ----------------
#NOTES:
     dance-single:
     :
     Challenge:
     9:
     0.601647,0.695388,0.276288,0.433101,0.246419,469.000000,37.000000,58.000000,0.000000,0.000000,0.000000,0.601647,0.695388,0.276288,0.433101,0.246419,469.000000,37.000000,58.000000,0.000000,0.000000,0.000000:
// measure 0
0000
0000
0000
0000
,  // measure 1
0000
0000
0000
0000
,  // measure 2
0000
0000
0000
0000
,  // measure 3
0000
0000
0000
0000
,  // measure 4
0000
0000
0000
0000
0000
0000
0000
0000
0000
0000
0000
0000
0000
0000
0010
0100
,  // measure 5
0001
0000
0000
0000
2000
0000
0000
0000
3020
0000
0230
0302
0023
0000
0230
0000
,  // measure 6
2300
0000
0000
0000
0000
0000
3020
0230
0320
0000
0032
0000
0023
0000
0000
0000
,  // measure 7
1000
1000
2030
0000
0000
0000
3001
0000
0102
0000
0000
0000
0023
0000
0000
0000
,  // measure 8
0032
0000
2003
3020
0230
0000
0320
0000
2030
0000
0000
0000
0100
0000
3200
0320
,  // measure 9
0032
0000
0023
0030
2002
0000
0000
0000
0000
0000
0000
0000
0000
0000
0000
0000
,  // measure 10
0000
0000
3003
0000
,  // measure 11
1000
0010
1000
0001
0010
0100
0010
0001
,  // measure 12
1000
0001
0100
0001
1000
0010
0100
0001
,  // measure 13
1000
0000
0010
0000
0001
0000
0010
0000
1000
0000
0100
0010
0001
0000
1000
0000
,  // measure 14
0010
0000
0100
0000
0010
0000
1000
0000
0010
0100
0001
0000
0100
0000
0000
0000
,  // measure 15
0010
1000
0001
0010
0001
0100
0010
1000
,  // measure 16
0001
0010
1000
0010
0001
0100
0010
0100
,  // measure 17
0001
0000
1000
0000
0100
0000
0010
0000
0100
0000
1000
0001
1000
0000
0001
0000
,  // measure 18
0100
0000
0001
0000
0100
0000
1000
0000
0100
0000
0001
1000
0100
0000
0010
0000
,  // measure 19
0100
0000
1000
0000
0001
0000
0100
0000
0010
1000
0000
0000
0001
0010
0000
0000
,  // measure 20
0100
1000
0000
0000
0010
0000
0100
0000
0010
1000
0001
0000
0010
0001
1000
0000
,  // measure 21
0100
0000
0010
0000
0100
0000
1000
0000
0100
0010
0000
0000
0001
0010
0000
0000
,  // measure 22
0001
1000
0000
0000
0010
0000
0100
0000
0010
1000
0010
0000
0100
0001
0100
0000
,  // measure 23
0010
0000
1000
0000
0100
0000
0001
0000
0100
1000
0000
0000
1000
0001
0000
0000
,  // measure 24
0001
0100
0000
0000
0010
1000
0000
0000
0010
0100
0000
0000
0001
0010
0000
0000
,  // measure 25
0100
0000
0010
0000
0001
0000
1000
0000
0010
0000
0100
0001
0100
0000
0010
0000
,  // measure 26
1000
0100
0010
0000
0001
0010
0100
0000
2000
0000
3002
0000
2000
0000
0003
0000
,  // measure 27
3010
0100
0001
0100
0010
1000
0100
0010
,  // measure 28
0001
1100
0010
0101
,  // measure 29
1000
0000
0010
0000
0100
0000
0001
0000
0100
0000
0001
1000
0010
0000
0010
0000
,  // measure 30
0100
0000
0000
0000
0011
0000
0000
0000
0100
1000
0000
0000
1001
0000
0000
0000
,  // measure 31
0001
0010
0100
0001
0100
0010
0001
1000
,  // measure 32
0001
0110
1000
0110
,  // measure 33
0001
1000
0100
0010
0100
0001
0100
1000
,  // measure 34
0010
0000
0100
0000
0010
0000
1000
0000
0000
1000
0001
0000
0100
0000
0100
0000
,  // measure 35
0010
1000
0010
0100
0001
0010
0100
1000
,  // measure 36
0001
0100
0101
0000
1000
0000
1010
0000
,  // measure 37
0100
0001
0010
0100
1000
0010
0100
0001
,  // measure 38
1000
0000
0000
0000
0110
0000
0000
0000
0001
0010
0000
0000
0110
0000
0000
0000
,  // measure 39
1000
0001
1000
0010
0001
0010
1000
0001
,  // measure 40
0010
0100
1100
0000
0010
0000
0011
0000
,  // measure 41
1000
0001
0100
0010
0100
0001
0010
0100
,  // measure 42
1000
0000
0001
0000
0001
0000
0001
0000
0000
0000
0220
0000
0000
0030
0000
0000
,  // measure 43
0301
1000
0000
0001
1000
0100
1000
0100
1000
0001
0000
1000
0001
0000
0000
0000
,  // measure 44
0100
0010
0000
0100
0001
1000
0001
1000
0010
0100
0000
0010
0100
0000
1001
0000
,  // measure 45
0020
0000
0000
0000
2030
0000
0000
0000
3002
0000
0000
0000
0013
0000
0001
0010
,  // measure 46
0200
0000
0000
0000
1300
0000
0100
0010
0002
0000
0000
0000
1003
0000
0000
0000
,  // measure 47
0201
0000
0320
2030
,  // measure 48
3200
0010
0001
1300
,  // measure 49
0100
0000
0000
0000
0011
0000
0000
0000
0100
0000
0001
0000
0001
0000
1000
0100
,  // measure 50
0010
0000
0000
0000
0001
0000
0010
0100
1000
0000
1000
0000
0001
0000
0000
0000
,  // measure 51
0210
0000
0301
0000
0200
0010
0320
0000
,  // measure 52
1030
0000
0100
0000
0010
0000
0000
0000
0001
1000
0000
0000
0001
0100
0000
0000
,  // measure 53
1010
0000
1100
0000
0010
0001
0100
0001
,  // measure 54
0010
0000
1100
0000
0101
0001
1000
0010
,  // measure 55
0200
0001
0001
0000
0310
0100
0001
1000
,  // measure 56
1100
0000
0001
1001
0000
0000
1100
0000
,  // measure 57
2002
0000
0000
0000
3003
0000
0000
0000
1001
0000
0000
0001
0000
0000
1000
0000
,  // measure 58
2200
3300
0010
0002
,  // measure 59
0103
0000
1010
0000
0100
0001
0010
0100
,  // measure 60
2000
0000
0000
0000
3010
0000
1000
0001
1000
0000
0100
0000
0010
0000
0001
0000
,  // measure 61
0200
0010
0010
0000
0301
0100
0100
0010
,  // measure 62
2000
0000
3100
0010
0000
0010
0100
1000
,  // measure 63
2002
0000
0000
0000
0000
0000
3003
0000
0000
0001
0010
0100
,  // measure 64
2000
0000
3001
1100
,  // measure 65
0101
0000
1000
0000
1100
0100
0010
0000
,  // measure 66
0001
0000
0000
0000
0100
0000
0000
0000
1010
0000
0010
0000
0100
0000
0000
0100
,  // measure 67
0001
0000
0010
0000
1100
1000
0001
0000
,  // measure 68
0001
0000
0000
0000
0010
0000
0100
0000
1000
0001
1000
0001
1000
0000
0000
0000
,  // measure 69
0010
0000
0100
0000
0001
1000
0001
1000
0001
0000
0010
0000
0010
0000
0000
0000
,  // measure 70
0100
0000
1000
0000
0001
0100
0001
0100
0001
0000
1000
0000
1000
0000
0000
0000
,  // measure 71
0010
0000
1000
0000
0100
0010
0100
0010
0100
0000
0010
0000
0010
0000
0000
0000
,  // measure 72
0001
0000
0100
0000
0010
1000
0010
1000
0010
0000
0100
0000
0010
0000
2002
0000
,  // measure 73
0000
0000
0000
0000
,  // measure 74
0000
0000
3003
0000
;

//---------------dance-single - ----------------
#NOTES:
     dance-single:
     :
     Hard:
     8:
     0.524841,0.667573,0.201616,0.410699,0.082140,410.000000,27.000000,55.000000,0.000000,0.000000,0.000000,0.524841,0.667573,0.201616,0.410699,0.082140,410.000000,27.000000,55.000000,0.000000,0.000000,0.000000:
0000
0000
0000
0000
,
0000
0000
0000
0000
,
0000
0000
0000
0000
,
0000
0000
0000
0000
,
0000
0000
0000
0000
,
2010
0000
0000
0000
3002
0000
0000
0000
0023
0000
0031
1000
0002
0000
0203
0000
,
0320
0000
0000
0000
0000
0000
2030
3020
2030
0000
3002
0000
0023
0000
0000
0000
,
0130
0100
0100
0000
0000
0000
1000
0000
2001
0000
0000
0000
3020
0000
0000
0000
,
0230
0000
0302
2003
3002
0000
0023
0000
0230
0000
0000
0000
0000
0000
0320
0230
,
0320
0000
0032
0003
2002
0000
0000
0000
0000
0000
0000
0000
0000
0000
0000
0000
,
0000
0000
3003
0000
,
1000
0000
0100
0000
0001
0100
1000
0000
,
0010
0001
0010
1000
0001
0000
0100
0000
,
0010
1000
0100
0000
0010
0100
1000
0001
,
0000
0100
0010
1000
0100
0010
0001
0000
,
1000
0000
0001
0000
0010
1000
0010
0001
,
1000
0010
0100
0000
0001
0000
0100
0010
,
1000
0001
0010
0100
0010
0001
1000
0010
,
0000
0100
0010
0100
0001
0010
0100
0000
,
1100
1000
0010
0100
0010
0100
0001
0000
,
0010
0100
1000
0000
0100
0010
0001
1000
,
0010
0100
0001
0100
0010
1000
0001
0000
,
0010
0000
0100
0000
1000
0000
0000
0000
0001
0000
0000
0100
0000
0000
0100
0000
,
0001
1000
0010
0100
0010
1000
0010
0100
,
0001
0000
0110
0000
1000
0100
0001
0000
,
0100
0010
0100
1000
0100
0010
0001
1000
,
0010
0100
0001
0100
0020
2030
3002
0003
,
2100
0000
0010
0000
0001
0001
3001
0000
,
1000
1000
0100
0000
1000
0001
0010
0000
,
0102
0000
0010
0000
1000
1000
1003
0000
,
0001
0001
0100
0000
0010
1000
0100
0000
,
2001
0000
0010
0000
0001
0001
3001
0000
,
0100
0010
0100
0000
0001
0010
0100
0000
,
0021
0000
0100
0000
1000
1000
1030
0000
,
0010
0001
0100
0000
1000
0100
0001
0000
,
0010
0100
1000
0100
0010
0001
0100
0000
,
0010
0100
0001
1000
0010
1000
0100
0000
,
0010
0100
1000
0001
0010
0100
0010
0000
,
0001
0100
1000
0100
0001
0010
1000
0000
,
0010
0001
0010
0001
1000
0100
0010
0000
,
0100
1000
0001
0100
0010
0100
0001
0000
,
0010
0001
0100
1000
0010
1000
0100
0000
,
0001
0010
0100
0020
0000
0002
0030
0000
,
1003
0001
0000
1000
0001
0000
0100
0000
0001
1000
0000
0001
1000
0000
0000
0000
,
0010
0100
0000
0010
0100
0000
0001
0000
0100
0010
0000
0100
0010
0000
1000
0000
,
0102
0000
2003
0000
3200
0000
1300
0100
,
0010
0000
0010
0100
1000
0000
0001
0000
,
0202
0003
0320
2030
,
3002
0010
0013
0001
,
1001
0000
0000
0000
0101
0000
0000
0000
0010
0000
1000
0000
0001
0000
0010
0001
,
1000
0000
0000
0000
0001
0000
1000
0001
0010
0000
0000
0000
1001
0000
0000
0000
,
0010
1010
0201
0320
,
2030
0000
0000
0000
3100
0000
1000
0000
0001
0010
0000
0000
0001
0010
0000
0000
,
1100
0000
0010
0000
0100
0100
1000
0001
,
0200
0000
0320
0000
1030
0010
0100
0001
,
1000
1000
0020
0000
0130
0010
0100
0001
,
0011
0000
0000
1100
0000
0000
0011
0000
,
2002
0000
0000
0000
3003
0000
0000
0000
1000
0000
0000
0100
0000
0000
0010
0000
,
0002
0003
0100
0001
,
1100
0000
0011
0000
0001
1000
0100
0010
,
0001
0000
0100
0001
0010
1000
0010
0001
,
1000
1000
0010
0000
0100
0100
0001
0000
,
0010
0000
0001
1000
0010
0100
0010
1000
,
0020
0000
0000
0000
0000
0000
0030
0000
0000
1000
0100
0010
,
0002
0000
0003
0101
,
1100
0000
0010
0001
0100
0100
0010
0000
,
1000
0000
0000
0000
0001
0000
1000
0000
0100
0000
0100
0000
0010
0000
0000
0010
,
0100
0000
1000
0010
0100
0100
0001
0000
,
1000
0000
0010
1000
0001
0101
0000
0000
,
1000
0100
0001
0100
1000
0100
0010
0010
,
0001
0100
1000
0100
0001
0100
0010
0010
,
1000
0010
0001
0010
1000
0010
0100
0100
,
0001
0010
1000
0010
0001
0010
0100
2002
,
0000
0000
0000
0000
,
0000
0000
3003
0000
;

//---------------dance-single - ----------------
#NOTES:
     dance-single:
     :
     Medium:
     6:
     0.432034,0.414433,0.164280,0.373363,0.026135,333.000000,22.000000,50.000000,0.000000,0.000000,0.000000,0.432034,0.414433,0.164280,0.373363,0.026135,333.000000,22.000000,50.000000,0.000000,0.000000,0.000000:
0000
0000
0000
0000
,
0000
0000
0000
0000
,
0000
0000
0000
0000
,
0000
0000
0000
0000
,
0000
0000
0000
0000
,
0210
0000
0302
0000
0013
0100
1000
0100
,
0020
0000
0000
0031
1000
0010
0200
0000
,
0010
0010
0000
0310
0210
0000
0302
0000
,
1003
0100
0010
0100
2000
0000
0000
3010
,
1000
0001
2002
0000
0000
0000
0000
0000
,
0000
0000
3003
0000
,
0010
1000
0100
0010
,
0001
0000
1000
0000
0010
1000
0100
0000
,
0010
0000
0100
0000
1000
0000
0001
0100
,
0000
0100
0010
0000
0100
0001
1000
0010
,
0100
0001
1000
0010
,
0100
0010
1000
0000
0100
0010
0001
0010
,
0100
0000
0010
0000
0100
1000
0001
0100
,
0000
0100
0010
0000
1000
0100
0010
0001
,
1000
0010
0100
0000
0001
0010
0100
0000
,
0010
0001
1000
0000
0010
0100
0001
1000
,
0100
0010
0001
0000
1000
0010
0100
0000
,
0010
1000
0001
0000
0100
0010
1000
0000
,
0100
0010
0001
0000
0010
0100
1000
0000
,
0010
0100
0001
0000
1000
0100
1000
0001
,
0100
0001
0010
0000
0100
1000
0010
0000
,
0100
0010
1000
0000
0020
0230
0320
0030
,
1000
0101
0001
1100
,
0000
0010
0110
0000
0010
0000
1000
0000
,
0001
1100
1000
0011
,
0000
1000
1001
0000
0010
0001
0010
0000
,
0100
1010
0100
0011
,
0000
1000
1001
0000
0001
0000
0100
0000
,
0010
0101
0001
1100
,
0000
0010
0100
0010
1000
0100
0010
0001
,
2000
0100
0010
0100
,
0001
0010
0100
3001
,
0102
0010
1000
0100
,
1000
0010
0100
1003
,
0210
1000
0010
0001
,
0010
1000
0001
0310
,
1020
0001
1000
0100
,
1030
0001
0010
0200
0000
1000
0000
0300
,
0100
0000
0000
0100
0100
0000
0000
0000
0100
0000
0000
0100
0100
0000
0000
0000
,
0010
0000
0000
0010
0010
0000
0000
0000
0010
0000
0000
0010
0010
0000
0000
0000
,
0002
0000
2003
0000
3002
0000
0000
0103
,
2000
0000
3000
0100
0002
0000
0003
0000
,
0020
0000
0230
2300
,
3002
1003
0001
1000
,
0020
0000
0230
0000
0302
0000
1003
0100
,
0001
0000
0001
0100
2000
0000
3001
0000
,
0200
0310
0200
0302
,
0023
0100
0001
0130
,
0011
0000
0001
0000
1000
0000
0010
1000
,
0200
0000
2300
0000
3010
0100
0001
1000
,
0020
0000
0100
0000
1030
0000
0001
1000
,
0020
0000
0031
0020
0000
0000
1030
0000
,
2002
0000
0000
0000
3003
0000
0000
0000
0001
0000
0000
0100
0000
0000
0010
0000
,
2000
3000
0001
1000
,
1001
0000
0010
0000
0001
0100
0010
0100
,
0001
0000
1000
0100
0020
0000
0230
0000
,
2300
0000
3010
0000
0100
0000
0010
1000
,
0002
0103
0010
0100
,
2002
0000
0000
0000
0000
0000
3003
0000
0000
0001
1000
0001
,
2000
0000
0000
3010
,
1001
0000
0010
0000
0001
1000
0001
0000
,
0100
0000
0010
0000
1000
0001
1000
0000
,
0100
0000
0010
0000
0100
1000
0100
0000
,
0010
0000
0100
0000
0010
0001
0010
0000
,
0001
0100
0001
0100
0010
1000
0010
0000
,
1000
0100
1000
0100
0010
0001
0010
0000
,
0001
0100
0001
0100
0001
1000
0001
0000
,
0010
0100
1000
0100
0010
0100
1000
0200
,
0000
0000
0000
0000
,
0300
0000
0000
0000
;

//---------------dance-single - ----------------
#NOTES:
     dance-single:
     :
     Easy:
     4:
     0.317892,0.325946,0.179214,0.395765,0.000000,221.000000,24.000000,53.000000,0.000000,0.000000,0.000000,0.317892,0.325946,0.179214,0.395765,0.000000,221.000000,24.000000,53.000000,0.000000,0.000000,0.000000:
0000
0000
0000
0000
,
0000
0000
0000
0000
,
0000
0000
0000
0000
,
0000
0000
0000
0000
,
0000
0000
0000
0000
,
1002
0100
0010
1000
,
0200
0003
0010
0302
,
1000
0003
2001
0010
,
0100
0001
0020
3000
,
0230
0002
0000
0000
,
0000
0000
0303
0000
,
0010
1000
0100
0010
,
0100
1000
0001
0100
,
0010
1000
0100
1000
,
0001
0100
0010
0000
,
0100
0001
0010
0001
,
1000
0100
0010
0100
,
1000
0001
0100
0001
,
1000
0100
0010
1001
,
0010
0001
0100
0100
,
0010
0010
1000
0001
,
1000
0100
0010
0010
,
0100
0100
1000
0000
,
0010
1000
0001
0001
,
0100
0100
0010
1000
,
0100
0100
0010
0010
,
0001
1000
0020
0030
,
2020
3030
0100
0001
,
0010
0100
1000
0001
,
0202
0303
0010
0001
,
0100
0010
0100
0001
,
2200
3300
0010
0100
,
1000
0001
0100
0010
,
2002
3003
0010
1000
,
0100
1000
0100
0010
,
0022
0033
0001
1000
,
0100
1000
0010
1000
,
0220
0330
1000
0100
,
1000
0001
0010
1000
,
0022
0033
0100
0010
,
1000
0001
0100
0010
,
2002
3003
0010
0100
,
0000
0101
0000
1001
,
0020
0130
0200
0310
,
0002
1003
2000
3001
,
0100
0100
0100
0000
,
1000
0100
0001
0000
,
0020
0000
0230
2300
,
3002
0000
0003
0000
,
0100
0010
0100
0001
,
0010
1000
0020
0030
,
0001
0100
0010
1000
,
0001
0100
0110
0110
,
2000
3100
1000
0010
,
0200
0302
2003
3010
,
0200
0301
0010
0100
,
0020
0001
0031
0000
,
2002
3003
0220
0330
,
2002
3003
0010
0100
,
2000
0000
0001
0100
,
3002
0000
0010
1000
,
0203
0000
0010
0010
,
0302
0000
1000
0100
,
2000
0000
3003
1001
,
2002
0000
0000
3003
,
0010
0000
0100
0100
,
0001
0000
0010
0010
,
0100
0000
1000
1000
,
0001
0000
0200
0000
,
0310
0000
0000
1000
0000
0000
0101
0000
,
1000
0000
0000
0100
0000
0000
1001
0000
,
0010
0000
0000
0001
0000
0000
0110
0000
,
1000
0000
0000
0001
0000
0000
1001
0000
;

//---------------dance-single - ----------------
#NOTES:
     dance-single:
     :
     Beginner:
     2:
     0.172814,0.217297,0.119476,0.336027,0.000000,101.000000,16.000000,45.000000,0.000000,0.000000,0.000000,0.172814,0.217297,0.119476,0.336027,0.000000,101.000000,16.000000,45.000000,0.000000,0.000000,0.000000:
0000
0000
0000
0000
,
0000
0000
0000
0000
,
0000
0000
0000
0000
,
0000
0000
0000
0000
,
0000
0000
0000
0000
,
2002
0000
3003
0000
,
0100
0000
0010
0020
,
0030
0000
2002
0000
,
3003
0000
1000
0000
,
0100
2002
0000
0000
,
0000
0000
3003
0000
,
0010
0000
0000
0000
,
1000
0000
0001
0000
,
1000
0000
0000
0000
,
0100
0000
0010
0000
,
0001
0000
0000
0000
,
0100
0000
0010
0000
,
1000
0000
0000
0000
,
0001
0000
1000
0000
,
0200
0000
0300
0000
,
0020
0000
0030
0000
,
0002
0000
0003
0000
,
1000
0000
0001
0000
,
0200
0000
0300
0000
,
0020
0000
0030
0000
,
2000
0000
3000
0000
,
0001
0000
0001
0001
,
2002
0000
0000
0000
,
0000
0000
3003
0000
,
2020
0000
0000
0000
,
0000
0000
3030
0000
,
0022
0000
0000
0000
,
0000
0000
0033
0000
,
2200
0000
0000
0000
,
0000
0000
3300
0000
,
2002
0000
3003
0000
,
0010
0000
0100
0000
,
2002
0000
3003
0000
,
1000
0000
0001
0000
,
0220
0000
0330
0000
,
0001
0000
1000
0000
,
0220
0000
0330
0000
,
0100
0000
0001
0000
,
2000
3000
2000
3000
,
0002
0003
0002
0003
,
0100
0100
0100
0000
,
0010
0000
0010
0000
,
2000
0000
3000
0000
,
0002
0000
0003
0000
,
0010
0010
0010
0000
,
1000
0000
1000
0000
,
0002
0000
0003
0000
,
0200
0000
0300
0000
,
0010
0000
1000
0000
,
0002
0000
0003
0000
,
1000
0000
0000
0000
,
0100
0000
0000
0000
,
1001
0000
1001
0000
,
2002
0000
3003
0000
,
0010
0000
0000
0000
,
1000
0000
0001
0000
,
0020
0000
0030
0000
,
0100
0000
0010
0000
,
0002
0000
0003
0000
,
2002
0000
3003
0000
,
1001
0000
0100
0000
,
0001
0000
0100
0000
,
0010
0000
1000
0000
,
0200
0000
0300
0000
,
1000
1000
1000
0000
,
0001
0001
0001
0000
,
0010
0010
0010
0000
,
0100
0100
0100
0100
;
