#TITLE:Red;
#SUBTITLE:;
#ARTIST:HyunA;
#TITLETRANSLIT:;
#SUBTITLETRANSLIT:;
#ARTISTTRANSLIT:;
#GENRE:K-Hop;
#CREDIT:;
#BANNER:Red-bn.png;
#BACKGROUND:Red-bg.png;
#LYRICSPATH:;
#CDTITLE:;
#MUSIC:Red.ogg;
#OFFSET:-0.007000;
#SAMPLESTART:48.299683;
#SAMPLELENGTH:23.414635;
#SELECTABLE:YES;
#BPMS:0.000000=164.000000
,268.000000=82.000000
,288.000000=164.000000
;
#STOPS:
;
#BGCHANGES:;
#KEYSOUNDS:;
#ATTACKS:;

//---------------dance-single - S-HEAVY----------------
#NOTES:
     dance-single:
     DJ OMiY-HSP:
     Hard:
     8:
     0.475112,0.725365,0.157688,0.229364,0.053757,464.000000,442.000000,22.000000,32.000000,0.000000,0.000000,0.475112,0.725365,0.157688,0.229364,0.053757,464.000000,442.000000,22.000000,32.000000,0.000000,0.000000:
0000
0000
0000
0000
,
0000
0000
0000
0000
,
0000
0000
0000
0000
,
0000
0000
0000
0000
,
1000
0100
1000
0010
0000
0000
0110
0000
,
0001
0100
0001
0010
0000
0000
0110
0000
,
1000
0000
0100
0100
1000
0000
0001
0000
,
0100
0000
0000
0001
1000
0000
0001
0000
0010
0000
0100
0000
0010
0000
0000
0000
,
0001
0000
0000
0000
,
1000
0000
0010
0010
1000
0000
0100
0000
,
0010
0000
0010
0100
1000
0000
0010
0000
,
0001
0010
1000
0001
0010
0100
0010
0001
,
1000
0000
0000
0010
0000
0000
1000
0000
0000
0000
0000
0000
0100
0000
0000
0000
,
0110
0000
0001
0011
0000
0100
0110
0000
,
0000
1000
0001
1000
1000
0010
0000
0000
,
1100
0000
0001
0101
0000
1000
1100
0000
,
0000
0010
0010
0100
0001
0010
0000
0000
,
0100
0000
0000
1000
0000
0000
0010
0000
0100
0000
0000
0000
0010
0000
0000
0000
,
0100
0001
0010
0100
0000
0100
0000
0000
,
1000
0100
0001
1000
0000
1000
0000
0000
,
1000
0010
0001
1000
0000
1000
0000
0000
,
0001
0001
1000
1000
0001
0100
0001
0000
,
0010
0010
0100
1000
0100
0100
1000
0000
,
0010
0010
0100
0001
0100
0010
0100
0100
,
0000
0000
0000
0000
0000
0000
0000
0000
0000
0000
0001
1000
0001
0000
0000
0000
,
1000
1000
1000
1001
,
0001
0000
1001
0000
0001
1000
0001
0000
,
0100
0100
0100
0110
,
0010
0000
0110
0000
0100
0010
0100
0000
,
0001
0001
0010
0010
,
0100
0000
1100
0000
1000
0100
0010
0000
,
0001
0100
1000
0000
1000
0100
0001
0000
,
1000
0010
0001
0010
1000
0100
0010
0000
,
1001
0000
0010
0100
1000
0100
0010
0001
,
2000
3020
0230
1000
,
0301
0000
0100
0100
0020
0000
2030
0000
,
3100
0000
0100
0010
0002
0000
0003
0000
,
0110
0000
0010
0001
0010
0100
0010
0100
,
2000
3200
0320
1000
,
0031
0000
0010
0010
0100
0000
0010
0000
,
0001
0000
1000
0010
0200
0000
0300
0000
,
0010
0100
0010
0100
0010
0100
0010
0100
,
0001
0100
0001
0100
0001
1000
0100
0001
,
0200
1000
0000
0001
,
0300
0100
1000
0100
0010
0000
0010
0000
,
0001
1000
0001
1000
0001
1000
0001
1000
,
0010
1000
0010
1000
0010
0001
0010
1000
,
0002
0010
0000
1000
,
0003
0001
1000
0100
0010
0000
0010
0000
,
0011
1010
0101
1100
,
0000
0010
0010
0100
0010
0000
0010
0000
,
0200
0000
0000
0000
0001
0000
0300
0100
,
0000
0010
1000
0000
0010
0001
0000
0010
,
0200
0000
0000
0000
0001
0000
0300
0100
,
0010
0000
1000
0100
0000
1000
0001
0000
,
0021
0000
0000
0000
1000
0000
0030
0010
,
0000
0001
0100
0000
1000
0100
0000
0001
,
0020
0000
0000
0000
0100
0000
0030
0010
,
0001
1000
1000
0001
0100
0000
0010
0000
,
1000
0000
1000
0100
0001
0000
0100
0000
,
1000
0000
1000
0100
0001
0000
0100
0000
,
1000
0000
1000
0010
0001
0000
0010
0000
,
1000
0000
1001
0000
0100
0010
0100
1000
,
0001
0000
0001
0010
1000
0000
0010
0000
,
0001
0000
0001
0010
1000
0000
0010
0000
,
0001
0000
0001
0100
1000
0000
0100
0000
,
0000
0001
0001
0000
1000
0000
0010
0000
,
0100
0000
0000
0000
,
0010
0000
0000
0100
0000
0000
0010
0000
0000
0100
0000
0000
0100
0001
0000
0000
,
1000
0000
0000
0100
0000
0000
1000
0000
0000
0010
0000
0000
0010
0100
0000
0000
,
0001
0010
0001
0010
0100
1000
0100
1000
,
0010
0100
0001
0000
0100
0010
1000
0000
0001
0010
0100
1000
0001
0010
0001
0000
,
1001
0000
1000
0100
1000
0010
0100
0010
,
0002
0023
2030
0100
,
3010
0000
0100
0010
0200
0000
0302
0000
,
1003
0000
1000
0100
0020
0000
0030
0000
,
0001
0000
0100
0001
0100
0010
0100
1000
,
0200
0302
0023
1000
,
0031
0000
0001
0100
0020
0000
2030
0000
,
3100
0000
1000
0001
0200
0000
0300
0000
,
0010
1000
0010
1000
0010
1000
0010
1000
,
0100
0010
0100
0010
0100
1000
0100
0001
,
0200
1000
0000
0001
,
0300
0100
0100
0010
0001
0000
0100
0000
,
0010
0100
0010
0100
0010
0100
0010
0100
,
0001
0010
0001
0010
0001
0010
1000
0010
,
0002
1000
0000
0100
,
0003
1000
1000
0001
0020
0000
2000
0000
,
3030
0000
0000
0000
;

//---------------dance-single - S-STANDARD----------------
#NOTES:
     dance-single:
     DJ OMiY-SSP:
     Medium:
     6:
     0.361454,0.473064,0.078844,0.157688,0.003584,353.000000,342.000000,11.000000,22.000000,0.000000,0.000000,0.361454,0.473064,0.078844,0.157688,0.003584,353.000000,342.000000,11.000000,22.000000,0.000000,0.000000:
// measure 0
0000
0000
0000
0000
,  // measure 1
0000
0000
0000
0000
,  // measure 2
0000
0000
0000
0000
,  // measure 3
0000
0000
0000
0000
,  // measure 4
1000
0100
0000
0001
0000
0000
0000
0000
,  // measure 5
1000
0010
0000
0001
0000
0000
1000
0000
,  // measure 6
1000
0000
0001
0010
0100
0000
0100
0000
,  // measure 7
0010
0000
0001
1000
0010
0000
0000
0000
,  // measure 8
0200
0000
0000
0300
,  // measure 9
0010
0000
0100
0010
0100
0000
0001
0000
,  // measure 10
2000
0000
0000
3001
0000
0000
0100
0000
,  // measure 11
0001
0010
1000
0010
,  // measure 12
0001
0000
0000
1000
0000
0000
0010
0000
0000
0000
0000
0000
0100
0000
0000
0000
,  // measure 13
0001
0000
0010
1000
0000
0010
0100
0000
,  // measure 14
0010
0000
0001
0000
1000
0010
0000
0000
,  // measure 15
0100
0000
0001
0100
0000
1000
0100
0000
,  // measure 16
0001
0000
1000
0000
0010
0100
0000
0000
,  // measure 17
0001
0000
1000
0100
0010
0000
0001
0000
,  // measure 18
0001
0000
1000
0100
0010
0000
0001
0000
,  // measure 19
1000
0000
0010
0100
0000
1001
0000
0000
,  // measure 20
0001
0000
0100
0010
0000
1001
0000
0000
,  // measure 21
0010
0010
0100
1100
,  // measure 22
0010
0001
0100
0101
,  // measure 23
0010
0000
1000
0000
0001
0000
1000
0100
,  // measure 24
0000
0000
0000
0000
0000
0010
0100
0000
,  // measure 25
0010
0001
0010
0001
,  // measure 26
1000
0100
1000
0100
,  // measure 27
0010
0100
0010
0100
,  // measure 28
1000
0001
1000
0001
,  // measure 29
0100
0101
0100
0101
,  // measure 30
1000
1100
1000
1100
,  // measure 31
0010
0110
1000
1001
,  // measure 32
1000
0100
0010
0001
1000
0100
0010
0000
,  // measure 33
0001
0000
0100
0001
0100
0000
0010
0000
,  // measure 34
2000
3002
0203
0300
,  // measure 35
0010
0000
0100
0010
0100
0000
0100
0000
,  // measure 36
0001
0000
1000
0001
2000
0000
3000
0000
,  // measure 37
0010
0000
1000
0100
1000
0000
0100
0000
,  // measure 38
2000
3002
0023
0030
,  // measure 39
0001
0000
0100
0001
0100
0000
0100
0000
,  // measure 40
0010
0000
1000
0100
0020
0000
0030
0000
,  // measure 41
0001
0010
1000
0100
,  // measure 42
0001
0000
1000
0000
0100
0010
0001
0010
,  // measure 43
0100
1000
0000
0001
,  // measure 44
0000
0100
0010
0000
0100
0000
0110
0000
,  // measure 45
1000
0010
0001
0100
,  // measure 46
1000
0000
0001
0000
1000
0100
0010
0100
,  // measure 47
1000
0001
0000
0100
,  // measure 48
0000
0010
0100
0000
0001
0000
1000
0000
,  // measure 49
0100
0100
0100
0100
,  // measure 50
0000
0010
0100
0000
1000
0000
0001
0000
,  // measure 51
0100
0000
0000
0000
0010
0000
0000
0100
,  // measure 52
0000
0000
0001
0000
0000
1000
0000
0000
,  // measure 53
0010
0000
1000
0000
,  // measure 54
0100
0000
0000
1000
0000
0000
0100
0000
,  // measure 55
0010
0000
0001
0000
,  // measure 56
1000
0000
0001
0000
0000
1000
0000
0000
,  // measure 57
0010
0000
0100
0000
,  // measure 58
0010
0100
0010
0000
1000
0000
0100
0000
,  // measure 59
1000
0010
0001
0010
,  // measure 60
1000
0010
0001
0010
,  // measure 61
1000
0100
0001
0100
,  // measure 62
1000
0000
1000
0000
0001
0010
0100
1000
,  // measure 63
0001
0100
1000
0100
,  // measure 64
0001
0100
1000
0100
,  // measure 65
0001
0010
1000
0010
,  // measure 66
0001
1000
0001
0000
0100
0000
0010
0000
,  // measure 67
0100
0000
0000
0000
,  // measure 68
0002
0000
0000
0000
1003
0100
0010
0100
,  // measure 69
2000
0000
0000
0000
3010
1000
0010
0100
,  // measure 70
0001
0001
1000
1000
,  // measure 71
0010
1000
0100
0010
0001
0010
0100
0000
,  // measure 72
1000
0000
0010
1000
0001
0000
0100
0000
,  // measure 73
0002
0023
0230
0300
,  // measure 74
0010
0000
0100
1000
0100
0000
1000
0000
,  // measure 75
0010
0000
0100
0001
0200
0000
0300
0000
,  // measure 76
0010
0000
1000
0010
0100
0000
0010
0000
,  // measure 77
2000
3002
0203
0300
,  // measure 78
0010
0000
1000
0100
0010
0000
0100
0000
,  // measure 79
1000
0000
0001
0010
0002
0000
0003
0000
,  // measure 80
1000
0100
0001
0010
,  // measure 81
1000
0000
0001
0000
1000
0010
0100
0010
,  // measure 82
1000
0001
0000
1000
,  // measure 83
0000
0010
0100
0000
0001
0000
1000
0000
,  // measure 84
0001
0100
1000
0010
,  // measure 85
0001
0000
1000
0000
0001
0100
0010
0100
,  // measure 86
0001
1000
0000
0001
,  // measure 87
0000
0100
0010
0000
2000
0000
0002
0000
,  // measure 88
3003
0000
0000
0000
;

//---------------dance-single - S-LIGHT----------------
#NOTES:
     dance-single:
     DJ OMiY-LSP:
     Easy:
     3:
     0.243700,0.314480,0.057341,0.179191,0.000000,238.000000,230.000000,8.000000,25.000000,0.000000,0.000000,0.243700,0.314480,0.057341,0.179191,0.000000,238.000000,230.000000,8.000000,25.000000,0.000000,0.000000:
0000
0000
0000
0000
,
0000
0000
0000
0000
,
0000
0000
0000
0000
,
0000
0000
0000
0000
,
1000
1000
0100
0000
,
0001
0001
0010
0000
,
1000
0000
0100
0000
,
0001
0010
1000
0000
,
0020
0000
0030
0000
,
0100
0000
0010
0100
,
0001
0000
0001
0000
,
1000
0000
0100
1000
,
0010
0000
0100
0000
,
0020
0000
0000
0030
0000
0000
0010
0000
,
0000
0100
0010
0000
,
2000
0000
0000
3000
0000
0000
1000
0000
,
0000
0001
1000
0000
,
0010
0000
0100
0010
,
0100
0000
0001
0010
,
0100
0000
0100
0000
,
1000
0000
0001
0000
,
0100
0001
0010
0000
,
0100
1000
0010
0000
,
0100
0001
1000
0010
,
0000
0000
0000
0100
,
1002
0000
0000
0000
,
1000
1000
1003
0000
,
0001
1000
1000
0000
,
0010
0100
0001
0100
,
0120
0000
0200
0330
,
0001
0001
1000
1000
,
0010
1000
0100
0000
,
1000
0001
0100
0000
,
0110
0000
0100
0001
,
0010
0010
0010
0000
,
0100
1000
0100
0100
,
0020
0030
0002
0003
,
1001
0000
0010
1000
,
0100
0100
0100
0000
,
1000
0001
1000
0010
,
2000
3000
0002
0003
,
0200
0000
0000
0000
,
0010
0010
0010
0300
,
0001
1000
0000
1000
,
0000
0010
1000
0001
,
2000
0000
0000
0000
,
0001
0001
0001
3000
,
0001
1000
0000
0010
,
0000
0100
0010
0100
,
0001
0001
0001
0001
,
0000
1000
0100
1000
,
0100
0000
0010
0000
,
0100
1000
1000
0000
,
0001
0000
0100
0000
,
0010
0100
0001
0000
,
0010
0000
0001
0000
,
1000
0010
1000
0000
,
0001
0000
0100
0000
,
0010
0100
0010
1000
,
0100
0100
0010
0000
,
0001
0001
0100
0000
,
0010
0010
1000
0000
,
0100
1000
0010
0100
,
0001
1000
0001
0000
,
1000
0100
1000
0000
,
0010
0100
0010
0000
,
1000
0100
0100
0010
,
0001
0000
0000
0000
,
0200
0000
0310
0100
,
0002
0000
0013
0100
,
2000
0001
3002
1000
,
2003
3200
0320
0031
,
1001
0000
0100
0010
,
1000
1000
1000
0000
,
0010
1000
0010
0100
,
0002
0003
0020
0030
,
0110
0000
0100
1000
,
0001
0001
0001
0000
,
0100
0010
1000
0010
,
0200
0300
0002
0003
,
2001
0000
0000
0000
,
0001
0001
0001
3000
,
0001
0010
0000
0010
,
0000
0100
0010
0000
,
0210
0000
0000
0000
,
0010
0010
0010
0300
,
0010
0001
0000
0001
,
0000
1000
0010
0010
;

//---------------dance-single - BEGINNER----------------
#NOTES:
     dance-single:
     DJ OMiY-BEG:
     Beginner:
     2:
     0.163832,0.251584,0.035838,0.093179,0.000000,160.000000,155.000000,5.000000,13.000000,0.000000,0.000000,0.163832,0.251584,0.035838,0.093179,0.000000,160.000000,155.000000,5.000000,13.000000,0.000000,0.000000:
0000
0000
0000
0000
,
0000
0000
0000
0000
,
0000
0000
0000
0000
,
0000
0000
0000
0000
,
0000
1000
1000
0000
,
0000
0001
0001
0000
,
0000
0100
0100
0000
,
0010
0000
0010
0000
,
0100
0000
0000
0000
,
0001
0000
1000
0000
,
0002
0000
0000
0003
0000
0000
0000
0000
,
1000
0000
0100
0000
,
2000
0000
0000
3000
0000
0000
0000
0000
,
0010
0000
1000
0000
,
0000
0100
0100
0000
,
0010
0000
0001
0000
,
0000
0100
0100
0000
,
0010
0000
0010
0000
,
1000
0000
0001
0000
,
0010
0000
0100
0000
,
0010
0000
0001
0000
,
1000
1000
1000
0000
,
0100
0100
0100
0000
,
1000
0000
0001
0001
,
0000
0000
0000
0000
,
0100
0000
0000
0000
,
0100
0000
0000
0000
,
0010
0000
0000
0000
,
0010
0000
0000
0000
,
1000
0000
1000
0000
,
0001
0000
0001
0000
,
1000
0000
0001
0000
,
2002
0000
3003
0000
,
0110
0000
0001
0000
,
0020
0000
0030
0000
,
0100
0000
1000
0000
,
0100
0000
0001
0000
,
1001
0000
0010
0000
,
2000
0000
3000
0000
,
0010
0000
1000
0000
,
0001
0000
0010
0000
,
0200
0000
0000
0000
,
0000
0000
0300
0000
,
0000
1000
0000
1000
,
0000
0010
0010
0010
,
0020
0000
0000
0000
,
0000
0000
0030
0000
,
0000
0100
0000
0100
,
0000
0001
0001
0001
,
0001
0000
0000
0000
,
0000
0100
0100
0100
,
0100
0000
0010
0000
,
0000
0100
0100
0000
,
0001
0000
1000
0000
,
0000
0001
0001
0000
,
1000
0000
0100
0000
,
0000
0010
0010
0000
,
0001
0000
1000
0000
,
0000
0100
0100
0100
,
0100
0000
1000
0000
,
0100
0000
1000
0000
,
0100
0000
1000
0000
,
0010
0010
0010
0000
,
0100
0000
0001
0000
,
0100
0000
0001
0000
,
1000
0000
0010
0000
,
0000
0100
0100
0100
,
0200
0000
0300
0000
,
0010
0000
1000
0000
,
0001
0000
0100
0000
,
0001
0000
0010
0000
,
0100
0000
1000
0000
,
1001
0000
0010
0000
,
0002
0000
0003
0000
,
0100
0100
0100
0000
,
0010
0010
0010
0000
,
0110
0000
1000
0000
,
0200
0000
0300
0000
,
0010
0010
0010
0000
,
0001
0001
0001
0000
,
2000
0000
0000
0000
,
0000
0000
3000
0000
,
0000
0010
0000
0010
,
0000
0100
0100
0100
,
0200
0000
0000
0000
,
0000
0000
0300
0000
,
0000
0001
0000
0001
,
0000
0010
0010
0010
;
