#TITLE:Reality Used Up;
#SUBTITLE:;
#ARTIST:SLAKE;
#TITLETRANSLIT:;
#SUBTITLETRANSLIT:;
#ARTISTTRANSLIT:;
#GENRE:Dub House;
#CREDIT:;
#BANNER:Reality Used Up-bn.png;
#BACKGROUND:Reality Used Up-bg.png;
#LYRICSPATH:;
#CDTITLE:;
#MUSIC:Reality Used Up.OGG;
#OFFSET:0.003000;
#SAMPLESTART:44.997997;
#SAMPLELENGTH:15.000000;
#LASTBEATHINT:259.006927;
#SELECTABLE:YES;
#BPMS:0.000000=128.000000
;
#STOPS:60.000000=1.406000
;
#BGCHANGES:;
#KEYSOUNDS:;
#ATTACKS:;

//---------------dance-single - ----------------
#NOTES:
     dance-single:
     :
     Hard:
     8:
     0.492929,0.493232,0.210101,0.355556,0.298990,357.000000,26.000000,44.000000,0.000000,0.000000,0.000000,0.492929,0.493232,0.210101,0.355556,0.298990,357.000000,26.000000,44.000000,0.000000,0.000000,0.000000:
0000
0000
0000
0000
,
0000
0000
0000
0000
,
0000
0000
0000
0000
,
0000
0000
0000
0000
,
1000
0000
0100
0000
0001
0000
0100
0000
1000
0000
0000
1000
0000
0000
1000
0000
,
0001
0000
0100
0000
1000
0000
0100
0000
0001
0000
0000
0001
0000
0000
0001
0000
,
0010
0000
0001
0000
0100
0000
0010
0000
1000
0000
0000
0001
0000
0000
1000
0000
,
0000
0010
0100
0000
2002
0000
0003
0000
,
0010
0010
0001
0001
,
0100
0100
0001
0001
,
0010
0100
0001
0100
,
0010
0001
0100
0001
,
3010
1000
0100
1000
0001
0010
0001
0100
,
0010
0000
0010
1000
0000
1000
0100
0000
0100
0010
0000
0010
,
0001
1000
0001
0000
0100
0001
0100
0000
0010
1000
0010
0000
0100
0001
0100
0000
,
0010
0000
0000
0000
1010
0000
0000
0000
0101
0000
0000
0000
0000
0001
0010
0000
,
0001
0010
0000
0000
0000
0100
1000
0000
0100
1000
0000
0000
0001
0000
0100
0000
,
0001
0000
0100
0000
0110
0000
0000
0000
0110
0000
0000
0000
0000
1000
0001
0000
,
1000
0001
0000
0000
0000
0100
0010
0000
0100
0010
0000
0000
1000
0000
0000
0100
,
0000
0000
0001
0000
0100
0000
0000
0000
1100
0000
0000
0000
0000
0010
0001
0000
,
0010
0001
0000
0000
0000
1000
0010
0000
1000
0010
0000
0000
0100
0000
0010
0000
,
1000
0000
0001
0000
1010
0000
0000
0000
1010
0000
0000
0000
0000
0001
0100
0000
,
0001
0100
0000
0000
0000
0010
1000
0000
0010
1000
0000
0000
0020
0000
0000
0000
,
1030
0001
1000
0000
0100
0000
0010
0000
1001
0000
0000
0000
1000
0000
0010
0000
,
0001
0000
0000
0000
0010
0000
0100
0000
0001
0000
0001
0000
0010
0100
0010
0000
,
0100
0010
0100
0000
1000
0000
0010
0000
1001
0000
0000
0000
0001
0000
1000
0000
,
0010
0000
0000
0000
0100
0000
0001
0000
0010
0000
0100
0000
0010
0000
0000
0011
,
0000
1000
0001
0010
1001
0000
0010
1000
,
0100
0000
0000
0000
0010
0000
0100
0000
1000
0000
0010
0000
1000
0001
1000
0000
,
0001
1000
0001
0000
0010
0000
0100
0000
1001
0000
0000
0000
0010
0000
0001
0000
,
0100
0000
0000
0000
0010
0000
1000
0000
0001
0000
0100
0000
0001
0000
0000
0010
,
0000
0000
0100
0000
2000
0000
0000
0000
0000
0000
0000
0000
3002
0000
0000
0023
,
0000
0000
0230
0000
0000
0000
0000
0000
0000
0000
0000
0000
0302
0000
0000
0203
,
0000
0000
2300
0000
3002
0000
0000
0000
0000
0000
0000
0000
0203
0000
0000
2300
,
0000
0000
3200
0000
0000
0000
0300
0000
2002
0000
3000
0000
0023
0000
0000
2030
,
0000
0000
3002
0000
0023
0000
0000
0000
0000
0000
0000
0000
0032
0000
0000
2003
,
0000
0000
3020
0000
0000
0000
0000
0000
0000
0000
0000
0000
0230
0000
0000
0320
,
0000
0000
2030
0000
3200
0000
0000
0000
0000
0000
0000
0000
0320
0000
0000
0230
,
0000
2300
0000
0000
0000
3000
0202
0000
,
0303
0000
0000
0000
1001
0000
0000
0000
0001
0000
0000
0000
0010
0000
0000
0001
,
0000
0000
0100
0000
0010
0000
0000
0000
1000
0000
0001
0000
0100
0000
0000
0001
,
0000
0000
1000
0000
0100
0000
0000
0000
0010
0000
0000
0000
0100
0000
0000
1000
,
0000
0000
0001
0000
0010
0000
0000
0000
2002
0000
0003
0000
3010
0000
0000
1000
,
0000
0000
0001
0000
0010
0000
0001
0000
0010
0000
0001
0000
1000
0000
0000
1000
,
0000
0000
1000
0000
0010
0000
0100
0000
0010
0000
0100
0000
0001
0000
0000
0001
,
0000
0000
0001
0000
1000
0000
0010
0000
0100
0000
0001
0000
1000
0000
0000
1000
,
0000
0000
0001
0000
0000
0000
0000
0000
0000
0000
0000
0000
0001
0100
0010
1000
,
0001
0010
0001
0000
1000
0000
0010
0000
0100
0000
0010
0000
1000
0000
0000
0001
,
0000
0000
0100
0000
0010
0000
0000
0000
1010
0000
0000
0000
0001
0000
0000
0100
,
0000
0000
0001
0000
1000
0000
0000
0000
0210
0000
0000
0000
0301
0000
0000
1000
,
0000
0000
0100
0000
0010
0000
0100
0000
2000
0000
0000
0000
3010
0000
0000
0100
,
0000
0000
0001
0000
0010
0000
0001
0000
1000
0000
0001
0000
0100
0000
0000
0100
,
0000
0000
0010
0000
1000
0000
0000
0000
0101
0000
0000
0000
1000
0000
0000
0001
,
0000
0000
0010
0000
0001
0000
0000
0000
0120
0000
0000
0000
1030
0000
0000
0001
,
0000
0000
1000
0000
0100
0000
0000
0000
2002
0000
0003
0000
3001
0000
0000
0100
,
0000
0000
0001
0000
1000
0000
0100
0000
1000
0000
0100
0000
0010
0000
0000
0001
,
0000
0000
0100
0000
0001
0000
1000
0000
0000
1000
0000
1000
0001
0000
0000
0100
,
0000
0000
0010
0000
1000
0000
0000
0000
0102
0000
0000
0000
0013
0000
0000
0100
,
0000
0000
1000
0000
0001
0000
0100
0000
0220
0000
0030
0000
0301
0000
0000
0100
,
0000
0000
1000
0000
0100
0000
0010
0000
1000
0000
0010
0000
0100
0000
0000
0001
,
0000
0000
0010
0000
0100
0000
0010
0000
0000
0010
0000
0010
0001
0000
0000
1000
,
0000
0000
0001
0000
0010
0000
0000
0000
2100
0000
0000
0000
3001
0000
0000
0100
,
0000
0000
0001
0000
1000
0000
0000
0000
0110
0000
0000
0000
1000
0100
0010
0100
,
1000
0100
0010
0000
0002
0000
0000
0000
0000
0000
0000
0000
0000
0000
0000
0000
,
0000
0003
0000
0000
;

//---------------dance-single - ----------------
#NOTES:
     dance-single:
     :
     Challenge:
     10:
     0.834632,0.945556,0.751515,1.000000,0.606061,487.000000,93.000000,143.000000,0.000000,0.000000,0.000000,0.834632,0.945556,0.751515,1.000000,0.606061,487.000000,93.000000,143.000000,0.000000,0.000000,0.000000:
// measure 0
0000
0000
0000
0000
,  // measure 1
0000
0000
0000
0000
,  // measure 2
0000
0000
0000
0000
,  // measure 3
0000
0000
0000
0000
,  // measure 4
1010
0000
1000
0000
0010
0000
0100
0000
0101
0000
0000
1001
0000
0000
0101
0000
,  // measure 5
1000
0000
0100
0000
0010
0000
0100
0000
1100
0000
0000
0110
0000
0000
1100
0000
,  // measure 6
1000
0000
0001
0000
0100
0000
0010
0000
0110
0000
0000
1001
0000
0000
0110
0000
,  // measure 7
0000
0001
0002
0003
2010
0000
0000
0000
,  // measure 8
0100
0000
0000
0000
0100
0000
0000
3000
2100
0000
0000
0000
0001
0000
0000
3000
,  // measure 9
2010
0000
0000
0000
0100
0000
0000
3000
2001
0000
0000
0000
0010
0000
0000
3000
,  // measure 10
2100
0000
0000
0000
0001
0000
0000
3000
2010
0000
0000
0000
0001
0000
0000
3000
,  // measure 11
2100
0000
0000
0000
0010
0000
0000
3000
2001
0000
0000
0000
0100
0000
0000
3000
,  // measure 12
1000
0100
0010
0100
0001
0100
1000
0001
,  // measure 13
0010
0001
0010
0100
0010
0001
1000
0010
0100
0001
1000
0100
,  // measure 14
0010
0001
0010
0001
1000
0001
1000
0001
0100
0001
0100
0001
1000
0100
0010
0001
,  // measure 15
1000
0000
0000
0000
0101
0000
0000
0000
1001
0000
0000
0000
0010
1000
0001
0000
,  // measure 16
0100
0001
0000
0001
0010
0001
1000
0000
0100
1000
0000
0010
0100
0001
0100
0000
,  // measure 17
0010
1000
0010
0000
0110
0000
0000
0000
1001
0000
0000
0000
0010
0100
1000
0000
,  // measure 18
0100
1000
0000
0100
0010
0001
1000
0000
0001
0100
0000
0001
0020
0000
0030
0002
,  // measure 19
0000
0003
0200
0000
0310
0000
0000
0000
1010
0000
0000
0000
0001
0100
0010
0000
,  // measure 20
1000
0001
0000
0010
0001
0100
0010
0000
1000
0100
0000
1000
0001
0100
0001
0000
,  // measure 21
1000
0010
0100
0000
0110
0000
0000
0000
1010
0000
0000
0000
0100
0001
1000
0000
,  // measure 22
0100
1000
0000
1000
0010
0100
0010
0000
1000
0001
0000
0001
0200
0000
0300
0020
,  // measure 23
0130
0010
0200
0000
0301
0000
0100
0000
1010
0000
0100
0000
0001
1000
0001
0000
,  // measure 24
0010
0001
0100
0001
1000
0100
1000
0000
0010
0100
0010
1000
0001
0010
0001
0000
,  // measure 25
1000
0100
1000
0000
0010
0000
0100
0000
1001
0000
0100
0000
0001
0010
0001
0000
,  // measure 26
1000
0100
0010
0100
1000
0010
0100
0000
0001
0010
0100
1000
0002
0003
0001
2000
,  // measure 27
3000
1000
0020
0000
0130
0000
0001
0000
1100
0000
0001
0000
0010
0001
1000
0000
,  // measure 28
0100
1000
0001
1000
0010
0100
0001
0000
0010
0001
1000
0001
0100
0010
1000
0000
,  // measure 29
0010
0100
0001
0000
1000
0000
0001
0000
0110
0000
1000
0000
0001
0010
0001
0000
,  // measure 30
1000
0010
0100
0010
1000
0001
0010
0000
0100
0010
0001
1000
0002
0003
0001
0200
,  // measure 31
0300
0000
0100
0000
0020
0000
0030
0000
2020
3030
0000
0000
0000
0000
0000
0000
0000
0000
0000
0000
0000
0000
0000
0000
2002
3003
0000
0000
0000
0000
0022
0033
,  // measure 32
0000
0000
0000
0000
2002
3003
0000
0000
0000
0000
0000
0000
0000
0000
0000
0000
0000
0000
0000
0000
0000
0000
0000
0000
2020
3030
0000
0000
0000
0000
0022
0033
,  // measure 33
0000
0000
0000
0000
2200
3300
0000
0000
0202
0303
0000
0000
0000
0000
0000
0000
0000
0000
0000
0000
0000
0000
0000
0000
0220
0330
0000
0000
0000
0000
0202
0303
,  // measure 34
0000
0000
0000
0000
0022
0033
0000
0000
0000
0000
0000
0000
0000
0000
0000
0000
2200
0000
0000
0000
0000
0000
3300
0000
2002
3003
0000
0000
0000
0000
2200
3300
,  // measure 35
0000
0000
0000
0000
0220
0330
0000
0000
2002
3003
0000
0000
0000
0000
0000
0000
0000
0000
0000
0000
0000
0000
0000
0000
0202
0303
0000
0000
0000
0000
2002
3003
,  // measure 36
0000
0000
0000
0000
2200
3300
0000
0000
0000
0000
0000
0000
0000
0000
0000
0000
0000
0000
0000
0000
0000
0000
0000
0000
0202
0303
0000
0000
0000
0000
0022
0033
,  // measure 37
0000
0000
0000
0000
0202
0303
0000
0000
2002
3003
0000
0000
0000
0000
0000
0000
0000
0000
0000
0000
0000
0000
0000
0000
2200
3300
0000
0000
0000
0000
0220
0330
,  // measure 38
0000
0000
0000
0000
0022
0033
0000
0000
0000
0000
0000
0000
0000
0000
0000
0000
0000
0000
0000
0000
0000
0000
0000
0000
0202
0000
0000
0000
0000
0000
0000
0000
,  // measure 39
0000
0000
0000
0000
0303
0000
0000
0000
2002
3003
0000
0000
0001
0000
0000
0000
0100
0000
0000
0000
0010
0000
0000
0000
2020
3030
0000
0000
0000
0000
0202
0303
,  // measure 40
0000
0000
0000
0000
2020
3030
0000
0000
0010
0000
0000
0000
0100
0000
0000
0000
0001
0000
0000
0000
1000
0000
0000
0000
0220
0330
0000
0000
0000
0000
2002
3003
,  // measure 41
0000
0000
0000
0000
0022
0033
0000
0000
2002
0003
0000
0000
0000
0000
0000
0000
3200
0000
0000
0000
0000
0000
0300
0000
2200
3300
0000
0000
0000
0000
0022
0033
,  // measure 42
0000
0000
0000
0000
2200
3300
0000
0000
0001
0000
0000
0000
0100
0000
0000
0000
2020
0000
0000
0000
0000
0000
3030
0000
0202
0303
0000
0000
0000
0000
2002
3003
,  // measure 43
0000
0000
0000
0000
2200
3300
0000
0000
2002
3003
0000
0000
0001
0000
0000
0000
0100
0000
0000
0000
0001
0000
0000
0000
2020
3030
0000
0000
0000
0000
0022
0033
,  // measure 44
0000
0000
0000
0000
2020
3030
0000
0000
1000
0000
0000
0000
0001
0000
0000
0000
0100
0000
0000
0000
0010
0000
0000
0000
0202
0303
0000
0000
0000
0000
2200
3300
,  // measure 45
0000
0000
0000
0000
0202
0303
0000
0000
2002
3003
0000
0000
1000
0000
0000
0000
0010
0000
0000
0000
0100
0000
0000
0000
0220
0330
0000
0000
0000
0000
0202
0303
,  // measure 46
0000
0000
0000
0000
0000
0000
0000
0000
0000
0000
0000
0000
0000
0000
0000
0000
0000
0000
0000
0000
0000
0000
0000
0000
0220
0000
0000
0000
0000
0000
0330
0000
0000
0000
0000
0000
0000
0000
0000
0000
0000
0000
0000
0000
0000
0000
0000
0000
0000
0000
0000
0000
0000
0000
0000
0000
0000
0000
0000
0000
0000
0000
0000
0000
0000
0000
0000
0000
0000
0000
0000
0000
1000
0000
0000
0000
0000
0000
0000
0000
0000
0000
0000
0000
0000
0000
0000
0000
0000
0000
0000
0000
0000
0000
0000
0000
2000
0000
0000
0000
0000
0000
0000
0000
0000
0000
0000
0000
0000
0000
0000
0000
0000
0000
0000
0000
0000
0000
0000
0000
0000
0000
0000
0000
0000
0000
0000
0000
0000
0000
0000
0000
0000
0000
0000
0000
0000
0000
0000
0000
0000
0000
0000
0000
3001
0000
0000
0000
0000
0000
0000
0000
0010
0000
0000
0000
0000
0000
0000
0000
0001
0000
0000
0000
0000
0000
0000
0000
1000
0000
0000
0000
0000
0000
0000
0000
0001
0000
0000
0000
0000
0000
0000
0000
0010
0000
0000
0000
0000
0000
0000
0000
,  // measure 47
0100
0000
1000
0000
0100
0000
0010
0000
0100
0000
1000
0000
0001
0000
0000
0000
0000
0000
0010
0000
0000
0000
0000
0000
0010
0000
0000
0000
0000
0000
0010
0000
0000
0000
0000
0000
0001
0000
0000
0000
0000
0000
0001
0000
0000
0100
0000
0000
,  // measure 48
0000
0100
0010
0000
1000
0000
0001
0000
1000
0010
1000
0001
0100
0000
0010
1000
,  // measure 49
0000
0010
0100
0000
0001
0000
0010
0000
2200
0000
0000
3300
0010
0000
0001
1000
,  // measure 50
0000
0010
0100
0000
0001
0000
1000
0000
0022
0000
0000
0033
1000
0000
0010
0100
,  // measure 51
0000
0100
0010
0000
1001
0000
0100
0000
0100
0000
0100
0000
0001
0000
0010
0001
,  // measure 52
0000
0001
1000
0000
0010
0000
0100
0000
0010
1000
0010
0100
0001
0000
0010
0100
,  // measure 53
0000
0100
1000
0000
0001
0000
0100
0000
2002
0000
0000
3003
1000
0000
1000
0100
,  // measure 54
0000
0100
0010
0000
0001
0000
0100
0000
0220
0000
0000
0330
0010
0000
1000
0001
,  // measure 55
0100
0001
1000
0000
0101
0000
0010
0000
0010
0000
0010
0000
0100
0000
0010
1000
,  // measure 56
0000
1000
0001
0000
0010
0000
0001
0000
0100
0001
1000
0001
0010
0000
0010
0100
,  // measure 57
0000
0100
0010
0000
0001
0000
1000
0000
0202
0000
0000
0303
1000
0000
1000
0010
,  // measure 58
0000
0010
0001
0000
0010
0000
1000
0000
2020
0000
0000
3030
0001
0000
0001
0100
,  // measure 59
0000
0100
0001
0000
1010
0000
0001
0000
0001
0000
0001
0000
0010
0000
0100
0010
,  // measure 60
0000
0001
0010
0000
0001
0000
1000
0000
0010
0100
0010
1000
0001
0000
0010
0001
,  // measure 61
0000
0001
1000
0000
0010
0000
1000
0000
0202
0000
0000
0303
0010
0000
0100
1000
,  // measure 62
0000
0000
0000
0100
0000
0000
0010
0000
0000
0000
0000
0000
0001
0000
0000
0000
0000
0000
1000
0000
0000
0000
0000
0000
1010
0000
0000
0000
0000
0000
0000
0000
0000
0000
0000
0000
0100
0000
0001
0000
0100
0000
0010
0000
0100
0000
0001
0000
,  // measure 63
1000
0100
0010
0001
0010
0100
1000
0000
0000
0000
0000
0000
0000
0000
0000
0000
0000
0000
0000
0000
0000
0000
0000
0000
;

//---------------dance-single - ----------------
#NOTES:
     dance-single:
     :
     Medium:
     6:
     0.369408,0.412121,0.121212,0.105051,0.113131,292.000000,15.000000,13.000000,0.000000,0.000000,0.000000,0.369408,0.412121,0.121212,0.105051,0.113131,292.000000,15.000000,13.000000,0.000000,0.000000,0.000000:
0000
0000
0000
0000
,
0000
0000
0000
0000
,
0000
0000
0000
0000
,
0000
0000
0000
0000
,
1001
0000
0000
0000
0000
0000
0000
0000
0010
0000
0000
0001
0000
0000
0100
0000
,
0000
0000
0000
0000
0000
0000
0000
0000
0010
0000
0000
1000
0000
0000
0001
0000
,
0010
0000
0000
0000
0000
0000
0000
0000
0100
0000
0000
0010
0000
0000
0001
0000
,
0000
0000
1002
0000
,
0100
0100
0100
0100
,
1000
1000
1000
1000
,
0010
0010
0010
0010
,
1000
0100
0010
1003
,
0001
0100
0010
0100
0001
1000
0001
0010
,
0002
0203
0320
2030
,
3100
0001
0100
1000
0100
0001
0100
1000
,
0001
0000
1000
0000
1001
0000
0010
0100
,
0001
0000
0010
0100
1000
0000
0001
0001
,
0100
0100
0010
0000
1001
0000
1000
0100
,
0010
0000
0000
0000
0010
0000
0100
0000
1000
0000
0000
0000
0010
0000
0000
0100
,
0000
0001
0100
0000
0011
0000
1000
0010
,
0001
0000
0001
0010
1000
0000
0010
0010
,
0100
0100
0001
0000
1100
0000
0010
0100
,
1000
0000
0001
0010
0100
0000
0010
0000
,
0001
1000
0010
0000
1010
0000
0100
0001
,
0010
0000
0010
0001
0100
0000
0010
1000
,
0010
1000
0001
0000
1010
0000
0100
0001
,
0010
0000
0000
0000
0100
0000
1000
0000
0010
0000
0000
0000
1000
0000
0000
0100
,
0000
0010
0001
0000
1001
0000
0010
0001
,
1000
0000
1000
0001
0010
0000
0100
1000
,
0001
1000
0100
0000
0110
0000
0001
0100
,
1000
0000
0000
0000
1000
0000
0100
0000
0001
0000
0000
0000
0010
0000
0000
0001
,
0000
0000
1000
0000
0010
0000
0000
0000
0000
0000
0000
0000
0100
0000
0000
0100
,
0000
0000
0100
0000
0000
0000
0000
0000
0000
0000
0000
0000
0010
0000
0000
1000
,
0000
0000
0001
0000
0010
0000
0000
0000
0000
0000
0000
0000
0001
0000
0000
0001
,
0000
0000
0001
0000
0000
0000
0000
0000
2000
0000
0000
0000
3010
0000
0000
1000
,
0000
0000
0010
0000
0100
0000
0000
0000
0000
0000
0000
0000
0010
0000
0000
0010
,
0000
0000
0010
0000
0000
0000
0000
0000
0000
0000
0000
0000
1000
0000
0000
0001
,
0000
0000
1000
0000
0100
0000
0000
0000
0000
0000
0000
0000
1000
0000
0000
1000
,
0000
1000
0000
0000
0002
0000
0020
0000
,
0033
0100
1000
0010
,
0100
0001
1000
0100
,
0010
0002
2003
3010
,
0100
0010
1000
0100
,
0010
0000
0001
0010
0001
0010
0100
0000
,
0100
0000
1000
0010
1000
0010
0100
0000
,
0100
0000
0001
1000
0001
1000
0010
0000
,
0220
0000
0000
0330
0000
0000
0001
0010
,
0100
0000
1000
0000
0001
0000
0000
0000
0100
0000
0000
0000
0010
0000
0000
0010
,
1000
0000
0000
0000
0001
0000
0000
0000
0100
0000
0000
0000
0001
0000
0000
0001
,
1000
0000
0000
0000
0010
0000
0000
0000
0101
0000
0000
0000
1000
0000
0000
1000
,
0100
0000
0000
0000
0010
0000
0000
0000
0001
0000
0000
0000
0100
0000
0000
0100
,
0010
0000
0000
0000
1000
0000
0000
0000
0001
0000
0000
0000
0010
0000
0000
0010
,
0100
0000
0000
0000
0010
0000
0000
0000
0001
0000
0000
0000
0100
0000
0000
0100
,
0010
0000
0000
0000
0100
0000
0000
0000
1001
0000
0000
0000
0010
0000
0000
0010
,
1000
0000
0000
0000
0001
0000
0000
0000
0010
0000
0000
0000
0001
0000
0000
0001
,
1000
0000
0000
0000
0100
0000
0010
0000
0010
0000
0000
0000
0100
0000
0000
0100
,
1000
0000
0000
0000
0010
0000
0000
0000
1000
0000
0000
0000
0001
0000
0000
0001
,
0010
0000
0000
0000
0001
0000
1000
0000
1001
0000
0000
0000
0100
0000
0000
0100
,
0010
0000
0000
0000
1000
0000
0000
0000
0010
0000
0000
0000
0100
0000
0000
0100
,
0001
0000
0000
0000
1000
0000
0001
0000
0001
0000
0000
0000
0010
0000
0000
0010
,
0001
0000
0000
0000
0100
0000
0000
0000
0010
0000
0000
0000
1000
0000
0000
1000
,
0100
0000
0000
0000
0010
0000
0000
0000
1001
0000
0000
0000
0010
0000
0000
0010
,
1000
0000
0001
0000
0010
0000
0100
1000
,
0001
0100
0200
0000
0000
0000
0300
0000
;

//---------------dance-single - ----------------
#NOTES:
     dance-single:
     :
     Easy:
     3:
     0.310534,0.309091,0.202020,0.468687,0.000000,186.000000,25.000000,58.000000,0.000000,0.000000,0.000000,0.310534,0.309091,0.202020,0.468687,0.000000,186.000000,25.000000,58.000000,0.000000,0.000000,0.000000:
0000
0000
0000
0000
,
0000
0000
0000
0000
,
0000
0000
0000
0000
,
0000
0000
0000
0000
,
0010
0010
2000
3002
,
0103
0100
0002
2003
,
3010
0010
2000
3002
,
0003
0000
2002
3000
,
0100
0000
0100
0000
,
1000
0000
1000
0000
,
0010
0000
0010
0000
,
1000
0000
1000
0000
,
1000
1000
1000
1000
,
1000
0100
0010
0100
,
1003
0001
1000
0001
,
1001
1001
1001
0010
,
1000
0000
0100
0000
0010
0000
0002
0003
,
2000
3000
1010
0000
1010
0000
0010
0000
,
0100
0001
1000
0100
,
0010
0011
0011
0100
,
1000
0000
0001
0000
0100
0000
2000
3000
,
0200
0300
0110
0000
0110
0000
0001
0000
,
1000
0100
0010
0002
,
1000
0003
1001
0000
0110
0000
1000
0000
,
0001
0100
0010
1000
,
1000
0101
0011
0100
,
1000
0000
0000
0000
0010
0000
0000
0000
0001
0000
0000
0000
0020
0000
0000
0030
,
0200
0300
1010
0000
1100
0000
0010
0000
,
0001
1000
0100
0010
,
0010
0011
1010
0100
,
0001
0000
0000
0000
1000
0000
0000
0000
0100
0000
0000
0000
0020
0000
0000
0030
,
0002
0003
0200
0000
0000
0000
0320
0000
,
0000
2030
0000
3200
,
0000
0320
0000
0000
,
0000
0030
0000
0000
,
0000
0002
0000
0100
,
0100
0203
0000
0010
,
0010
0320
0000
1000
,
1030
0000
0100
2002
,
3003
0020
0000
2030
,
0000
3200
0000
0320
,
0000
0032
2000
0000
,
0000
3003
0110
2002
,
3003
0010
0010
0100
,
0100
0001
0001
1000
,
1000
0010
1000
0001
,
0100
0000
0001
2002
,
3003
0001
0010
0002
,
0003
1000
0100
0020
,
0030
0100
2000
3002
,
0003
0100
0110
0002
,
0003
1000
0001
2000
,
3000
0010
0100
0002
,
0003
0010
0200
2300
,
3000
0000
0010
1001
,
0100
0001
1000
0020
,
0030
0100
0001
0020
,
0030
0100
2000
3200
,
0300
0001
1010
2000
,
3000
0010
0100
0020
,
0030
1000
0001
0200
,
0300
0001
0020
0032
,
0003
1000
0010
2000
,
3002
0023
0000
0030
;

//---------------dance-single - ----------------
#NOTES:
     dance-single:
     :
     Beginner:
     2:
     0.176623,0.204444,0.024242,0.202020,0.000000,125.000000,3.000000,25.000000,0.000000,0.000000,0.000000,0.176623,0.204444,0.024242,0.202020,0.000000,125.000000,3.000000,25.000000,0.000000,0.000000,0.000000:
0000
0000
0000
0000
,
0000
0000
0000
0000
,
0000
0000
0000
0000
,
0000
0000
0000
0000
,
0001
0001
0001
0000
,
1000
1000
1000
0000
,
0010
0010
0010
0000
,
0000
0000
0200
0000
,
0000
0300
0100
0000
,
0100
0000
0100
0000
,
0100
0000
0100
0000
,
0100
0000
0100
0000
,
0100
0100
0100
0100
,
0100
0100
0100
0100
,
0100
0100
0100
0100
,
0100
0010
0010
0000
,
1000
0000
2000
3000
,
0000
0001
0001
0000
,
0010
0000
0020
0030
,
0000
0100
0100
0000
,
0001
0000
0002
0003
,
0000
1000
1000
0000
,
0100
0000
0200
0300
,
0000
0010
0010
0000
,
0010
0000
0001
0001
,
0000
1000
1000
0000
,
0010
0000
0100
0100
,
0000
0001
0001
0000
,
1000
0000
0010
0010
,
0000
0100
0100
0000
,
0001
0000
1000
2000
,
3000
1000
0000
0020
,
0000
0030
0000
0000
0000
0000
0200
0000
,
0000
0300
0000
0002
,
0000
0003
0000
0000
1000
0000
2000
0000
,
0000
3000
0000
0200
,
0000
0300
0000
0000
0000
0000
0020
0000
,
0000
0030
0000
0002
,
0000
0003
0000
0000
0000
0000
0220
0000
,
0000
0330
0000
0020
,
0000
0030
0000
0000
0000
0000
2000
0000
,
0000
3000
0000
0002
,
0000
0003
0000
0000
0010
0000
0020
0000
,
0000
0030
0000
0200
,
0000
0300
0000
0000
0000
0000
2000
0000
,
0000
3000
0000
0020
,
0000
0030
0000
0000
0000
0000
2002
0000
,
3003
1001
0000
0010
,
0000
0100
0000
0001
,
0000
0010
0010
0010
,
0000
0100
0100
0100
,
0000
1000
0000
0010
,
0000
0100
0000
0001
,
0000
1000
1000
1000
,
0000
0001
0001
0001
,
0000
0010
0000
0001
,
0000
0100
0000
0010
,
0000
1000
1000
1000
,
0000
0100
0100
0100
,
0000
0010
0000
0001
,
0000
1000
0000
0001
,
0000
0010
0010
0010
,
0000
0001
0001
0002
,
0000
0003
0000
0000
;
