#VERSION:0.81;
#TITLE:Rainbow after snow;
#SUBTITLE:;
#ARTIST:猫叉Master feat. 林ももこ;
#TITLETRANSLIT:;
#SUBTITLETRANSLIT:;
#ARTISTTRANSLIT:Nekomata Master feat. Momoko Hayashi;
#GENRE:Drum'n'bass;
#ORIGIN:;
#CREDIT:;
#BANNER:Rainbow after snow-bn.png;
#BACKGROUND:Rainbow after snow-bg.png;
#PREVIEWVID:;
#JACKET:Rainbow after snow-jk.png;
#CDIMAGE:;
#DISCIMAGE:;
#LYRICSPATH:;
#CDTITLE:;
#MUSIC:Rainbow after snow.mp3;
#OFFSET:-0.565000;
#SAMPLESTART:69.588921;
#SAMPLELENGTH:21.452515;
#SELECTABLE:YES;
#BPMS:0.000=179.000;
#STOPS:69.000=0.670,
99.000=0.670,
201.000=0.670;
#DELAYS:;
#WARPS:;
#TIMESIGNATURES:0.000=4=4,
68.000=2=4,
70.000=4=4,
98.000=2=4,
100.000=4=4,
200.000=2=4,
202.000=4=4;
#TICKCOUNTS:0.000=4;
#COMBOS:0.000=1;
#SPEEDS:0.000=1.000=0.000=0;
#SCROLLS:0.000=1.000;
#FAKES:;
#LABELS:0.000=Song Start,
362.000=Song End;
#BGCHANGES:;
#KEYSOUNDS:;
#ATTACKS:
;

//---------------dance-single - ----------------
#NOTEDATA:;
#CHARTNAME:;
#STEPSTYPE:dance-single;
#DESCRIPTION:;
#CHARTSTYLE:;
#DIFFICULTY:Hard;
#METER:7;
#RADARVALUES:0.531686,0.636851,0.398765,0.422221,0.015638,371.000000,51.000000,54.000000,0.000000,0.000000,0.000000,0.000000,0.000000,0.531686,0.636851,0.398765,0.422221,0.015638,371.000000,51.000000,54.000000,0.000000,0.000000,0.000000,0.000000,0.000000;
#CREDIT:DJ OMiY;
#NOTES:
// measure 0
0000
0000
0000
0000
,  // measure 1
0000
0000
0000
0000
,  // measure 2
0000
0000
0000
0000
,  // measure 3
0000
0000
0000
0000
,  // measure 4
0000
0000
0000
0000
,  // measure 5
0000
0000
0000
0000
,  // measure 6
0000
0000
0000
0000
,  // measure 7
0000
0000
0000
0000
,  // measure 8
1001
1000
1000
1000
,  // measure 9
0101
0101
0001
0001
,  // measure 10
0110
0110
0100
0100
,  // measure 11
0010
0100
0010
0000
0010
0000
0010
0000
,  // measure 12
1001
0001
0001
0001
,  // measure 13
1001
1001
1000
1000
,  // measure 14
1010
1010
0010
0010
,  // measure 15
0100
0001
0100
0000
0100
0000
0100
0000
,  // measure 16
0001
0010
0100
1000
,  // measure 17
0001
0000
0000
1000
0000
0000
0020
0030
0000
0000
0000
0000
0100
0000
0000
0000
0000
0000
0101
0000
0000
0000
0000
0000
,  // measure 18
0000
1000
0010
1000
0100
0000
1100
0000
,  // measure 19
0000
1000
0001
0100
0001
0000
0101
0000
,  // measure 20
0000
0100
0010
1000
0100
0000
0011
0000
,  // measure 21
0100
0001
1000
0010
0200
0000
0000
0000
,  // measure 22
0301
0010
0100
1000
,  // measure 23
0010
0100
0020
0000
1000
0000
0001
0000
,  // measure 24
1030
0000
0000
0000
0000
0000
0000
0000
0000
0000
0000
0000
0100
0000
0000
0000
0000
0000
0010
0000
0000
0000
0000
0000
0001
0000
0000
0010
0000
0000
0000
0000
0000
0000
0000
0000
0200
0000
0300
0000
0000
0000
0000
0000
0000
0000
0000
0000
,  // measure 25
1000
0000
1100
0000
0000
0001
0100
0001
,  // measure 26
0010
0000
0110
0000
0000
1000
0100
0010
,  // measure 27
0001
0000
1010
0000
0000
0010
0100
0001
,  // measure 28
0100
0000
1001
0000
0010
0100
0010
0000
,  // measure 29
0002
1000
1003
0001
,  // measure 30
0100
0000
0010
0000
1000
0100
0010
0000
,  // measure 31
0001
0000
0100
0000
0010
1000
0010
0100
,  // measure 32
0001
0000
0010
0100
0100
0000
1000
0000
,  // measure 33
1001
0001
0100
0100
,  // measure 34
0010
0000
0010
0000
1000
0100
0001
0100
,  // measure 35
1000
1000
0010
0010
,  // measure 36
0100
0000
0000
0000
0100
0000
0000
0000
0001
0000
0000
0001
0000
0000
0100
0000
,  // measure 37
0001
0000
1000
0000
1001
0000
0010
0100
,  // measure 38
0010
1000
1001
0020
,  // measure 39
0032
0000
0203
0000
0310
1000
0010
0100
,  // measure 40
0002
0000
0003
1000
0200
0000
0310
0000
,  // measure 41
0110
0000
0020
0000
,  // measure 42
0032
0000
1003
0000
,  // measure 43
1010
0000
0020
2030
,  // measure 44
3200
0320
0032
1003
,  // measure 45
1001
0000
1001
0000
,  // measure 46
0110
0000
1000
0100
0001
0100
1000
0000
,  // measure 47
0001
0001
0100
0100
,  // measure 48
0010
0010
1000
1000
,  // measure 49
0001
0010
0100
1000
0001
0010
0100
1000
,  // measure 50
0001
0000
0000
0100
0000
0000
0220
0330
0000
0000
0000
0000
0011
0000
0000
0000
0000
0000
0101
0000
0000
0000
0000
0000
,  // measure 51
1001
1100
1001
0101
,  // measure 52
1001
0020
2030
3200
,  // measure 53
0320
0000
0032
0000
1003
0100
0010
0001
,  // measure 54
0020
0000
0130
1000
0001
0000
0011
0000
,  // measure 55
1001
1010
1001
0110
,  // measure 56
0001
0010
0200
0000
1300
0100
1000
0100
,  // measure 57
0010
0001
0100
0001
1000
0100
0010
0001
,  // measure 58
2000
0000
3010
0100
0010
0000
0101
0000
,  // measure 59
1010
0101
0011
1100
,  // measure 60
0011
1001
0020
2030
,  // measure 61
3002
0000
0203
0000
0310
1000
0010
0100
,  // measure 62
0002
0000
1003
0010
0100
0000
1010
0000
,  // measure 63
0101
0011
0101
1100
,  // measure 64
0010
1000
0002
0000
0013
0100
0010
0100
,  // measure 65
1000
0100
0010
0001
1000
0001
0200
0000
,  // measure 66
0310
0000
1000
0000
0001
0000
0000
0100
0001
0000
1000
0000
0001
0000
0000
0000
,  // measure 67
0100
0010
0100
0000
0010
1000
0010
0000
,  // measure 68
0100
0001
0010
0100
1000
0100
1000
0000
,  // measure 69
0010
0100
0010
0000
1000
0100
1000
0000
,  // measure 70
0001
0100
0001
0010
0100
0010
0001
0000
,  // measure 71
0010
0100
1000
0000
0010
0100
0001
0000
,  // measure 72
1000
0100
0010
0100
1000
0001
1000
0000
,  // measure 73
0010
0100
0001
0001
1000
0000
0100
0100
,  // measure 74
1000
0000
0000
0000
0010
0000
0000
0100
0010
0000
0000
0000
0100
0000
0000
0000
,  // measure 75
0010
0100
0001
0100
,  // measure 76
0020
2030
3100
0010
,  // measure 77
0002
2003
3100
1000
,  // measure 78
0020
0230
0301
1000
,  // measure 79
0020
2030
3100
0010
,  // measure 80
0002
0023
0230
0000
,  // measure 81
1300
0100
0010
0000
0002
0000
0000
0000
,  // measure 82
0103
0001
2000
0000
,  // measure 83
0000
0000
0020
0000
,  // measure 84
3000
0000
0200
0000
,  // measure 85
0030
0000
0002
0000
,  // measure 86
0300
0000
0020
0000
,  // measure 87
0003
0000
2000
0000
,  // measure 88
0030
0000
0200
0000
,  // measure 89
3000
0000
0002
0000
,  // measure 90
0000
0000
0303
0000
;

//---------------dance-single - ----------------
#NOTEDATA:;
#CHARTNAME:;
#STEPSTYPE:dance-single;
#DESCRIPTION:;
#CHARTSTYLE:;
#DIFFICULTY:Medium;
#METER:5;
#RADARVALUES:0.424455,0.636851,0.101646,0.516048,0.000000,301.000000,13.000000,66.000000,0.000000,0.000000,0.000000,0.000000,0.000000,0.424455,0.636851,0.101646,0.516048,0.000000,301.000000,13.000000,66.000000,0.000000,0.000000,0.000000,0.000000,0.000000;
#CREDIT:DJ OMiY;
#NOTES:
0000
0000
0000
0000
,
0000
0000
0000
0000
,
0000
0000
0000
0000
,
0000
0000
0000
0000
,
0000
0000
0000
0000
,
0000
0000
0000
0000
,
0000
0000
0000
0000
,
0000
0000
0000
0000
,
0101
0100
0001
0100
,
0001
0100
0001
0100
,
1010
0010
1000
0010
,
1000
0010
1000
0000
0010
0000
1000
0000
,
0011
0010
0001
0010
,
0001
0010
0001
0010
,
1100
0100
1000
0100
,
1000
0100
1000
0000
0100
0000
1000
0000
,
0010
0100
0010
0100
,
0001
0000
0000
0010
0000
0000
0200
0300
0000
0000
0000
0000
1000
0000
0000
0000
0000
0000
0010
0000
0000
0000
0000
0000
,
0000
1000
0010
0000
0100
0000
0001
0000
,
0000
0100
0001
0000
0010
0000
0001
0000
,
0000
0010
0001
0000
1000
0000
0100
0000
,
0000
1000
0100
0000
0010
0000
0100
0000
,
1000
0100
0010
0001
,
0100
0010
1000
0001
,
0100
0000
0000
0000
0000
0000
0001
0000
0000
0000
0000
0000
0010
0000
0000
0001
0000
0000
2000
3000
0000
0000
0000
0000
,
0010
0000
0100
0000
0000
0010
0100
0000
,
0001
0000
0100
0000
0000
0001
0100
0000
,
0010
0000
1000
0000
0000
0010
1000
0000
,
0001
0000
1000
0000
0000
0001
1000
0000
,
0010
1000
0010
0001
,
0010
0000
1000
0000
0100
0010
0001
0000
,
1000
0010
0100
0001
,
0010
0000
0100
0100
1000
0000
0010
0000
,
0200
0000
0010
0000
,
0302
0000
0010
0000
,
2003
0000
3200
2300
,
3020
0000
1000
0000
,
0230
0302
0003
0020
,
0230
2300
3000
0020
,
0230
0000
0302
0000
0003
0000
1000
0100
,
0010
0000
0100
0010
0001
0000
1000
0000
,
0110
0000
0010
0000
,
0110
0000
1000
0000
,
1001
0000
0001
0100
,
0101
0010
1000
0100
,
1100
0000
0011
0000
,
0101
1000
1001
0010
,
1000
0100
0010
0001
,
0100
0010
1000
0001
,
0010
0100
0010
0001
,
0100
0000
0000
0010
0000
0000
0220
0330
0000
0000
0000
0000
0020
0000
0000
0000
0000
0000
2030
0000
0000
0000
0000
0000
,
3200
0320
0032
0203
,
0320
2030
3002
0203
,
0320
0000
2030
0000
3100
0010
0001
0000
,
0002
0000
1003
0100
0020
0000
0032
0000
,
2003
3020
0230
0302
,
1003
0010
2000
0000
0100
0000
0100
0000
,
0100
0100
0001
0001
,
3001
0000
1000
0001
2000
0000
3020
0000
,
0230
0302
0023
2030
,
3020
0032
0203
0320
,
2030
0000
3002
0000
0013
0001
1000
0000
,
2000
0000
3010
1000
0200
0000
2300
0000
,
3020
0230
0302
2003
,
3010
1000
0020
0000
0100
0000
0100
0000
,
0100
0100
1000
1000
,
1030
0010
1000
0000
0100
0000
0010
0000
,
0000
0001
0010
0000
0100
0000
1000
0000
,
0000
0001
0100
0000
0010
0000
1000
0000
,
0000
0100
1000
0000
0100
0000
0010
0000
,
0000
0001
1000
0000
0010
0000
1000
0000
,
0000
0100
0010
0000
0100
0000
1000
0000
,
0000
0010
0100
0000
0001
0000
0001
0000
,
0001
0001
0010
0010
,
0010
0010
0100
0000
,
1000
0000
0100
0100
,
0010
0001
1000
0000
,
0001
0000
1000
0010
,
0100
0001
0100
0000
0010
0000
0000
0000
,
1000
0000
0001
0010
,
0100
1000
0010
0010
,
0010
0010
0100
0100
,
0100
0100
0002
0000
,
0000
0000
0020
0000
,
0003
0000
0200
0000
,
0030
0000
2000
0000
,
0300
0000
0020
0000
,
3000
0000
0200
0000
,
0030
0000
0002
0000
,
0300
0000
2000
0000
,
0000
0000
3003
0000
;

//---------------dance-single - ----------------
#NOTEDATA:;
#CHARTNAME:;
#STEPSTYPE:dance-single;
#DESCRIPTION:;
#CHARTSTYLE:;
#DIFFICULTY:Easy;
#METER:4;
#RADARVALUES:0.388712,0.564526,0.132922,0.523867,0.000000,264.000000,17.000000,67.000000,0.000000,0.000000,0.000000,0.000000,0.000000,0.388712,0.564526,0.132922,0.523867,0.000000,264.000000,17.000000,67.000000,0.000000,0.000000,0.000000,0.000000,0.000000;
#CREDIT:DJ OMiY;
#NOTES:
0000
0000
0000
0000
,
0000
0000
0000
0000
,
0000
0000
0000
0000
,
0000
0000
0000
0000
,
0000
0000
0000
0000
,
0000
0000
0000
0000
,
0000
0000
0000
0000
,
0000
0000
0000
0000
,
0010
0010
0010
0010
,
1000
1000
1000
1000
,
0001
0001
0001
0001
,
0010
0010
0010
0010
,
0100
0100
0100
0100
,
0010
0010
0010
0010
,
0001
0001
0001
0001
,
1000
1000
1000
1000
,
0010
0100
0010
0100
,
0001
0000
0000
0000
0000
0000
2002
3003
0000
0000
0000
0000
0010
0000
0000
0000
0000
0000
1000
0000
0000
0000
0000
0000
,
0000
0100
0010
0001
,
0000
0100
0010
1000
,
0000
0001
0010
0100
,
0000
0010
0001
0000
,
0001
1000
1000
0000
,
1000
0010
0100
0001
,
0100
0000
0000
0000
0000
0000
0010
0000
0000
0000
0000
0000
1000
0000
0000
0000
0000
0000
2002
3003
0000
0000
0000
0000
,
0000
0010
0001
0100
,
0000
0010
1000
0100
,
0000
1000
0001
0100
,
0000
0010
1000
0010
,
0200
0000
0001
0301
,
0010
0001
1000
0200
,
0000
0310
0100
0010
,
0001
0010
0100
1000
,
0002
0000
0100
0000
,
0100
0000
0103
0001
,
2000
0000
0100
0000
,
0100
0000
3100
0010
,
0200
2300
3010
0020
,
0230
0302
1003
2000
,
3002
0023
0000
0100
,
0100
0000
0130
0010
,
1001
0000
0010
0000
,
1001
0000
0100
0000
,
1001
0000
0010
0010
,
1001
0000
0100
0100
,
1001
0000
1001
0000
,
1001
0000
1001
0000
,
0010
0010
0010
0010
,
0010
0010
0010
0010
,
1000
0100
0010
0001
,
1000
0000
0000
0000
0000
0000
2002
3003
0000
0000
0000
0000
0010
0000
0000
0000
0000
0000
2000
0000
0000
0000
0000
0000
,
3200
0302
0203
2300
,
3002
0013
0001
0100
,
0010
1000
1001
0101
,
1001
0010
1000
0002
,
0023
0230
2300
3002
,
0203
0310
1000
1000
,
1000
0100
0010
0010
,
0001
1000
0010
2000
,
3200
0320
0032
0203
,
0320
1030
0001
1000
,
0010
0100
1001
0110
,
1001
0010
1000
0020
,
0230
0302
2003
3200
,
0320
0032
0013
0010
,
0010
0001
0100
0100
,
0100
0010
1000
0000
,
0010
0100
0001
0000
,
0020
0230
1300
0000
,
0020
0230
0301
0000
,
2000
3200
0310
0001
,
2000
3020
0130
0001
,
1000
0100
0010
0000
,
0010
0001
1000
0000
,
1000
0001
0010
0000
,
0010
0000
0100
0000
,
0200
0320
0031
0000
,
0200
0320
1030
0000
,
0002
0203
0310
0100
,
0002
2003
3010
0000
,
0100
0001
0100
0100
,
0100
0001
0010
0010
,
0010
0100
2000
0000
,
0000
3000
0020
0000
,
0000
0030
0200
0000
,
0000
0300
0002
0000
,
0000
0003
0020
0000
,
0000
0030
0200
0000
,
0000
0300
2000
0000
,
0000
3000
0020
0000
,
0000
0030
0000
0000
;

//---------------dance-single - ----------------
#NOTEDATA:;
#CHARTNAME:;
#STEPSTYPE:dance-single;
#DESCRIPTION:;
#CHARTSTYLE:;
#DIFFICULTY:Beginner;
#METER:1;
#RADARVALUES:0.134039,0.244927,0.031276,0.211111,0.000000,89.000000,4.000000,27.000000,0.000000,0.000000,0.000000,0.000000,0.000000,0.134039,0.244927,0.031276,0.211111,0.000000,89.000000,4.000000,27.000000,0.000000,0.000000,0.000000,0.000000,0.000000;
#CREDIT:DJ OMiY;
#NOTES:
0000
0000
0000
0000
,
0000
0000
0000
0000
,
0000
0000
0000
0000
,
0000
0000
0000
0000
,
0000
0000
0000
0000
,
0000
0000
0000
0000
,
0000
0000
0000
0000
,
0000
0000
0000
0000
,
0002
0000
0000
0000
,
0000
0000
0003
0000
,
2000
0000
0000
0000
,
0000
0000
3000
0000
,
0020
0000
0000
0000
,
0000
0000
0030
0000
,
0200
0000
0000
0000
,
0000
0000
0300
0000
,
0001
0000
1000
0000
,
2002
3003
0010
0000
,
0000
0000
0100
0000
,
0000
0000
0001
0000
,
0000
0000
0100
0000
,
0000
0000
0010
0000
,
0000
0000
1000
0000
,
0000
0000
0100
0000
,
0000
0000
0220
0330
,
0010
0000
0000
0000
,
0001
0000
0000
0000
,
1000
0000
0000
0000
,
0010
0000
0000
0000
,
0100
0000
0000
0000
,
0100
0000
0000
0000
,
0001
0000
0000
0000
,
0001
0000
0000
0000
,
2000
0000
0000
0000
,
3000
0000
0000
0000
,
0002
0000
0000
0000
,
0003
0000
0000
0000
,
0020
0000
0030
0000
,
0020
0000
0030
0000
,
0200
0000
0000
0000
,
0000
0000
0300
0000
,
1000
0000
0000
0000
,
0001
0000
0000
0000
,
1000
0000
0000
0000
,
0001
0000
0000
0000
,
1000
0000
0001
0000
,
1000
0000
0001
0000
,
0100
0100
0100
0100
,
0100
0100
0100
0000
,
0010
0000
0010
0000
,
2002
3003
0001
0000
,
0100
0000
1000
0000
,
0100
0000
0001
0000
,
0010
0000
0100
0000
,
0000
0000
1000
0000
,
0100
0000
0100
0000
,
0010
0000
0020
0000
,
0030
0000
0002
0000
,
0003
0000
0100
0000
,
0001
0000
0001
0000
,
1000
0000
1000
0000
,
0001
0000
1000
0000
,
0000
0000
0001
0000
,
1000
0000
0010
0000
,
1000
0000
0200
0000
,
0300
0000
2000
0000
,
3000
0000
2002
0000
,
0000
0000
0000
0000
,
3003
0000
0010
0000
,
0000
0000
1000
0000
,
0000
0000
0001
0000
,
0000
0000
0010
0000
,
0000
0000
0200
0000
,
0300
0000
0020
0000
,
0030
0000
0001
0000
,
0000
0000
1000
0000
,
0000
0000
0001
0000
,
0000
0000
0100
0000
,
0000
0000
0010
0000
,
0000
0000
1000
0000
,
0000
0000
0200
0000
,
0300
0000
2000
0000
,
3000
0000
0002
0000
,
0000
0000
0000
0000
,
0000
0000
0000
0000
,
0000
0000
0003
0000
,
0000
0000
2000
0000
,
0000
0000
0000
0000
,
0000
0000
0000
0000
,
0000
0000
3000
0000
;

//---------------dance-double - ----------------
#NOTEDATA:;
#CHARTNAME:;
#STEPSTYPE:dance-double;
#DESCRIPTION:;
#CHARTSTYLE:;
#DIFFICULTY:Hard;
#METER:7;
#RADARVALUES:0.520516,0.636851,0.390946,0.555143,0.015638,345.000000,50.000000,71.000000,0.000000,0.000000,0.000000,0.000000,0.000000,0.520516,0.636851,0.390946,0.555143,0.015638,345.000000,50.000000,71.000000,0.000000,0.000000,0.000000,0.000000,0.000000;
#CREDIT:DJ OMiY;
#NOTES:
00000000
00000000
00000000
00000000
,
00000000
00000000
00000000
00000000
,
00000000
00000000
00000000
00000000
,
00000000
00000000
00000000
00000000
,
00000000
00000000
00000000
00000000
,
00000000
00000000
00000000
00000000
,
00000000
00000000
00000000
00000000
,
00000000
00000000
00000000
00000000
,
00101000
00100000
00100000
00100000
,
01100000
11000000
10000000
10000000
,
01010000
01010000
00010000
00010000
,
00100000
00001000
00010000
00000000
00010000
00000000
00000100
00000000
,
00001100
00000100
00000100
00000010
,
00000011
00000011
00001000
00000100
,
00010100
00010100
00010000
00000100
,
00010000
00001000
00100000
00000000
00100000
00000000
00100000
00000000
,
00010000
01000000
00100000
10000000
,
01000000
00000000
00000000
00100000
00000000
00000000
00002000
00003000
00000000
00000000
00000000
00000000
00010000
00000000
00000000
00000000
00000000
00000000
00010100
00000000
00000000
00000000
00000000
00000000
,
00000000
00001000
00000010
00000100
00000001
00000000
00001001
00000000
,
00000000
00000010
00000001
00001000
00000100
00000000
00000110
00000000
,
00000000
00000100
00010000
00001000
01000000
00000000
01010000
00000000
,
00000000
01000000
00100000
10000000
00020000
00000000
01000000
00000000
,
02030000
03200000
20300000
30100000
,
10000000
01000000
00100000
00000000
00001000
00010000
00001000
00010000
,
00000010
00000000
00000000
00000000
00000000
00000000
00000100
00000000
00000000
00000000
00000000
00000000
00000001
00000000
00000000
00000000
00000000
00000000
00000000
00000000
00000000
00000000
00000000
00000000
00001000
00000000
00000000
00000100
00000000
00000000
00000000
00000000
00000000
00000000
00000000
00000000
00020000
00000000
00030000
00000000
00000000
00000000
00000000
00000000
00000000
00000000
00000000
00000000
,
00000100
00000000
00010100
00000000
00000000
00010000
00001000
00010000
,
00000100
00000000
00000110
00000000
00000000
00000010
00000001
00001000
,
00000100
00000000
00010100
00000000
00000000
00010000
00001000
01000000
,
00100000
00000000
10100000
00000000
00000000
01000000
00010000
00100000
,
00020000
10000000
20030000
32000000
,
03200000
00000000
00301000
00010000
00000100
00010000
00001000
00000000
,
00010000
00000000
00010000
00000000
00000100
00000010
00000001
00000000
,
00000010
00000100
00001000
00001000
00000100
00000000
00010000
00000000
,
00011000
00001000
00100000
00100000
,
01000000
00000000
01000000
00000000
10000000
01000000
00100000
00010000
,
10000000
10000000
00100000
00100000
,
01000000
00000000
00000000
00000000
01000000
00000000
00000000
00000000
00010000
00000000
00000000
10000000
00000000
00000000
00010000
00000000
,
00100000
00000000
00202000
00000000
00303000
00000000
00001000
00010000
,
00000100
00020200
00030300
00002000
,
00003002
00000000
00000023
00000000
00000100
00000000
00000130
00000010
,
00000002
00000000
00001003
00000001
00000200
00000000
00000320
00000000
,
00020030
00000000
00001000
00000000
,
00100000
00000000
00032000
00000000
,
02003000
00000000
03200000
20300000
,
32000000
03200000
00302000
00013000
,
00011000
00000000
00011000
00000000
,
00011000
00000000
00011000
00000000
,
00010000
00000100
00000010
00000001
,
00000100
00000010
00010000
00001000
,
00100000
00010000
00100000
00000000
01000000
10000000
01000000
00100000
,
00001000
00000000
00000000
00010000
00000000
00000000
00022000
00033000
00000000
00000000
00000000
00000000
00010100
00000000
00000000
00000000
00000000
00000000
00000110
00000000
00000000
00000000
00000000
00000000
,
00000011
00000101
00001100
00000101
,
00001001
00002000
00003200
00020300
,
00032000
00000000
00203000
00000000
00301000
00010000
00001000
01000000
,
00020000
00000000
10030000
01000000
00100000
00000000
00110000
00000000
,
10100000
00110000
10010000
11000000
,
01000000
00100000
00002000
00000000
00013000
00000000
00000100
00000000
,
00001000
00000000
00000010
00000000
00000100
00000001
00000100
00000010
,
00002000
00000000
00003100
00010000
00001000
00000000
00011000
00000000
,
00101000
01100000
00101000
00011000
,
00010100
00002000
00003002
00000203
,
00000320
00000000
00002030
00000000
00003100
00000010
00000001
00000010
,
00000200
00000000
00001300
00000100
00010000
00000000
00010100
00000000
,
00011000
00101000
01001000
01010000
,
00010000
10000000
00200000
00000000
01000000
00000000
10000000
10000000
,
00000000
10000000
10000000
00000000
01300000
01000000
00010000
00000000
,
00100000
00000000
00001000
00000000
00100000
00000000
00000000
00001000
00010000
00000000
00000000
00000000
00001000
00000000
00000000
00000000
,
00100000
00001000
00010000
00000100
,
00000020
00000032
00000103
00000010
,
00002000
00003200
00010300
00001000
,
00100000
00010000
10000000
00000000
00100000
00000000
10000000
00000000
,
02000000
03020000
00031000
00010000
,
00000200
00000320
00000032
00001000
,
00001000
00000000
00001003
00000100
00001000
00000000
00000010
00001000
,
00000010
00000000
00001000
00000000
00000100
00000000
00000000
00000100
00010000
00000000
00000000
00000000
00000000
00000000
00000000
00000000
,
00010000
00000000
00001000
00100000
,
00020000
20030000
30200000
00300000
,
02000000
03020000
10030000
10000000
,
00100000
01000000
00001000
00010000
00001000
00000000
00000000
00000000
,
00020000
00030200
00000310
00000110
,
00000002
00002003
00003001
00000100
,
00000010
00010000
00001000
00100000
,
01000000
00000000
10000000
00010000
20000000
00000000
00000000
00000000
,
00000000
00000000
02000000
00000000
,
30000000
00000000
00200000
00000000
,
03000000
00000000
00020000
00000000
,
00300000
00000000
00002000
00000000
,
00030000
00000000
00000200
00000000
,
00003000
00000000
00000020
00000000
,
00000300
00000000
00000002
00000000
,
00000000
00000000
00000033
00000000
;
