#VERSION:0.83;
#TITLE:Quakes;
#SUBTITLE:;
#ARTIST:dj Hellix;
#TITLETRANSLIT:;
#SUBTITLETRANSLIT:;
#ARTISTTRANSLIT:;
#GENRE:Hard Break Beats;
#ORIGIN:;
#CREDIT:;
#BANNER:Quakes-bn.png;
#BACKGROUND:Quakes-bg.png;
#PREVIEWVID:;
#JACKET:Quakes-jk.png;
#CDIMAGE:;
#DISCIMAGE:;
#LYRICSPATH:;
#CDTITLE:;
#MUSIC:Quakes.ogg;
#OFFSET:-1.060000;
#SAMPLESTART:31.375788;
#SAMPLELENGTH:20.210527;
#SELECTABLE:YES;
#BPMS:0.000=190.000;
#STOPS:;
#DELAYS:;
#WARPS:;
#TIMESIGNATURES:0.000=4=4;
#TICKCOUNTS:0.000=4;
#COMBOS:0.000=1;
#SPEEDS:0.000=1.000=0.000=0;
#SCROLLS:0.000=1.000;
#FAKES:;
#LABELS:0.000=Song Start;
#BGCHANGES:;
#KEYSOUNDS:;
#ATTACKS:
;

//---------------dance-single - S-HEAVY----------------
#NOTEDATA:;
#CHARTNAME:DJ OMiY-HSP;
#STEPSTYPE:dance-single;
#DESCRIPTION:S-HEAVY;
#CHARTSTYLE:;
#DIFFICULTY:Hard;
#METER:10;
#RADARVALUES:0.675424,0.914420,0.363690,0.147208,0.138549,546.000000,504.000000,42.000000,17.000000,0.000000,0.000000,0.000000,0.000000,0.000000,0.675424,0.914420,0.363690,0.147208,0.138549,546.000000,504.000000,42.000000,17.000000,0.000000,0.000000,0.000000,0.000000,0.000000;
#CREDIT:DJ OMiY;
#NOTES:
// measure 0
0000
0000
0000
0000
,  // measure 1
0000
0000
0000
0000
,  // measure 2
0000
0000
0000
0000
,  // measure 3
0000
0000
0000
0000
,  // measure 4
0000
0000
0000
0000
,  // measure 5
0000
0000
0000
0000
,  // measure 6
0000
0000
0000
0000
,  // measure 7
0000
0000
0000
0000
,  // measure 8
1000
0100
1000
0000
0001
0010
0001
0000
,  // measure 9
1000
0100
1000
0000
0001
0010
0001
0000
,  // measure 10
0100
0001
0100
0000
0010
1000
0010
0000
,  // measure 11
0100
0001
0100
0000
0010
1000
0010
0000
,  // measure 12
0100
0001
0010
0000
0100
1000
0010
0000
,  // measure 13
0100
0001
0010
0000
0100
1000
0010
0000
,  // measure 14
0100
0001
0010
0100
1000
0010
0100
0001
,  // measure 15
0000
0000
0000
0000
,  // measure 16
1000
0100
1000
0010
0100
0010
1000
0000
,  // measure 17
0001
0100
0001
0010
0001
0100
0002
0000
,  // measure 18
0013
0100
0010
0100
1000
0010
0100
0000
,  // measure 19
0010
1000
0001
1000
0100
0010
0200
0000
,  // measure 20
1300
0100
0010
0100
1000
0001
0100
0000
,  // measure 21
0010
0100
1000
0100
0001
0100
0020
0000
,  // measure 22
1030
0001
0010
0100
0010
0001
1000
0000
,  // measure 23
0020
0000
0000
0030
,  // measure 24
1100
0001
1100
0001
0010
0001
0100
0000
,  // measure 25
0011
1000
0011
1000
0010
0100
0001
0000
,  // measure 26
1010
0001
1010
0001
0100
0001
1000
0000
,  // measure 27
0001
0010
0100
0000
0010
0100
1000
0000
1000
0100
0010
0000
0100
0010
0001
0000
,  // measure 28
1000
0100
0010
0100
0001
0100
1000
0000
,  // measure 29
0010
0100
1000
0100
0001
0100
0010
0000
,  // measure 30
1100
0001
1010
0001
1100
0001
0101
0000
,  // measure 31
2001
0000
0100
3001
,  // measure 32
1010
0100
0001
0100
0010
1000
0100
0010
,  // measure 33
0100
1000
0001
0100
0001
1000
0010
0100
,  // measure 34
0001
1000
0100
1000
0001
0010
0100
0010
,  // measure 35
1000
0010
0001
1000
0001
0010
0100
1000
,  // measure 36
0001
0100
0010
1000
0010
0100
1000
0100
,  // measure 37
0010
0100
0001
1000
0100
0010
0100
1000
,  // measure 38
0001
0100
0001
1000
0100
0010
0100
1000
,  // measure 39
0010
0100
0001
0010
0100
1000
0010
0100
0001
1000
0100
1000
,  // measure 40
0001
0000
0100
0010
0100
0001
1000
0100
,  // measure 41
1000
0001
0010
0100
1000
0010
0100
0001
,  // measure 42
0010
0100
0010
0001
1000
0100
1000
0010
,  // measure 43
0100
0001
1000
0100
0010
0000
1001
0000
,  // measure 44
0001
1000
0100
1000
0010
0100
0001
1000
,  // measure 45
0001
0100
0001
1000
0100
1000
0010
0100
,  // measure 46
0001
1000
0010
0000
1000
0001
0010
0000
0001
1000
0010
0000
1000
0001
0010
0000
,  // measure 47
0200
0000
1300
1100
,  // measure 48
0010
0001
0100
0000
0000
0010
0100
0000
,  // measure 49
0010
1000
0100
0000
0000
0010
0001
0000
,  // measure 50
1000
0100
1000
0010
0000
0100
0001
0000
,  // measure 51
0010
0001
0100
0020
0000
0000
2030
0000
,  // measure 52
3100
1000
0010
0000
0100
0001
0010
0000
,  // measure 53
0100
1000
0100
0000
0010
0001
0010
0000
,  // measure 54
0001
1000
0010
0000
0100
0001
1000
0000
,  // measure 55
0010
0100
0010
1000
0001
0100
0001
0010
,  // measure 56
0110
0100
1000
0200
0000
1300
0001
0000
,  // measure 57
0110
0001
0100
0101
0000
0001
1001
0000
,  // measure 58
1100
1000
0001
0020
0000
0000
0130
0000
,  // measure 59
1100
1000
0001
0021
0000
0000
0130
0000
,  // measure 60
1100
0000
0100
0010
0001
0100
1000
0000
,  // measure 61
0200
0000
0310
1000
0100
0010
0001
0000
,  // measure 62
1000
0100
1000
0010
0100
0001
1000
0001
,  // measure 63
0010
0100
1000
0000
0100
0010
0001
0000
1000
0100
0010
0000
0001
0010
0100
0000
,  // measure 64
0020
0000
0000
0000
,  // measure 65
0000
0000
0002
0000
,  // measure 66
0003
0000
0000
0000
,  // measure 67
0000
0000
2000
0000
,  // measure 68
3000
0000
0000
0000
,  // measure 69
0000
0000
0200
0000
,  // measure 70
0300
0000
0000
0000
,  // measure 71
0031
0000
1000
0001
,  // measure 72
1001
0000
0010
0011
0001
0100
0010
0000
,  // measure 73
1000
0001
1000
0100
0010
0100
1000
0000
,  // measure 74
1010
0000
0010
0110
0100
0001
1000
0000
,  // measure 75
0100
0001
0100
1000
0100
0010
0001
0000
,  // measure 76
1001
0000
1000
1100
0001
0100
0010
0000
,  // measure 77
0010
1000
0001
0010
1000
0010
0001
0000
,  // measure 78
0110
0000
0001
0101
0010
1000
0001
0000
,  // measure 79
1000
0100
0010
0100
1000
0100
0010
0001
0010
0100
0010
0001
,  // measure 80
1000
0100
1000
0001
0100
0010
1000
0001
,  // measure 81
1100
0001
1010
0001
1010
0100
1010
0000
,  // measure 82
0001
0100
0010
1000
0001
0010
0100
1000
,  // measure 83
0011
1000
0101
1000
0011
0100
1001
0000
,  // measure 84
0100
0010
1000
0001
0010
0100
0010
0001
,  // measure 85
1010
0001
1100
0001
1010
0100
1100
0000
,  // measure 86
0001
0010
0100
0000
1000
0100
0010
0000
0100
0010
0001
0000
0010
0100
1000
0000
,  // measure 87
0002
0000
0100
1000
,  // measure 88
0003
0000
0000
0000
;

//---------------dance-single - S-STANDARD----------------
#NOTEDATA:;
#CHARTNAME:DJ OMiY-SSP;
#STEPSTYPE:dance-single;
#DESCRIPTION:S-STANDARD;
#CHARTSTYLE:;
#DIFFICULTY:Medium;
#METER:8;
#RADARVALUES:0.524505,0.647714,0.467601,0.216482,0.056285,424.000000,370.000000,54.000000,25.000000,0.000000,0.000000,0.000000,0.000000,0.000000,0.524505,0.647714,0.467601,0.216482,0.056285,424.000000,370.000000,54.000000,25.000000,0.000000,0.000000,0.000000,0.000000,0.000000;
#CREDIT:DJ OMiY;
#NOTES:
0000
0000
0000
0000
,
0000
0000
0000
0000
,
0000
0000
0000
0000
,
0000
0000
0000
0000
,
0000
0000
0000
0000
,
0000
0000
0000
0000
,
0000
0000
0000
0000
,
0000
0000
0000
0000
,
1000
0001
1000
0100
,
1000
0000
0001
0000
0100
0010
0100
0000
,
0001
1000
0100
1000
,
0010
0000
0100
0000
0001
1000
0100
0000
,
0010
0100
1000
0001
,
0100
0000
0010
0000
1000
0100
0010
0000
,
0100
1000
0001
0000
0100
0001
0100
0000
,
0020
0100
2000
3030
,
1001
0010
0001
1000
,
0010
0000
0100
0000
0001
0010
0200
0000
,
0310
0001
1000
0100
,
1000
0000
0010
0000
1000
0001
0200
0000
,
1300
0100
0001
0010
,
0100
0000
1000
0000
0001
0100
0002
0000
,
0013
0100
0010
0001
,
2000
0000
0000
3000
,
1100
0011
0101
1010
,
0001
0100
0010
1000
0100
0010
0001
0000
,
1100
0101
1010
0011
,
1000
0100
1000
0010
0100
0001
1000
0000
,
0110
1001
0101
1001
,
0001
0010
0100
1000
0100
0010
0001
0000
,
1100
1010
1100
0101
,
0020
0000
0000
0000
0130
0010
0100
0010
0100
0000
0000
0000
0000
0000
0000
0000
,
1000
1100
0001
0101
,
0010
0100
0001
0000
0010
0100
1000
0000
,
0001
0011
0010
1010
,
1000
0000
1100
0000
0001
0100
1000
0100
,
0001
1100
1000
0011
,
1000
0010
1000
0000
0001
0100
0001
0000
,
1000
0110
0001
0110
,
1000
0100
0001
0100
1000
0010
0001
0010
,
0100
0000
0001
1000
0010
1000
0001
0000
,
1000
0100
0010
0002
0000
0100
0103
0000
,
0001
0000
1000
0010
0100
0001
1000
0000
,
0100
0010
0100
2000
0000
0010
3010
0000
,
0100
0000
0001
0000
0000
1000
0000
0000
0100
0000
0000
1000
0000
0000
0010
0000
,
0000
0001
0000
0000
0010
0000
0000
1000
0000
0000
0001
0000
0000
1000
0000
0000
,
0100
1000
0100
1000
0001
0100
0001
0100
,
0020
0000
0001
1030
,
0001
0000
0100
0000
0000
0001
0100
0000
,
0010
0000
1000
0000
0000
0010
1000
0000
,
0100
0000
0010
0000
0000
0100
0010
0000
,
0001
1000
0001
0200
0000
0000
0302
0000
,
0013
0000
0100
1000
0200
0000
0300
0000
,
0010
0000
0100
1000
0002
0000
0003
0000
,
0100
0000
0010
1000
0200
0000
0300
0000
,
0010
0100
1000
0000
0001
0010
0100
0000
,
0010
0001
1000
0001
0000
0100
0100
0000
,
0010
1000
0100
0010
0000
0001
0001
0000
,
1000
0001
0100
0010
0000
1000
1000
0000
,
0001
0010
0001
2000
0000
0000
3002
0000
,
0103
0000
0010
1000
0200
0000
0300
0000
,
0010
0000
0100
1000
0002
0000
0003
0000
,
1100
0101
0011
1010
,
1000
0010
0100
0010
1000
0001
0010
0100
,
2000
0000
0000
0000
,
0000
0000
0020
0000
,
0030
0000
0000
0000
,
0000
0000
0002
0000
,
0003
0000
0000
0000
,
0000
0000
0200
0000
,
0300
0000
0000
0000
,
3000
0000
0001
1000
,
0110
0000
1000
1001
0000
0000
0001
0000
,
0011
0000
0100
0110
0000
0000
0010
0000
,
1001
0000
0010
1010
0000
0000
0100
0000
,
0001
1000
0010
0000
0100
0001
1000
0100
,
0010
0000
0100
1100
0000
0000
0010
0000
,
0110
0000
0001
0101
0000
0000
1000
0000
,
0011
0000
0100
1100
0000
0000
0010
0000
,
1000
0100
0010
0001
0000
0000
0001
0010
0100
1000
0000
0000
,
0011
1100
0011
1100
,
0001
0100
1000
0100
0001
0100
0010
0000
,
0101
1010
0101
1010
,
0100
1000
0010
0100
0001
0010
0100
0000
,
1001
0110
1001
0110
,
1000
0001
0010
0001
1000
0100
0010
0000
,
0100
0100
1000
1000
0001
0001
0010
0010
,
0002
0000
0000
0000
1003
0001
1000
0001
2000
0000
0000
0000
3000
0000
0000
0000
,
0110
0000
0000
0000
;

//---------------dance-single - S-LIGHT----------------
#NOTEDATA:;
#CHARTNAME:DJ OMiY-LSP;
#STEPSTYPE:dance-single;
#DESCRIPTION:S-LIGHT;
#CHARTSTYLE:;
#DIFFICULTY:Easy;
#METER:6;
#RADARVALUES:0.376060,0.495311,0.225141,0.389668,0.000000,304.000000,278.000000,26.000000,45.000000,0.000000,0.000000,0.000000,0.000000,0.000000,0.376060,0.495311,0.225141,0.389668,0.000000,304.000000,278.000000,26.000000,45.000000,0.000000,0.000000,0.000000,0.000000,0.000000;
#CREDIT:DJ OMiY;
#NOTES:
0000
0000
0000
0000
,
0000
0000
0000
0000
,
0000
0000
0000
0000
,
0000
0000
0000
0000
,
0000
0000
0000
0000
,
0000
0000
0000
0000
,
0000
0000
0000
0000
,
0000
0000
0000
0000
,
0010
0001
1000
0001
,
0100
0010
1000
0100
,
1000
0001
0100
0010
,
1000
0001
0100
0001
,
1000
0100
0001
0100
,
1000
0001
0010
0100
,
2000
0100
0001
3100
,
2002
0000
3003
0000
,
0001
0100
0100
0100
,
0001
0100
0100
1001
,
1000
0100
0100
0100
,
1000
0100
0100
0110
,
0001
0010
0010
0010
,
0001
0010
0010
0110
,
1000
0010
0010
0010
,
0200
0000
0000
0300
,
0011
0001
0010
0001
,
1100
1000
0100
1000
,
0110
1000
0001
1000
,
0020
0100
0100
0130
,
1001
0001
0100
0001
,
0011
0100
0001
0100
,
1010
0100
0010
0100
,
0002
2003
0002
3003
,
0010
0000
1000
2000
0000
0000
3000
0000
,
0100
0000
0010
0020
0000
0000
0030
0000
,
1001
0000
0001
0002
0000
0000
0003
0000
,
0100
0000
0001
0000
1000
0001
1000
0000
,
0001
0000
0100
0200
0000
0000
0300
0000
,
0001
0000
0010
0020
0000
0000
0030
0000
,
1001
0000
1000
2000
0000
0000
3000
0000
,
0020
0230
0302
2003
,
3100
1000
0010
0001
,
0010
1000
0100
0001
,
0010
1000
0100
0010
,
0001
0010
0001
0200
,
0300
0010
0100
0001
,
0100
0010
1000
0001
,
0010
0100
0010
0000
0100
1000
0100
0000
,
2000
3002
0200
0303
,
0010
0000
1000
0000
0000
1000
0000
0000
,
0001
0000
0010
0000
0000
0010
0000
0000
,
0001
0000
0100
0000
0000
0100
0000
0000
,
0001
0000
1000
0001
0000
0000
0010
0000
,
0002
0003
0101
0000
,
2000
3000
1100
0000
,
0020
0030
0110
0000
,
2000
3002
2000
3003
,
0110
0000
1000
0100
0000
0000
1000
0000
,
0001
0000
0001
0100
0000
0000
0010
0000
,
1000
0000
0001
0010
0000
0000
0001
0000
,
1000
0000
1000
0020
0000
0000
0230
0000
,
0310
1000
1100
0000
,
0010
0001
0011
0000
,
0001
1000
0100
0010
,
1001
0110
1001
0110
,
0002
0000
0000
0000
,
0000
0000
2000
0000
,
3000
0000
0000
0000
,
0000
0000
0020
0000
,
0030
0000
0000
0000
,
0000
0000
0200
0000
,
0300
0000
0000
0000
,
0003
0000
0020
0030
,
0110
1000
0100
1000
,
0001
0100
0010
0100
,
0101
0010
1000
0010
,
0100
0000
0001
0000
1000
0010
1000
0000
,
0011
0100
1000
0100
,
1000
0010
0100
0010
,
1001
0100
0001
1000
,
0002
0023
0230
2300
,
3001
0100
0010
1000
,
0001
0100
0001
0100
0001
0100
0001
0000
,
1000
0010
0100
0001
,
1000
0100
1000
0100
1000
0100
1000
0000
,
0010
0100
0001
1000
,
0100
0010
0100
0010
0100
0010
0100
0000
,
2000
3002
0203
0320
,
2030
0000
0001
0002
,
3003
0000
0000
0000
;

//---------------dance-single - BEGINNER----------------
#NOTEDATA:;
#CHARTNAME:DJ OMiY-BEG;
#STEPSTYPE:dance-single;
#DESCRIPTION:BEGINNER;
#CHARTSTYLE:;
#DIFFICULTY:Beginner;
#METER:3;
#RADARVALUES:0.212771,0.342908,0.025978,0.199164,0.000000,172.000000,169.000000,3.000000,23.000000,0.000000,0.000000,0.000000,0.000000,0.000000,0.212771,0.342908,0.025978,0.199164,0.000000,172.000000,169.000000,3.000000,23.000000,0.000000,0.000000,0.000000,0.000000,0.000000;
#CREDIT:DJ OMiY;
#NOTES:
0000
0000
0000
0000
,
0000
0000
0000
0000
,
0000
0000
0000
0000
,
0000
0000
0000
0000
,
0000
0000
0000
0000
,
0000
0000
0000
0000
,
0000
0000
0000
0000
,
0000
0000
0000
0000
,
1000
0000
1000
0000
,
0001
0000
0001
0000
,
1000
0000
0001
0000
,
1000
0000
0001
0000
,
0100
0000
0001
0000
,
0010
0000
0100
0000
,
1000
1000
1000
1000
,
2000
0000
0000
3000
,
0001
0000
0100
0000
,
0001
0000
0010
0010
,
0010
0000
0100
0000
,
1000
0000
0001
0001
,
0001
0000
0100
0000
,
0001
0000
1000
1000
,
1000
0000
0010
0000
,
0200
0000
0000
0300
,
0010
0010
0010
0000
,
1000
1000
1000
0000
,
0100
0100
0100
0000
,
0001
0001
0001
0000
,
0010
0010
0010
0000
,
0100
0100
0100
0000
,
0001
0001
0001
0000
,
0200
0000
0000
0300
,
0010
0000
1000
0000
,
0010
0000
0100
0000
,
0001
0000
1000
0000
,
0100
0000
0010
0010
,
0010
0000
0001
0000
,
1000
0000
0001
0000
,
0100
0000
0010
0000
,
2000
3000
0002
0003
,
0100
0000
0010
0000
,
0100
0000
0001
0000
,
1000
0000
0100
0000
,
1000
1000
2000
3000
,
0001
0000
0100
0000
,
0010
0000
0100
0000
,
0001
0001
0001
0001
,
0002
0000
0000
0003
,
2000
0000
0000
3000
0000
0000
0000
0000
,
0020
0000
0000
0030
0000
0000
0000
0000
,
0200
0000
0000
0300
0000
0000
0000
0000
,
0002
0000
0000
0003
0000
0000
0000
0000
,
0020
0030
0010
0000
,
0200
0300
0100
0000
,
2000
3000
1000
0000
,
0002
0003
0001
0000
,
0100
0000
0010
0000
,
1000
0000
0001
0000
,
0010
0000
0001
0000
,
1000
0000
0010
0000
,
0100
0000
1001
0000
,
0100
0000
1001
0000
,
0010
0010
0010
0010
,
0100
0100
0100
0100
,
1000
0000
0000
0000
,
0000
0000
0020
0000
,
0030
0000
0000
0000
,
0000
0000
2000
0000
,
3000
0000
0000
0000
,
0000
0000
0002
0000
,
0003
0000
0000
0000
,
0000
0000
0020
0030
,
0010
0000
0001
0000
,
1000
0000
0100
0000
,
1000
0000
0010
0000
,
0100
0000
0001
0001
,
0001
0000
0010
0000
,
0001
0000
1000
0000
,
0010
0000
1000
0000
,
0100
0100
0100
0100
,
0200
0000
0000
0300
,
1000
0100
1000
0100
,
2000
0000
0000
3000
,
0001
0100
0001
0100
,
0002
0000
0000
0003
,
0010
0100
0010
0100
,
0010
0010
0010
0010
,
0020
0000
0000
0030
,
1001
0000
0000
0000
;
