#TITLE:Party;
#SUBTITLE:;
#ARTIST:Girls' Generation;
#TITLETRANSLIT:;
#SUBTITLETRANSLIT:;
#ARTISTTRANSLIT:;
#GENRE:Beach House;
#CREDIT:;
#BANNER:Party-bn.png;
#BACKGROUND:Party-bg.png;
#LYRICSPATH:;
#CDTITLE:;
#MUSIC:Party.OGG;
#OFFSET:0.000000;
#SAMPLESTART:62.164635;
#SAMPLELENGTH:15.609756;
#SELECTABLE:YES;
#BPMS:0.000000=123.000000
;
#STOPS:
;
#BGCHANGES:;
#KEYSOUNDS:;
#ATTACKS:;

//---------------dance-single - S-HEAVY----------------
#NOTES:
     dance-single:
     DJ OMiY-HSP:
     Hard:
     6:
     0.382713,0.405342,0.116478,0.209660,0.007765,345.000000,330.000000,15.000000,27.000000,0.000000,0.000000,0.382713,0.405342,0.116478,0.209660,0.007765,345.000000,330.000000,15.000000,27.000000,0.000000,0.000000:
// measure 0
0000
0000
0000
0000
,  // measure 1
0000
0000
0000
0000
,  // measure 2
0000
0000
0000
0000
,  // measure 3
0000
0000
0000
0000
,  // measure 4
0000
0000
0000
0000
,  // measure 5
0000
0000
0000
0000
,  // measure 6
0010
0000
0000
0000
0000
0000
1000
0000
0001
0000
0000
0001
0000
0000
0100
0000
,  // measure 7
0000
0000
0000
0000
0000
0000
0000
0000
0000
0000
0000
0001
1000
0000
0010
0000
,  // measure 8
0110
0100
0001
0000
1000
0100
0010
0100
,  // measure 9
0000
1000
0100
0000
1000
0000
0001
0100
,  // measure 10
0020
0000
1030
0100
0001
0100
0010
0000
,  // measure 11
0000
0002
0000
0010
0013
0001
1000
0010
,  // measure 12
0001
0010
1000
0000
0001
0010
0100
1000
,  // measure 13
0000
0010
0100
0000
0002
0000
1003
0100
,  // measure 14
1000
0010
1000
0010
1000
0100
0010
0001
,  // measure 15
0000
1000
0000
0010
0000
1000
0100
1000
,  // measure 16
0020
0000
0100
0000
0130
0010
1000
0001
,  // measure 17
0020
0000
0100
0000
0100
0000
0130
0010
,  // measure 18
0001
0001
0001
0001
0001
0000
0010
0100
,  // measure 19
1000
1000
1000
1000
1000
0001
0010
0000
,  // measure 20
0002
0000
0100
0000
0103
0001
1000
0100
,  // measure 21
2000
0000
0010
0000
3010
1000
0010
0100
,  // measure 22
0000
0100
0001
0000
1000
0000
0010
1000
,  // measure 23
0000
1000
0200
0000
0301
0100
1000
0000
,  // measure 24
0101
0000
1100
0000
0101
0000
1000
0010
,  // measure 25
1000
0001
0000
0100
0000
0010
0100
0000
,  // measure 26
0010
0000
1000
0010
0100
0001
0000
0001
,  // measure 27
0000
0100
0010
0100
0000
0010
0010
0000
,  // measure 28
1010
0000
0011
0000
1010
0000
0100
0001
,  // measure 29
0010
0100
0000
0100
0000
1000
0001
0020
,  // measure 30
0000
0031
0100
1000
0100
0001
0000
0200
,  // measure 31
0000
0310
1000
0010
0001
0010
0000
1000
,  // measure 32
0100
0001
0000
1000
0010
0001
0000
1000
,  // measure 33
0100
0010
0000
0001
0010
1000
0100
0001
,  // measure 34
1000
0100
0000
0001
0100
1000
0000
0001
,  // measure 35
0010
0100
0000
1000
0100
0001
0010
1000
,  // measure 36
0001
0100
0000
0010
0100
0001
0000
1000
,  // measure 37
0100
1000
0000
0010
1001
0100
0000
0020
,  // measure 38
0000
1030
0010
0100
0001
0010
0000
0200
,  // measure 39
0000
1300
0100
0001
0100
0010
0000
0001
,  // measure 40
1000
0000
0100
1000
0000
0010
0000
0100
,  // measure 41
0000
0001
0000
1000
0000
0020
0000
0230
,  // measure 42
0000
0301
0100
0010
0000
1000
0000
0001
,  // measure 43
0000
0010
0000
0100
0000
1000
0000
0020
,  // measure 44
0000
0130
0010
0100
0000
0000
0001
1000
,  // measure 45
0000
0100
0000
0020
0000
0030
0001
0200
,  // measure 46
0000
0300
0010
2000
0000
3000
0001
0020
,  // measure 47
0000
0030
0100
2000
0000
3020
0000
0002
,  // measure 48
0000
0000
0000
0000
0033
0001
0001
0000
,  // measure 49
0011
0000
1010
0000
1100
0000
0100
0010
,  // measure 50
0001
1000
0000
0001
0000
0010
0010
0000
,  // measure 51
0001
0000
0100
0010
1000
0001
0000
0100
,  // measure 52
0000
0010
1000
0010
0000
0100
0001
0000
,  // measure 53
1010
0000
0011
0000
0101
0000
0010
1000
,  // measure 54
0001
0100
0000
0100
0000
0010
0100
0020
,  // measure 55
0000
1030
0100
0001
0100
1000
0000
0002
,  // measure 56
0000
0013
1000
0010
0001
0100
0000
0010
,  // measure 57
1000
0001
0000
0010
0001
0100
0000
1000
,  // measure 58
0100
0001
0000
1000
0100
0001
0010
1000
,  // measure 59
0001
1000
0000
0010
1000
0001
0000
0010
,  // measure 60
0100
1000
0000
0001
0100
1000
0010
0001
,  // measure 61
1000
0001
0000
0010
0100
1000
0000
0010
,  // measure 62
0100
0010
0000
0100
1001
0010
0000
2000
,  // measure 63
0000
3010
0100
1000
0100
0001
0000
0020
,  // measure 64
0000
0031
0100
0010
1000
0000
0001
1000
,  // measure 65
0200
0300
0000
0000
;

//---------------dance-single - S-STANDARD----------------
#NOTES:
     dance-single:
     DJ OMiY-SSP:
     Medium:
     5:
     0.271781,0.354675,0.077652,0.209660,0.000000,245.000000,235.000000,10.000000,27.000000,0.000000,0.000000,0.271781,0.354675,0.077652,0.209660,0.000000,245.000000,235.000000,10.000000,27.000000,0.000000,0.000000:
// measure 0
0000
0000
0000
0000
,  // measure 1
0000
0000
0000
0000
,  // measure 2
0000
0000
0000
0000
,  // measure 3
0000
0000
0000
0000
,  // measure 4
0000
0000
0000
0000
,  // measure 5
0000
0000
0000
0000
,  // measure 6
0000
0000
0000
0000
,  // measure 7
0000
0000
0000
0000
0000
0000
0010
0100
,  // measure 8
0001
0001
0000
0000
0000
0010
0000
1000
,  // measure 9
0000
0001
0100
1000
,  // measure 10
0010
0000
0100
0000
0001
1000
0002
0000
,  // measure 11
0003
0000
0000
0000
0000
0010
0100
0000
,  // measure 12
1000
0001
0000
0000
0000
0100
0000
0001
,  // measure 13
0000
0010
0100
1000
,  // measure 14
0010
0001
0100
1000
,  // measure 15
0000
0001
0000
0100
0000
0001
0010
0000
,  // measure 16
0100
0000
1000
0000
0001
0100
0010
0000
,  // measure 17
1000
0200
0300
0010
,  // measure 18
0100
1000
0100
1000
0001
0000
0000
0000
,  // measure 19
0010
0001
0010
0001
1000
0000
0000
0000
,  // measure 20
0010
0000
0100
0000
0001
1000
0001
0000
,  // measure 21
0100
0000
0020
0000
0030
0000
1000
0100
,  // measure 22
0000
0100
1000
0000
0001
0000
0010
0001
,  // measure 23
0000
0001
0200
0000
1000
0000
0310
0000
,  // measure 24
1001
0010
1001
0010
,  // measure 25
1000
0100
0000
0001
0000
0100
1000
0000
,  // measure 26
0001
0000
0010
0000
0001
0100
0000
0200
,  // measure 27
0000
0000
0300
0000
0000
0010
0100
0000
,  // measure 28
1001
0010
1001
0010
,  // measure 29
1000
0100
0000
1000
0000
0001
0000
0020
,  // measure 30
0000
0000
0100
0000
0130
0010
0000
0020
,  // measure 31
0000
0001
0031
1000
,  // measure 32
0010
0010
0000
0000
0100
0100
0000
0000
,  // measure 33
0001
0001
0000
0000
1000
0100
1000
0000
,  // measure 34
0001
0001
0000
0000
1000
1000
0000
0000
,  // measure 35
0100
0100
0000
0000
0010
0100
1000
0000
,  // measure 36
0001
0001
0000
0000
0100
0100
0000
0000
,  // measure 37
0010
0010
0000
1000
0001
1000
0000
0200
,  // measure 38
0000
0000
1000
0000
1300
0100
0000
0200
,  // measure 39
0000
0010
0310
0001
,  // measure 40
2000
0000
0020
3000
,  // measure 41
0200
0030
0002
0300
,  // measure 42
0020
0003
0200
0030
,  // measure 43
2000
0300
0200
3000
,  // measure 44
0320
0001
0000
0001
,  // measure 45
0000
0000
0100
0000
0000
0000
0130
1000
,  // measure 46
0000
0000
0100
1000
0000
0000
0100
1000
,  // measure 47
0000
0000
0001
0200
0000
0320
0000
2000
,  // measure 48
0000
0000
0000
3030
0000
0001
0001
0000
,  // measure 49
0110
0000
1001
0000
0110
0000
1000
0001
,  // measure 50
1000
0100
0000
1000
0000
0010
0010
0000
,  // measure 51
0100
0000
0001
0001
0010
0001
0000
2000
,  // measure 52
0000
3000
0000
0000
0000
0010
0100
0000
,  // measure 53
0110
0000
1001
0000
0110
0000
0001
1000
,  // measure 54
0001
0010
0000
0001
0000
1000
1000
0020
,  // measure 55
0000
0000
0100
0000
0130
0010
0010
0020
,  // measure 56
0000
0000
1000
0000
1030
1000
0001
0000
,  // measure 57
0010
0010
0000
0000
0001
0001
0000
0000
,  // measure 58
0100
0100
0000
0000
0010
1000
0001
0000
,  // measure 59
0100
0100
0000
0000
0010
0010
0000
0000
,  // measure 60
1000
1000
0000
0000
0100
0010
0001
0000
,  // measure 61
1000
0001
0000
0000
0001
0100
0000
0000
,  // measure 62
0100
0010
0000
1000
0001
1000
0000
0002
,  // measure 63
0000
0000
0010
0000
0013
0001
0001
0002
,  // measure 64
0000
0000
1000
0000
1003
0001
0100
0001
,  // measure 65
0020
0030
0000
0000
;

//---------------dance-single - S-LIGHT----------------
#NOTES:
     dance-single:
     DJ OMiY-LSP:
     Easy:
     3:
     0.151976,0.202671,0.015530,0.139773,0.000000,137.000000,135.000000,2.000000,18.000000,0.000000,0.000000,0.151976,0.202671,0.015530,0.139773,0.000000,137.000000,135.000000,2.000000,18.000000,0.000000,0.000000:
0000
0000
0000
0000
,
0000
0000
0000
0000
,
0000
0000
0000
0000
,
0000
0000
0000
0000
,
0000
0000
0000
0000
,
0000
0000
0000
0000
,
0000
0000
0000
0000
,
0000
0000
0000
0010
,
2000
3000
0001
0000
,
0100
0001
0010
0000
,
0001
0001
1000
2000
,
0000
0000
3000
0100
,
0020
0030
0100
0000
,
1000
0100
0010
0000
,
0001
0100
0100
0020
,
0000
0000
0030
0000
,
1000
0000
0100
1000
,
0001
0000
0010
0001
,
0100
0100
0200
0300
,
0010
0010
0020
0030
,
1000
0001
0000
0010
,
0001
0100
0000
0010
,
1000
0000
0001
0000
,
0200
0000
0300
0000
,
0010
0010
0010
1000
,
0001
0000
0000
0010
,
0001
0100
0100
0000
,
0020
0000
0030
0010
,
0100
0100
0100
0001
,
1000
0000
0010
0000
,
0100
0000
0001
0000
,
0010
0010
0100
0000
,
1000
0000
1000
0000
,
0002
0000
0003
0000
,
0100
0000
0010
0000
,
0200
0000
0300
0000
,
0001
0000
1000
0000
,
0001
0000
1001
0000
,
0010
0000
0100
0000
,
0001
0010
0010
0000
,
0200
0000
0300
0000
,
2000
0000
3000
0000
,
0002
0000
0003
0000
,
0200
0000
0300
0000
,
0010
1000
0000
1000
,
0001
0100
0000
0100
,
0001
0000
0010
0000
,
0100
0000
2000
0000
,
0002
0000
0000
3003
,
0100
0100
0100
0001
,
0010
0000
0100
0000
,
1000
0100
0010
0000
,
0002
0000
0003
0001
,
1000
1000
1000
0100
,
0010
0000
0001
0000
,
0100
0000
0010
1000
,
0001
0000
0100
0000
,
0010
0000
1000
0000
,
0001
0000
0010
0001
,
1000
0000
0010
0000
,
0100
0000
0001
1000
,
0100
0000
0010
0000
,
0100
0000
1001
0000
,
0010
0000
0001
1000
,
0010
0000
1000
0000
,
0002
0003
0000
0000
;

//---------------dance-single - BEGINNER----------------
#NOTES:
     dance-single:
     DJ OMiY-BEG:
     Beginner:
     1:
     0.110931,0.201895,0.062121,0.194130,0.000000,100.000000,92.000000,8.000000,25.000000,0.000000,0.000000,0.110931,0.201895,0.062121,0.194130,0.000000,100.000000,92.000000,8.000000,25.000000,0.000000,0.000000:
0000
0000
0000
0000
,
0000
0000
0000
0000
,
0000
0000
0000
0000
,
0000
0000
0000
0000
,
0000
0000
0000
0000
,
0000
0000
0000
0000
,
0000
0000
0000
0000
,
0000
0000
0000
0000
,
0002
0000
0003
0000
,
1000
0000
0100
0000
,
1000
0000
0010
0020
,
0000
0000
0030
0000
,
0200
0000
0300
0000
,
0001
0000
1000
0000
,
0100
0000
0010
0020
,
0000
0000
0030
0000
,
0001
0000
0000
0000
,
1000
0000
0000
0000
,
0010
0010
0010
0000
,
0010
0010
0010
0000
,
1000
0000
0000
0000
,
0100
0000
0000
0000
,
0010
0000
0100
0000
,
1000
0000
0001
0000
,
0010
0010
0010
0000
,
0001
0000
1000
0000
,
0010
0000
2000
0000
,
3000
0000
0000
0000
,
0100
0100
0100
0000
,
0010
0000
0001
0000
,
2002
0000
3003
0000
,
0220
0000
0330
0000
,
0001
0000
0001
0000
,
2000
0000
3000
0000
,
0010
0000
0010
0000
,
0200
0000
0300
0000
,
0001
0000
1000
0000
,
0001
0000
1001
0000
,
0010
0010
0010
0000
,
0010
0010
0010
0000
,
0200
0000
0000
0000
,
0300
0000
0000
0000
,
0020
0000
0000
0000
,
0030
0000
0000
0000
,
1000
0000
0000
0000
,
0001
0000
0000
0000
,
1000
0000
0001
0000
,
1000
0000
0010
0000
,
0200
0000
0300
0000
,
0001
0001
0001
0000
,
0010
0000
0001
0000
,
1000
0000
0020
0000
,
0030
0000
0000
0000
,
1000
1000
1000
0000
,
0010
0000
0100
0000
,
2002
0000
3003
0000
,
0220
0000
0330
0000
,
0001
0000
0001
0000
,
2000
0000
3000
0000
,
0010
0000
0010
0000
,
0200
0000
0300
0000
,
0001
0000
0010
0000
,
1000
0000
1001
0000
,
0220
0000
0330
0000
,
2002
0000
3003
0000
,
0010
0000
0000
0000
;
