#VERSION:0.83;
#TITLE:On the FM;
#SUBTITLE:;
#ARTIST:C-Show;
#TITLETRANSLIT:;
#SUBTITLETRANSLIT:;
#ARTISTTRANSLIT:;
#GENRE:Radio Showcase;
#ORIGIN:;
#CREDIT:;
#BANNER:On the FM-bn.png;
#BACKGROUND:On the FM-bg.png;
#PREVIEWVID:;
#JACKET:On the FM-jk.png;
#CDIMAGE:;
#DISCIMAGE:;
#LYRICSPATH:;
#CDTITLE:;
#MUSIC:On the FM.ogg;
#OFFSET:-1.120003;
#SAMPLESTART:20.293036;
#SAMPLELENGTH:19.199999;
#SELECTABLE:YES;
#BPMS:0.000=200.000;
#STOPS:;
#DELAYS:;
#WARPS:;
#TIMESIGNATURES:0.000=4=4;
#TICKCOUNTS:0.000=4;
#COMBOS:0.000=1;
#SPEEDS:0.000=1.000=0.000=0;
#SCROLLS:0.000=1.000;
#FAKES:;
#LABELS:0.000=Song Start;
#BGCHANGES:;
#KEYSOUNDS:;
#ATTACKS:
;

//---------------dance-single - S-HEAVY----------------
#NOTEDATA:;
#CHARTNAME:DJ OMiY-HSP;
#STEPSTYPE:dance-single;
#DESCRIPTION:S-HEAVY;
#CHARTSTYLE:;
#DIFFICULTY:Hard;
#METER:9;
#RADARVALUES:0.596971,0.641709,0.297799,0.288193,0.235357,435.000000,404.000000,31.000000,30.000000,0.000000,0.000000,0.000000,0.000000,0.000000,0.596971,0.641709,0.297799,0.288193,0.235357,435.000000,404.000000,31.000000,30.000000,0.000000,0.000000,0.000000,0.000000,0.000000;
#CREDIT:DJ OMiY;
#NOTES:
// measure 0
0000
0000
0000
0000
,  // measure 1
0000
0000
0000
0000
,  // measure 2
0000
0000
0000
0000
,  // measure 3
0000
0000
0000
0000
,  // measure 4
1010
0101
1100
0011
,  // measure 5
0200
0000
0000
0000
,  // measure 6
0310
0000
0010
0000
0000
1000
0000
0001
,  // measure 7
0000
1000
0000
0001
0000
0000
0100
0000
,  // measure 8
0010
0000
1000
0100
0000
1000
0000
0001
,  // measure 9
0000
0100
0000
0001
0000
0000
0100
0000
,  // measure 10
1010
0000
0000
0101
0000
0000
0011
0000
,  // measure 11
0000
1100
0000
0000
1001
0000
0110
0000
,  // measure 12
0002
0000
0000
0000
,  // measure 13
0000
0000
0000
0000
,  // measure 14
0013
0010
0010
0010
,  // measure 15
0001
0010
0001
0010
0100
1000
0010
0000
,  // measure 16
0001
0100
0010
0100
0000
0001
0100
0001
,  // measure 17
0000
1000
0100
2000
0001
0000
3010
0000
,  // measure 18
0100
0010
0100
0010
0000
1000
0100
2000
,  // measure 19
0000
0010
0000
3001
1000
0100
0010
0000
,  // measure 20
0001
1000
0001
1000
0000
0001
0100
0001
,  // measure 21
0000
0100
0010
0200
0001
0000
1300
0000
,  // measure 22
0001
0010
0001
0010
0000
0001
0000
0100
,  // measure 23
0000
0000
0000
0001
0100
0000
0000
1000
0100
0000
0000
0001
1000
0000
0000
0000
,  // measure 24
0100
0000
1000
0010
1000
0001
1000
0100
,  // measure 25
1000
0010
1000
0001
2000
0000
0100
0000
,  // measure 26
3001
0000
0001
0100
0001
1000
0001
0010
,  // measure 27
0001
1000
0100
0000
1100
0000
1100
0000
,  // measure 28
0010
0000
0001
1000
0001
0010
0001
0100
,  // measure 29
0001
0010
0001
1000
0002
0000
0010
0000
,  // measure 30
1003
0000
1000
0001
1000
0100
1000
0010
,  // measure 31
0000
0000
0000
0100
0001
0000
0000
1000
0100
0000
0000
0001
0100
0000
0000
0000
,  // measure 32
0200
0000
0000
0000
,  // measure 33
0300
0000
1000
0000
0010
0000
0100
0001
,  // measure 34
0010
0000
1001
0000
0010
0001
0000
0010
,  // measure 35
0010
0001
1000
0100
1000
0000
0001
0000
,  // measure 36
1000
0000
0100
0000
1000
0010
0000
0010
,  // measure 37
0100
0001
0010
1000
0010
0000
0002
0000
,  // measure 38
1003
0000
0010
0000
0100
0010
0000
0100
,  // measure 39
0010
0100
1000
0100
0001
0000
1000
0000
,  // measure 40
0001
1000
0100
0010
0001
0010
0100
1000
,  // measure 41
0010
0100
0001
0000
1000
0000
0001
0000
,  // measure 42
0100
0010
0000
0100
0001
0000
0100
0010
,  // measure 43
0000
0100
0001
0000
1100
0000
0101
0000
,  // measure 44
0001
1000
0000
0001
0010
0000
0001
0100
,  // measure 45
0000
0001
0010
0000
1010
0000
0101
0000
,  // measure 46
2000
3200
0320
0032
,  // measure 47
1003
0000
0000
1001
0000
0000
0010
0001
0010
0100
0010
0100
,  // measure 48
2000
0000
0000
3002
0000
0000
0203
0000
,  // measure 49
0310
0000
0000
0000
0000
0000
0000
0000
1000
0100
0000
0010
,  // measure 50
0002
0000
0000
0203
0000
0000
0320
0000
0000
1030
0000
0010
,  // measure 51
0100
0010
1000
0001
,  // measure 52
0010
0000
0001
0010
0000
0010
0100
0000
1000
0000
0000
0010
,  // measure 53
0100
0101
1100
0010
,  // measure 54
1000
0000
1000
0100
0000
0100
0010
0000
0000
0001
0000
0100
,  // measure 55
0000
0000
0100
0001
0000
0000
1000
0000
0000
0001
0000
0000
,  // measure 56
0010
0000
0100
0010
0000
0010
0100
0000
1000
0000
0000
0001
,  // measure 57
1000
1100
0101
0000
,  // measure 58
0001
0000
0010
0001
0000
0001
0010
0000
0010
0100
0000
0100
,  // measure 59
1000
0000
1000
0010
0000
0010
0100
0000
0000
0001
0000
0000
,  // measure 60
1000
0000
1000
0100
0000
0100
1000
0000
1000
0010
0000
0010
,  // measure 61
0100
1001
2000
3100
,  // measure 62
0010
0000
0010
0001
0000
0001
1000
0000
1000
0010
0000
0010
,  // measure 63
0001
0000
0001
0010
0000
0010
1000
0000
0000
0100
0000
0000
,  // measure 64
0010
0000
0010
0001
0000
0001
0100
0000
0010
0000
0000
1000
,  // measure 65
0000
1100
0101
1000
,  // measure 66
0001
0001
0000
0010
0010
0000
0100
0100
,  // measure 67
0000
1000
1000
0000
1002
0000
0013
0000
,  // measure 68
1000
1000
0000
0100
0100
0000
0010
0010
,  // measure 69
0000
0001
0001
0000
2100
0000
3010
0000
,  // measure 70
0002
0023
0230
2300
,  // measure 71
3001
0000
0000
1001
0000
0000
0100
1000
0100
0010
0100
0010
,  // measure 72
0002
0000
0000
2003
0000
0000
3020
0000
,  // measure 73
0130
0000
0000
0000
,  // measure 74
1000
0000
0001
0000
0010
0001
0000
1000
,  // measure 75
0001
0010
0100
0010
0001
0000
0100
0000
,  // measure 76
1000
0000
0100
0000
0001
1000
0000
0001
,  // measure 77
0010
0001
0100
0001
0010
0000
1000
0000
,  // measure 78
0010
0000
0001
0000
0100
0010
0000
1000
,  // measure 79
0100
1000
0010
0100
0001
0000
1000
0000
,  // measure 80
0010
0000
0100
0000
1000
0100
0001
0100
,  // measure 81
0001
0100
0010
0000
1000
0000
0001
0000
,  // measure 82
1100
0000
0000
0101
0000
0000
1100
0000
,  // measure 83
0020
0100
0031
0000
;

//---------------dance-single - S-STANDARD----------------
#NOTEDATA:;
#CHARTNAME:DJ OMiY-SSP;
#STEPSTYPE:dance-single;
#DESCRIPTION:S-STANDARD;
#CHARTSTYLE:;
#DIFFICULTY:Medium;
#METER:7;
#RADARVALUES:0.428172,0.481282,0.144096,0.317012,0.052835,312.000000,297.000000,15.000000,33.000000,0.000000,0.000000,0.000000,0.000000,0.000000,0.428172,0.481282,0.144096,0.317012,0.052835,312.000000,297.000000,15.000000,33.000000,0.000000,0.000000,0.000000,0.000000,0.000000;
#CREDIT:DJ OMiY;
#NOTES:
0000
0000
0000
0000
,
0000
0000
0000
0000
,
0000
0000
0000
0000
,
0000
0000
0000
0000
,
2000
3200
0302
0023
,
2030
0000
0000
0000
,
3000
0000
0000
0000
0000
0001
0000
0100
,
0000
0001
0000
0100
0000
0000
0010
0000
,
0110
0000
0000
0000
0000
1000
0000
0100
,
0000
1000
0000
0100
0000
0000
0000
0000
,
1000
0000
0000
1001
0000
0000
0010
0000
,
0000
0110
0000
0000
0001
0000
1001
0000
,
0200
0000
0000
0000
,
0000
0000
0000
0000
,
0010
0010
0010
0010
,
1000
0010
0301
0101
,
1000
0100
0000
0100
0000
0010
0000
0010
,
0000
0001
0010
0100
0000
0000
1000
0000
,
0001
0100
0000
0100
0000
0010
0000
0010
,
0000
0100
0000
0100
0001
0100
0001
0000
,
1000
0001
0000
0001
0000
1000
0000
1000
,
0000
0001
0100
0001
0000
0000
0010
0000
,
0100
0010
0000
0010
0000
0001
0000
0002
,
0000
0100
0010
0103
,
1000
0100
0000
0001
0000
0100
0000
1000
,
0000
0100
0000
0001
0100
0000
1000
0000
,
0001
0100
0000
1000
0000
0100
0000
0001
,
0000
0100
0000
1000
0100
0000
0001
0000
,
1000
0010
0000
0001
0000
0010
0000
1000
,
0000
0010
0000
0001
0010
0000
1000
0000
,
0001
0010
0000
1000
0000
0010
0000
0001
,
0000
2000
3002
0203
,
0310
0000
0000
0000
,
0000
0100
0110
1001
,
0100
0000
0001
0000
1000
0100
0000
1000
,
0000
0100
0000
1000
0000
0000
0010
0000
,
0100
0000
0001
0000
0000
0010
0000
0100
,
0000
0010
0001
0000
0002
0000
2000
0000
,
3003
0000
0010
0000
1000
0010
0000
0001
,
0000
0010
0000
1000
0001
0000
0010
0000
,
0100
0000
1000
0000
1000
0000
1000
0100
,
1000
0100
1000
0000
0002
0000
0003
0000
,
0100
0000
0000
0110
0000
0000
0100
0000
,
0000
1001
0000
0000
0010
0000
1000
0000
,
0001
0000
0000
1001
0000
0000
1000
0000
,
0000
0110
0000
0000
1000
0000
0100
0000
,
1000
1000
0001
0001
,
1000
0010
0100
0001
,
0020
0000
0000
0230
0000
0000
2300
0000
,
3001
0000
0000
1000
,
0001
0001
0010
0001
,
0100
0000
0000
0100
0000
0000
0010
0000
0100
0010
0000
0000
,
1000
0001
0010
0000
,
0100
0000
1000
0100
0000
0100
1000
0000
0000
0000
0000
0000
,
0001
0000
0000
0100
0000
0000
0010
0000
0000
0100
0000
0001
,
0000
1000
0010
1000
,
0100
0000
0000
0010
0000
0000
0001
0000
1000
0000
0000
0100
,
1000
0010
0100
0000
,
0010
1000
0100
0010
,
0001
0000
0000
1000
0000
0000
0001
0100
0001
0100
0000
0000
,
0010
0100
0001
0100
,
0010
0010
0010
0000
,
1000
0100
0010
0001
,
1000
0000
0000
0001
0000
0000
1000
0100
1000
0100
0000
0000
,
1000
0000
0000
0010
0000
0000
0100
0000
0000
0000
0000
0001
,
0000
0010
0100
1000
,
0002
0000
0000
0203
0000
0000
2300
0000
,
0000
3200
0000
0000
0301
0000
1001
0000
,
2000
0000
0000
3200
0000
0000
0302
0000
,
0000
0203
0000
0000
1300
0000
1001
0000
,
0010
0010
0010
0010
,
1000
0001
0011
1010
,
0200
0000
0000
0320
0000
0000
2030
0000
,
3001
0000
0000
0000
,
0001
0000
0010
0000
0001
0100
0000
0010
,
0000
1000
0000
0100
1000
0000
0100
0000
,
0010
0000
0100
0000
1000
0001
0000
0100
,
0000
0010
1000
0010
2000
0000
0002
0000
,
3003
0000
0010
0000
0001
0100
0000
0010
,
0000
1000
0000
0100
0001
0000
0100
0000
,
1000
0000
0001
0000
0001
0000
0001
0010
,
0001
0010
0001
0000
0100
0000
0010
0000
,
2000
0000
0000
3200
0000
0000
0320
0000
,
0032
1000
0103
0000
;

//---------------dance-single - S-LIGHT----------------
#NOTEDATA:;
#CHARTNAME:DJ OMiY-LSP;
#STEPSTYPE:dance-single;
#DESCRIPTION:S-LIGHT;
#CHARTSTYLE:;
#DIFFICULTY:Easy;
#METER:3;
#RADARVALUES:0.256629,0.320855,0.000000,0.163309,0.000000,187.000000,187.000000,0.000000,17.000000,0.000000,0.000000,0.000000,0.000000,0.000000,0.256629,0.320855,0.000000,0.163309,0.000000,187.000000,187.000000,0.000000,17.000000,0.000000,0.000000,0.000000,0.000000,0.000000;
#CREDIT:DJ OMiY;
#NOTES:
0000
0000
0000
0000
,
0000
0000
0000
0000
,
0000
0000
0000
0000
,
0000
0000
0000
0000
,
0010
0100
0001
1000
,
0020
0000
0030
0000
,
1000
0001
0000
0000
,
0000
0000
0000
0010
,
0100
0010
0000
0000
,
0000
0000
0000
0000
,
2000
0000
0000
3000
0000
0000
0002
0000
,
0000
0003
0000
0000
0100
0000
0010
0000
,
0000
0000
1000
0000
,
1000
0000
0000
0000
,
0010
0010
0010
0010
,
0100
0010
0200
0300
,
0001
0000
0001
0001
,
1000
1000
0100
0000
,
1000
0000
0010
0010
,
0100
0010
2000
3000
,
0001
0000
1000
1000
,
0100
0100
0010
0000
,
0100
0000
1000
0001
,
0100
0100
0100
0000
,
0010
0000
1000
0010
,
1000
0010
1000
0000
,
0001
0000
0010
0001
,
0010
0001
0010
0000
,
0100
0000
1000
0001
,
0010
0001
1000
0000
,
0010
0000
0100
0001
,
1000
1000
1000
0000
,
0002
0000
0000
0000
,
0003
0000
0100
0000
,
0000
0010
0000
1000
,
0000
0010
0010
0000
,
0000
1000
0000
0100
,
0000
0010
0010
0000
,
0000
0001
0000
1000
,
0000
0001
0001
0000
,
0000
0100
0000
0010
,
0000
0100
0100
0100
,
0200
0000
0000
0300
0000
0000
0020
0000
,
0000
0030
0000
0000
1000
0000
0000
0000
,
0002
0000
0000
0003
0000
0000
2000
0000
,
0000
3000
0000
0000
0010
0000
0000
0000
,
1000
0000
0001
0000
,
1000
1000
0010
0010
,
2000
0000
0000
3000
0000
0000
1000
0000
,
0001
0000
0000
0010
,
0010
0000
0100
0000
,
0010
0000
0001
0000
,
1000
1000
0001
0000
,
1000
1000
0100
0000
,
1000
0000
0010
0000
,
0100
0000
0001
0000
,
0010
0010
0100
0000
,
0010
0010
0001
0000
,
1000
0001
1000
0000
,
0010
0100
0010
0000
,
1000
0000
0001
0000
,
0010
0001
1000
0000
,
0100
1000
1000
0000
,
0010
0100
0010
0000
,
1000
0000
0100
0000
,
0010
0010
0100
0000
,
2000
0000
0000
3000
0000
0000
0002
0000
,
0000
0003
0000
0000
0100
0000
0000
0000
,
0020
0000
0000
0030
0000
0000
0200
0000
,
0000
0300
0000
0000
0001
0000
1000
0000
,
0010
0000
0100
0000
,
0001
0001
1000
1000
,
0020
0000
0000
0030
0000
0000
0010
0000
,
0100
0000
0000
0000
,
0010
0010
0000
1000
,
0000
0100
0100
0000
,
0000
1000
0000
0001
,
0000
0010
0010
0000
,
0000
0001
0000
1000
,
0000
0001
0001
0000
,
0000
0100
0000
0010
,
0000
1000
1000
1000
,
2000
0000
0000
3000
0000
0000
0001
0000
,
0010
0010
0010
0000
;

//---------------dance-single - BEGINNER----------------
#NOTEDATA:;
#CHARTNAME:DJ OMiY-BEG;
#STEPSTYPE:dance-single;
#DESCRIPTION:BEGINNER;
#CHARTSTYLE:;
#DIFFICULTY:Beginner;
#METER:2;
#RADARVALUES:0.172916,0.240641,0.009606,0.124884,0.000000,126.000000,125.000000,1.000000,13.000000,0.000000,0.000000,0.000000,0.000000,0.000000,0.172916,0.240641,0.009606,0.124884,0.000000,126.000000,125.000000,1.000000,13.000000,0.000000,0.000000,0.000000,0.000000,0.000000;
#CREDIT:DJ OMiY;
#NOTES:
0000
0000
0000
0000
,
0000
0000
0000
0000
,
0000
0000
0000
0000
,
0000
0000
0000
0000
,
0010
0010
0010
0010
,
0020
0000
0000
0000
,
0030
0000
0000
0000
,
0000
0000
0000
0100
,
0100
0100
0000
0000
,
0000
0000
0000
0000
,
0001
0000
0000
1000
,
0000
0000
0010
0010
,
0000
0000
0000
0000
,
0000
0000
0000
0000
,
0200
0000
0300
0000
,
0010
0000
0000
1000
,
1000
0000
0000
0000
,
0001
0000
0000
0000
,
1000
0000
0000
0000
,
0001
0000
0010
0000
,
0100
0000
0000
0000
,
0010
0000
0000
0000
,
0001
0000
0000
0000
,
1000
0000
0000
0000
,
0010
0000
0100
0000
,
0001
0000
0100
0000
,
0010
0000
0100
0000
,
0002
0000
0003
0000
,
1000
0000
0100
0000
,
1000
0000
0010
0000
,
1000
0000
0100
0000
,
2000
0000
3000
0000
,
0200
0000
0000
0000
,
0000
0300
0000
0000
,
0000
0010
0000
0010
,
0000
0010
0000
0000
,
0000
0100
0000
0100
,
0000
0100
0000
0000
,
0000
1000
0000
0001
,
0000
1000
0000
0000
,
0000
0001
0000
0010
,
0010
0010
0010
0000
,
0100
0000
0000
0100
,
0000
0000
1000
0000
,
0001
0000
0000
0001
,
0000
0000
0100
0000
,
0010
0000
1000
0000
,
0001
0000
0010
0000
,
2002
0000
0000
3003
0000
0000
0000
0000
,
0100
0000
0000
0000
,
0010
0000
0010
0000
,
1000
0000
1000
0000
,
0002
0000
0003
0000
,
0020
0000
0030
0000
,
0001
0000
0001
0000
,
1000
0000
1000
0000
,
0200
0000
0300
0000
,
2000
0000
3000
0000
,
0010
0000
1000
0000
,
0010
0000
1000
0000
,
0001
0000
0010
0000
,
0001
0000
0010
0000
,
0100
0000
1000
0000
,
0100
0000
1000
0000
,
0010
0000
0100
0000
,
0020
0000
0030
0000
,
1000
0000
0000
1000
,
0000
0000
0100
0100
,
0100
0000
0000
0100
,
0000
0000
0010
0010
,
0010
0000
0001
0000
,
0010
0000
0001
0000
,
0200
0000
0000
0300
0000
0000
0010
0000
,
0010
0000
0000
0000
,
0000
1000
0000
0001
,
0000
1000
0000
0000
,
0000
0010
0000
0100
,
0000
0010
0000
0000
,
0000
1000
0000
0001
,
0000
1000
0000
0000
,
0000
0001
0000
0010
,
0000
0001
0001
0000
,
1000
0000
0000
0100
,
0100
0100
0100
0000
;
