#TITLE:Little Flipper;
#SUBTITLE:;
#ARTIST:S-C-U;
#TITLETRANSLIT:;
#SUBTITLETRANSLIT:;
#ARTISTTRANSLIT:;
#GENRE:Chipper Electro;
#CREDIT:;
#BANNER:Little Flipper-bn.png;
#BACKGROUND:Little Flipper-bg.png;
#LYRICSPATH:;
#CDTITLE:;
#MUSIC:Little Flipper.ogg;
#OFFSET:-0.559000;
#SAMPLESTART:11.267273;
#SAMPLELENGTH:23.272728;
#LASTBEATHINT:271.947754;
#SELECTABLE:YES;
#BPMS:0.000000=165.000000
;
#STOPS:
;
#BGCHANGES:;
#KEYSOUNDS:;
#ATTACKS:;

//---------------dance-single - ----------------
#NOTES:
     dance-single:
     :
     Hard:
     7:
     0.464357,0.448731,0.123919,0.152516,0.133452,312.000000,13.000000,16.000000,0.000000,0.000000,0.000000,0.464357,0.448731,0.123919,0.152516,0.133452,312.000000,13.000000,16.000000,0.000000,0.000000,0.000000:
// measure 0
0000
0000
0000
0000
,  // measure 1
0000
0000
0000
0000
,  // measure 2
0000
0000
0000
0000
,  // measure 3
0000
0000
0000
0000
,  // measure 4
1000
0100
1000
0001
,  // measure 5
0100
0001
1000
0100
,  // measure 6
0010
0000
0000
0100
0000
0000
1000
0000
0000
0001
0000
0000
0100
0000
0000
0000
,  // measure 7
1001
0000
0010
0010
,  // measure 8
1200
0000
0301
0100
1000
0000
0001
0000
,  // measure 9
0201
0000
1300
0100
0001
0000
1000
0000
,  // measure 10
0010
0000
0000
0100
0000
0000
0000
0000
0010
0000
0000
0000
1000
0000
0000
0000
,  // measure 11
0001
0000
1000
0100
0010
0000
0001
0000
,  // measure 12
0100
0000
0000
0100
0000
0000
0000
0000
0001
0000
0000
0000
1000
0000
0000
0000
,  // measure 13
0001
0000
0000
0001
0000
0000
0000
0000
0010
0000
0001
0000
0100
0000
0000
0000
,  // measure 14
0010
0000
0000
1000
0000
0000
0100
0000
0100
0000
0000
0000
0010
0000
0000
0000
,  // measure 15
0220
0000
0330
1000
0001
0100
0001
1000
,  // measure 16
0100
0000
0000
0100
0000
0000
0000
0000
1000
0000
0010
0000
0100
0000
0000
0000
,  // measure 17
0010
0000
0000
0010
0000
0000
0000
0000
1000
0000
0001
0000
0010
0000
0000
0000
,  // measure 18
0001
0000
0000
0100
0000
0000
0000
0000
0010
0000
0000
0000
1000
0000
0000
0000
,  // measure 19
0001
0000
0010
0000
0100
0010
0001
0000
,  // measure 20
1000
0000
0000
1000
0000
0000
0000
0000
0010
0000
1000
0000
0001
0000
0000
0000
,  // measure 21
0010
0000
0000
0010
0000
0000
0000
0000
0100
0000
1000
0000
0010
0000
0000
0000
,  // measure 22
0100
0000
0000
0001
0000
0000
1000
0000
2000
0000
0000
0000
3000
0000
0000
0000
,  // measure 23
0010
0000
0000
1000
0000
0000
0001
0000
0002
0000
0000
0000
0003
0000
0000
0000
,  // measure 24
0010
0000
0100
0000
1000
0001
0100
0001
,  // measure 25
0001
0000
1000
0000
0010
1000
0100
1000
,  // measure 26
1000
0010
0001
0100
,  // measure 27
1000
0000
0000
0001
0000
0000
0001
0000
0100
0000
0010
0000
0100
0000
0001
0000
,  // measure 28
1000
0100
0001
0100
,  // measure 29
1000
0010
0001
0010
,  // measure 30
1000
0000
0000
0001
0000
0000
0010
0000
0200
0000
0000
0000
0300
0000
0000
0000
,  // measure 31
0010
0001
0100
0001
1000
0010
0100
0001
,  // measure 32
0100
0000
0000
0010
0000
0000
0100
0000
0010
0000
0000
0000
1000
0000
0000
0000
,  // measure 33
0001
0010
0100
1000
0001
0000
0100
0000
,  // measure 34
0010
0000
0000
1000
0000
0000
0100
0000
0000
0000
0000
0000
0110
0000
0000
0000
,  // measure 35
0022
0000
0033
0000
1000
0100
0010
0100
,  // measure 36
1000
0000
0010
0000
0100
0000
0001
0010
,  // measure 37
0100
0000
0010
0000
0001
0000
1000
0001
,  // measure 38
0100
0000
0010
2000
0100
0000
3001
0000
,  // measure 39
0001
0000
1000
0002
0010
0000
1003
0000
,  // measure 40
0001
0010
1000
0000
1000
0010
0001
0000
,  // measure 41
2002
0000
0000
3003
,  // measure 42
0010
0000
0100
0000
0001
1000
0010
0000
,  // measure 43
0100
0001
0010
0000
0100
1000
0001
0000
,  // measure 44
0100
0010
1000
0100
,  // measure 45
0010
0100
1000
0001
0100
0000
0001
0000
,  // measure 46
0010
0001
0100
0000
1000
0100
0001
0000
,  // measure 47
1000
0100
0010
0000
0100
1000
0001
0000
,  // measure 48
0100
0200
0000
0010
0000
0001
0000
0310
,  // measure 49
0100
1001
0110
1001
,  // measure 50
1000
0100
1000
0000
0001
0100
0001
0000
,  // measure 51
0010
0000
0001
0000
1000
0000
0000
1000
0000
0000
0000
0000
0010
0000
0000
0000
,  // measure 52
0100
0001
0001
0000
0010
0001
1000
0000
,  // measure 53
0100
0000
0010
0000
0001
0000
0000
0001
0000
0000
0000
0000
1000
0000
0000
0000
,  // measure 54
0100
0010
0100
0000
1000
0001
1000
0000
,  // measure 55
0010
0100
0010
0000
1000
0001
1000
0000
,  // measure 56
0001
0000
0000
0100
0000
0000
0001
0000
1000
0000
0000
0100
0000
0000
1000
0000
,  // measure 57
0010
0000
1001
0000
1000
0100
0010
0001
,  // measure 58
1000
0001
0100
0010
,  // measure 59
1000
0000
0001
0000
0100
0002
0000
0013
,  // measure 60
0100
1000
0010
0100
,  // measure 61
0001
0000
1000
0000
0001
0100
1000
0100
,  // measure 62
0001
0000
0000
0001
0000
0000
0100
0000
0010
0000
0000
0000
0000
0000
0000
0000
,  // measure 63
1000
0000
0001
0100
,  // measure 64
0010
0000
0000
1000
0000
0000
0010
0000
0000
0100
0000
0000
0001
0000
0000
0000
,  // measure 65
0010
0000
0000
0001
0000
0000
0010
0000
0000
0100
0000
0000
1000
0000
0000
0000
,  // measure 66
0001
0000
0000
0011
0000
0000
0001
0000
0000
1010
0000
0000
0010
0000
0200
0000
,  // measure 67
0000
0300
0000
0000
;

//---------------dance-single - ----------------
#NOTES:
     dance-single:
     :
     Challenge:
     10:
     0.761218,0.769253,0.285968,0.152516,0.638661,513.000000,30.000000,16.000000,0.000000,0.000000,0.000000,0.761218,0.769253,0.285968,0.152516,0.638661,513.000000,30.000000,16.000000,0.000000,0.000000,0.000000:
// measure 0
0000
0000
0000
0000
,  // measure 1
0000
0000
0000
0000
,  // measure 2
0000
0000
0000
0000
,  // measure 3
0000
0000
0000
0000
,  // measure 4
0010
0000
0000
0001
1000
0000
0001
0000
0100
0000
0000
0000
0010
0000
0000
0000
,  // measure 5
1000
0000
0100
0000
0010
0000
0001
1000
,  // measure 6
1010
0000
0000
0110
0000
0000
0101
0000
0000
1001
0000
0000
0011
0000
0000
0000
,  // measure 7
2001
0000
0000
0000
0000
0000
3100
1000
0001
0000
0100
0000
0001
0000
0010
0000
,  // measure 8
0100
0000
0000
0100
1000
0000
0010
0100
0010
0000
1000
0000
0001
0000
0100
0000
,  // measure 9
0001
0000
0000
0001
0100
0000
0010
1000
0010
0000
0100
0000
0001
0000
1000
0000
,  // measure 10
0100
0000
0000
0100
0010
0000
0001
0000
1000
0000
0001
0000
0100
0000
0001
0000
,  // measure 11
1000
0000
0010
0000
0100
0000
0001
1000
0010
0000
1000
0000
0100
0000
0010
0000
,  // measure 12
0001
0000
0000
0001
1000
0000
0100
1000
0001
0000
0100
0000
0010
0000
0100
0000
,  // measure 13
0010
0000
0000
0010
1000
0000
0001
1000
0010
0000
0100
0000
0001
0000
1000
0000
,  // measure 14
0100
0000
0000
0100
0000
0000
0010
0000
0012
0000
0000
0000
1003
0000
0000
0000
,  // measure 15
0020
0000
0000
0000
0130
0000
0001
0100
0001
1000
0010
1000
0001
0000
0100
0000
,  // measure 16
0010
0000
0000
0010
1000
0000
0001
0100
0001
0000
0010
0000
0001
0000
1000
0000
,  // measure 17
0100
0000
0000
0100
0010
0000
0100
1000
0100
0000
1000
0000
0001
0000
0100
0000
,  // measure 18
0010
0000
0000
0010
1000
0000
0001
0000
0100
0000
0010
0000
1000
0000
0100
0000
,  // measure 19
0001
0000
0100
0000
1000
0000
0001
0010
0001
0000
1000
0000
0010
0000
0100
0000
,  // measure 20
0010
0000
0000
0010
1000
0000
0100
0010
0001
0000
0010
0000
0001
0000
1000
0000
,  // measure 21
0001
0000
0000
0001
0100
0000
0010
1000
0010
0000
0100
0000
0001
0000
1000
0000
,  // measure 22
0100
0000
0000
0010
0000
0000
0100
0000
2100
0000
0000
0000
3001
0000
0100
0000
,  // measure 23
0001
1000
0000
1000
0001
0000
0100
0010
1000
0000
0001
0000
0010
0001
1000
0001
,  // measure 24
0010
0000
0010
0100
0000
1000
0100
0000
1000
0000
0001
0000
0100
0000
0010
0000
,  // measure 25
0100
0000
0001
1000
0001
0000
0100
0000
0001
0000
0010
0000
0100
0000
1000
0000
,  // measure 26
0001
0000
0001
0100
0000
0001
0100
0000
0100
0010
0000
1000
0001
0000
0100
0000
,  // measure 27
0001
0000
1000
0100
0000
0100
1000
0000
0001
0000
0010
0000
0100
0000
1000
0000
,  // measure 28
0001
0010
0001
1000
0010
0100
0001
1000
,  // measure 29
0100
1000
0100
0010
0001
0100
0001
0010
,  // measure 30
0100
0000
1000
0001
0000
0001
0100
0000
0020
0000
0000
0000
0030
0000
1000
0001
,  // measure 31
0100
0001
0100
0010
1000
0010
1000
0001
1000
0100
0010
0001
0010
0000
0010
0001
,  // measure 32
1000
0000
0000
0010
0000
0000
0100
0000
0001
0000
1000
0000
0001
0000
0010
0000
,  // measure 33
0100
0000
1000
0000
0100
0000
1000
0000
0001
0000
0100
0001
0000
0001
1000
0000
,  // measure 34
0010
0000
0000
0010
0000
0000
0100
0000
0001
0000
1000
0000
0001
0000
0010
0000
,  // measure 35
0200
0000
0000
0000
0300
0000
1000
0100
0010
0000
0001
0000
1000
0000
0001
0000
,  // measure 36
0200
0000
0000
0000
0001
0000
0000
0000
0001
0000
0000
0000
0301
0000
1000
0001
,  // measure 37
2000
0000
0000
0000
0010
0000
0000
0000
0010
0000
0000
0000
3010
0000
1000
0001
,  // measure 38
0200
0000
0310
2000
0100
0000
3001
0000
,  // measure 39
0102
0000
0013
0002
0100
0000
1003
0000
,  // measure 40
0001
0010
0100
0000
1000
0100
0010
0000
0001
0010
0100
0000
1000
0000
0001
1000
,  // measure 41
0020
0000
0000
0000
0000
0000
0000
0000
0000
0000
0000
0000
0030
0000
1000
0001
,  // measure 42
1000
0000
0010
0000
0100
0001
0000
1000
0001
0000
0010
0001
0000
0001
1000
0000
,  // measure 43
0010
0000
0100
0000
0010
1000
0000
0100
0000
0000
1000
0000
1000
0000
0010
0100
,  // measure 44
0001
0000
0100
0000
0010
1000
0000
0010
1000
0000
0001
0010
0000
0010
0001
0000
,  // measure 45
0100
0000
0010
0000
1000
0001
0000
0100
0000
0000
0010
0000
0010
0000
1000
0001
,  // measure 46
1000
0000
0100
0000
1000
0001
0000
0100
0001
0000
0001
1000
0000
0001
0100
0000
,  // measure 47
0010
0000
1000
0000
0001
0010
0000
0001
1000
0000
1000
0010
0000
1000
0001
0000
,  // measure 48
0100
0000
0200
0000
0300
0000
0010
1000
0001
0100
0001
1000
0001
0000
1000
0000
,  // measure 49
0001
0010
0100
1000
0001
0010
0100
1000
0001
0000
0100
0000
0010
0000
1000
0010
,  // measure 50
1000
0000
0001
0000
0100
0001
0000
0100
0010
0000
0010
1000
0000
0001
0100
0000
,  // measure 51
0010
0000
1000
0000
0100
0010
0000
0001
0000
0000
0010
0000
0010
0000
0100
1000
,  // measure 52
0100
0000
1000
0000
0001
0100
0000
0010
0100
0000
0100
0001
0000
1000
0010
0000
,  // measure 53
0100
0000
0001
0000
0010
0100
0000
1000
0000
0000
0010
0000
0010
0000
0100
0001
,  // measure 54
1000
0000
0010
0000
0100
0001
0000
0001
0100
0000
0010
1000
0000
1000
0010
0000
,  // measure 55
0100
0000
0001
0000
1000
0100
0000
0100
1000
0000
0001
0010
0000
0010
0001
0000
,  // measure 56
1100
0000
0000
0110
0000
0000
0001
0000
0101
0000
0000
1001
0000
0000
0010
0000
,  // measure 57
0110
0000
0000
1000
0001
0000
0010
0000
0001
0100
0010
1000
0001
0100
0001
1000
,  // measure 58
0001
0010
0001
1000
,  // measure 59
0010
0000
0000
1000
0100
0000
0010
0000
0100
0000
1000
0000
1000
0000
0001
0100
,  // measure 60
0001
1000
0010
1000
,  // measure 61
0100
0000
0000
0010
0001
0000
1000
0000
0001
0000
0100
0000
0010
0000
0100
0000
,  // measure 62
0001
0000
0000
0001
0010
0000
0001
0000
1000
0000
0000
0000
0010
0000
0000
0000
,  // measure 63
0100
0001
1000
0010
,  // measure 64
1100
0000
0000
1001
0000
0000
0101
0000
0000
1001
0000
0000
0110
0000
0000
0000
,  // measure 65
1010
0000
0000
0110
0000
0000
0101
0000
0000
0011
0000
0000
1100
0000
0000
0000
,  // measure 66
0011
0000
0000
1001
0000
0000
0101
0000
0000
1001
0000
0000
0101
0000
0220
0000
,  // measure 67
0000
0330
0000
0000
;

//---------------dance-single - ----------------
#NOTES:
     dance-single:
     :
     Medium:
     5:
     0.418057,0.480783,0.133452,0.257371,0.000000,266.000000,14.000000,27.000000,0.000000,0.000000,0.000000,0.418057,0.480783,0.133452,0.257371,0.000000,266.000000,14.000000,27.000000,0.000000,0.000000,0.000000:
0000
0000
0000
0000
,
0000
0000
0000
0000
,
0000
0000
0000
0000
,
0000
0000
0000
0000
,
1000
0100
0010
0001
,
0100
0001
1000
0001
,
0100
0000
0000
0010
0000
0000
1000
0000
,
1001
0000
0000
0010
0010
0000
1000
0000
,
0001
0000
0000
0100
0100
0000
0010
0000
,
1000
0000
0000
0100
0100
0000
0010
0000
,
0001
1000
0001
0100
,
1000
0000
0100
0001
0100
0000
0010
0000
,
1000
0000
1000
0100
0010
0000
0001
0000
,
0010
0000
0010
0001
1000
0000
0010
0000
,
0100
0000
0001
1000
0020
0000
0000
0000
,
0200
0030
0000
0001
0301
0000
1000
0001
,
1000
0000
0010
0000
1000
0000
0100
0010
,
0001
0000
0010
0000
0001
0000
0100
1000
,
0100
0001
0010
0100
,
1000
0000
0001
0010
1000
0000
0010
0000
,
0001
0000
0001
0100
1000
0000
0100
0000
,
0001
0000
0001
0010
0100
0000
1000
0000
,
0010
1010
0202
0303
,
0010
0000
0011
0000
2200
0000
3300
0100
,
0010
0001
1000
0001
,
0100
0010
0100
0000
0010
0000
0010
0000
,
0100
0000
0001
0000
0010
0001
1000
0000
,
0001
0000
0001
0020
0000
0030
0100
0000
,
1000
0100
1000
0001
,
0010
0001
0100
0010
,
1000
0011
2020
3030
,
0001
1000
0100
0000
0010
0001
1000
0000
,
0010
0100
0001
0010
,
0001
1000
0001
0000
0001
0000
0100
0000
,
0001
1000
0100
0010
,
0200
0000
0300
1000
0001
0000
0100
0000
,
0020
0000
0100
0030
,
2000
0000
0001
3000
,
0002
0000
0000
0023
0000
0000
0032
0000
,
2003
0000
0000
3200
0000
0000
2300
0000
,
3010
0100
0001
0000
0100
0010
1000
0000
,
2002
0000
3003
0000
,
0010
0100
0001
1000
,
0100
0000
1000
0000
0001
0010
0010
0000
,
0001
1000
0001
0010
,
0001
0000
0010
0000
0100
1000
1000
0000
,
0010
1000
0100
0001
,
0100
1000
0001
0010
,
2000
0000
0000
3010
0001
0010
0001
0010
,
0100
1000
0001
0100
,
0010
1000
0001
0010
,
0001
0100
0010
0000
1000
0100
0010
0000
,
0001
0010
1000
0100
,
0001
1000
0001
0000
0100
0010
0100
0000
,
0001
0000
0001
0000
0001
0000
0001
1000
,
0010
0000
0010
0000
0010
0000
0010
1000
,
0100
0110
0001
1100
,
0202
0000
0303
0000
0010
1000
0001
0100
,
0001
1000
0100
1000
,
0020
0000
0000
0130
0000
0001
0000
1000
,
0020
0100
0100
0130
,
0002
0000
0000
1003
0000
0001
0100
0000
,
0010
0000
1000
0100
0100
0000
0010
0000
,
0001
1000
0001
0100
,
0001
0000
0000
1001
0000
0000
1000
0000
,
0010
0000
0000
0110
0000
0000
0100
0000
,
0001
0000
0000
1001
0000
0000
0100
0020
,
0000
0030
0000
0000
;

//---------------dance-single - ----------------
#NOTES:
     dance-single:
     :
     Easy:
     4:
     0.320011,0.381767,0.076258,0.314564,0.000000,194.000000,8.000000,33.000000,0.000000,0.000000,0.000000,0.320011,0.381767,0.076258,0.314564,0.000000,194.000000,8.000000,33.000000,0.000000,0.000000,0.000000:
0000
0000
0000
0000
,
0000
0000
0000
0000
,
0000
0000
0000
0000
,
0000
0000
0000
0000
,
0001
0001
0001
0100
,
0010
0010
0010
1000
,
0001
0100
0001
1000
,
2002
3003
0000
0000
,
1000
1000
0100
0010
,
0001
0001
0100
0001
,
0010
0010
0000
0000
,
0100
0000
1000
0010
,
0100
0100
0001
1000
,
0001
0001
0010
0100
,
0010
0010
0010
0000
,
2002
0000
0000
3003
,
0010
0010
1000
0001
,
1000
1000
0100
0010
,
0001
0001
0000
0000
,
0010
0000
0001
0100
,
0010
0010
1000
0001
,
1000
1000
0100
0010
,
0100
0100
0100
0000
,
1000
0001
2002
3003
,
0010
0000
0100
0000
,
0001
0010
0100
1000
,
0001
0000
0010
0000
,
0001
1000
0010
0000
,
1000
1000
0100
0000
,
0010
0100
1000
0000
,
0002
0000
0200
0303
,
0010
1000
0001
0010
,
0001
0000
1000
0010
,
1000
0100
0010
0000
,
0001
0000
1000
0001
,
0200
0000
0310
0100
,
0002
0000
0000
1003
,
2000
0000
0000
3010
,
0020
0000
0230
0001
,
0302
0000
2003
0100
,
3100
1000
0100
0010
,
2002
0000
0000
3003
,
0010
1000
1000
0000
,
0010
0100
0001
0000
,
0010
0001
0001
0000
,
1000
0100
0010
0000
,
0001
0100
0100
1000
,
1000
0100
0001
1000
,
2020
0000
0000
3030
,
1000
0100
0010
0001
,
1000
0010
0010
0000
,
0100
0001
0010
0000
,
1000
1000
0010
0000
,
0001
1000
0100
0000
,
0020
0031
0002
0103
,
0200
0310
0020
1030
,
2000
3001
0002
1003
,
1000
1001
0001
0001
,
0020
0030
0002
0003
,
0200
0300
0010
1000
,
0200
0300
0020
0030
,
0200
0300
1000
0001
,
0100
0100
0010
1000
,
0000
0001
0000
1000
,
0020
0030
0001
0101
,
2000
3000
0010
1001
,
1000
0001
0100
0010
;

//---------------dance-single - ----------------
#NOTES:
     dance-single:
     :
     Beginner:
     1:
     0.152516,0.254988,0.047661,0.190645,0.000000,87.000000,5.000000,20.000000,0.000000,0.000000,0.000000,0.152516,0.254988,0.047661,0.190645,0.000000,87.000000,5.000000,20.000000,0.000000,0.000000,0.000000:
0000
0000
0000
0000
,
0000
0000
0000
0000
,
0000
0000
0000
0000
,
0000
0000
0000
0000
,
0010
0010
0010
0000
,
0000
0000
0000
0000
,
2002
0000
0000
3003
,
1001
0000
0000
0000
,
0010
0000
0010
0000
,
1000
0000
1000
0000
,
0001
0000
0000
0000
,
0000
0000
0010
0000
,
0100
0000
0100
0000
,
1000
0000
1000
0000
,
0002
0000
0003
0000
,
0000
0000
0010
0000
,
1000
0000
1000
0000
,
0001
0000
0001
0000
,
0100
0000
0000
0000
,
0000
0000
0001
0000
,
0010
0000
0010
0000
,
0100
0000
0100
0000
,
0020
0000
0030
0000
,
0002
0000
0003
0000
,
1000
0000
0000
0000
,
0001
0000
1000
0000
,
0001
0000
0000
0000
,
0200
0000
0300
0000
,
0010
0000
0000
0000
,
1000
0000
0001
0000
,
0010
0000
0020
0000
,
0000
0000
0030
0000
,
0100
0000
0000
0000
,
1000
0000
0001
0000
,
1000
0000
0100
0000
,
0100
0000
0000
0000
,
0020
0000
0030
0000
,
0002
0000
0003
0000
,
1000
0000
0001
0000
,
1000
0000
0001
0000
,
0200
0000
0000
0000
,
0300
0000
0000
0000
,
0010
0000
0010
0000
,
0010
0000
0000
0000
,
1000
0000
1000
0000
,
1000
0000
0000
0000
,
0001
0000
0001
0000
,
0001
0000
0001
0000
,
0200
0000
0300
0000
,
0010
0010
0010
0000
,
1000
0000
0100
0000
,
1000
0000
0000
0000
,
0010
0000
0100
0000
,
0010
0000
0000
0000
,
1000
0000
0001
0000
,
0100
0000
0001
0000
,
0010
0000
0100
0000
,
2000
3000
0000
0000
,
0002
0000
0000
0000
,
0000
0003
0000
1000
,
2000
0000
0000
0000
,
0000
0000
3000
0000
,
0010
0000
0010
0000
,
0000
0000
0000
0000
,
2002
0000
0000
3003
,
0220
0000
0000
0330
,
2002
0000
0000
0000
0000
0000
0000
3003
;
