#TITLE:LUNATIC ROUGH PARTY!!;
#SUBTITLE:;
#ARTIST:かめりあ;
#TITLETRANSLIT:;
#SUBTITLETRANSLIT:;
#ARTISTTRANSLIT:Camellia;
#GENRE:Wubcore;
#CREDIT:;
#BANNER:LUNATIC ROUGH PARTY!!-bn.png;
#BACKGROUND:LUNATIC ROUGH PARTY!!-bg.png;
#LYRICSPATH:;
#CDTITLE:;
#MUSIC:LUNATIC ROUGH PARTY!!.ogg;
#OFFSET:-0.180000;
#SAMPLESTART:15.680000;
#SAMPLELENGTH:16.000000;
#LASTBEATHINT:380.000000;
#SELECTABLE:YES;
#BPMS:0.000000=120.000000
,144.000000=130.000000
,148.000000=140.000000
,152.000000=160.000000
,156.000000=180.000000
,160.000000=200.000000
,164.000000=220.000000
,168.000000=240.000000
,172.000000=280.000000
,176.000000=300.000000
,180.000000=320.000000
,184.000000=340.000000
,188.000000=360.000000
,192.000000=380.000000
,196.000000=390.000000
,200.000000=400.000000
,344.000000=380.000000
,352.000000=350.000000
,356.000000=320.000000
,360.000000=280.000000
,364.000000=240.000000
,368.000000=200.000000
,374.500000=180.000000
,375.000000=170.000000
,375.500000=150.000000
,376.000000=145.000000
,376.500000=140.000000
,377.000000=135.000000
,377.500000=130.000000
,378.000000=124.999992
,378.500000=120.000000
;
#STOPS:
;
#BGCHANGES:;
#KEYSOUNDS:;
#ATTACKS:;

//---------------dance-single - S-HEAVY----------------
#NOTES:
     dance-single:
     DJ OMiY-HSP:
     Hard:
     9:
     0.593324,1.000000,0.092109,0.477291,0.380995,428.000000,11.000000,57.000000,0.000000,0.000000,0.000000,0.593324,1.000000,0.092109,0.477291,0.380995,428.000000,11.000000,57.000000,0.000000,0.000000,0.000000:
0000
0000
0000
0000
,
0000
0000
0000
0000
,
0000
0000
0000
0000
,
0000
0000
0000
0000
,
1001
0000
0000
1000
0100
0010
0001
0010
0100
1000
0100
0010
,
0001
0010
0100
1000
0100
0010
0001
0010
0100
1000
0100
0010
,
0001
1000
0001
1000
0001
1000
0001
1000
,
0001
0000
0100
0001
0000
1000
0001
0000
0010
0001
0000
1000
0002
0000
0000
0000
0000
0000
0100
0000
0000
0103
0000
0000
,
1001
0000
0000
0000
0000
0000
0010
0000
0000
1000
0000
0100
0000
0000
0100
1000
0000
0000
0001
0000
0000
0100
0000
0000
,
0020
0000
0000
0000
0000
0000
0130
0000
0000
0001
0000
0000
1000
0100
0010
0001
0000
0000
0100
0000
0000
0010
0000
0000
,
2002
0000
0000
3003
0000
0000
0010
0000
0000
0001
0000
0000
0100
0000
0000
0010
0000
0000
1000
0000
0001
1000
0000
0000
,
0001
0000
0010
0100
0000
2000
0000
3000
0000
1000
0000
0100
0010
0000
0002
0000
0003
0000
0100
0000
0000
0100
0000
0000
,
1001
0000
0000
0000
0000
0000
0001
0000
0000
0100
0000
0010
0000
0000
0010
1000
0000
0000
0001
0000
0000
0100
0000
0000
,
0002
0000
0000
0000
0000
0000
1003
0000
0000
1000
0000
0000
0001
0100
0010
1000
0000
0000
0001
0000
0000
0010
0000
0000
,
2200
0000
0000
3300
0000
0000
0010
0000
0000
0100
0000
0000
1000
0000
0000
0010
0000
0000
0100
0000
0001
0100
0000
0000
,
0010
0000
1000
0100
0000
0002
0000
0003
0000
0100
0000
1000
0010
0000
0002
0000
0003
0000
0010
0000
0000
0020
0000
0000
,
0030
0000
0000
1001
0000
0000
0010
0000
0000
1000
0000
0000
0002
0000
0000
0023
0000
0000
0130
0000
1000
0000
0001
0000
,
2000
0000
0000
3000
0000
0000
0010
0000
0000
0100
0000
0000
0001
0010
0100
1000
0000
0000
0001
0000
0000
0100
0000
0000
,
1100
0000
0000
0000
0000
0000
0010
0000
0000
0100
0000
0000
1000
0000
0010
1000
0000
0000
0001
0000
0010
0000
0100
0000
,
2000
0001
3200
0010
2300
0001
3100
0010
,
0001
0000
0000
0000
0000
0010
0000
0000
0000
0100
0000
0000
1000
0000
0000
0000
0000
0100
0000
0000
0000
0010
0000
0000
,
0001
0000
0000
0000
0000
0010
0000
0000
0000
0100
0000
0000
1000
0000
0000
0000
0000
0100
0000
0000
0000
0010
0000
0000
,
0001
0000
0000
0000
0000
0100
0000
0000
0000
0010
0000
0000
1000
0000
0000
0000
0000
0100
0000
0000
0000
0010
0000
0000
,
0001
0000
0000
1000
0000
0000
0001
0000
0000
1000
0000
0000
0001
0000
0000
0000
0000
0000
0100
0000
0000
0001
0000
1000
,
0100
0000
0000
0010
0000
0100
0010
0000
0000
0001
0000
0000
1000
0000
0000
0001
0000
0010
0001
0000
0000
1000
0000
0000
,
0001
0000
0000
1000
0000
0100
1000
0000
0000
0010
0000
0000
0100
0000
0000
0001
0000
1000
0001
0000
0000
0100
0000
0000
,
0010
0000
0000
1000
0000
0100
1000
0000
0000
0100
0000
0000
0010
0000
0000
0001
0000
1000
0001
0000
0000
1000
0000
0000
,
0010
0000
0000
0100
0000
0001
0100
0000
0000
0010
0000
0000
0100
0000
0000
0000
0000
0001
1000
0000
0010
0000
1000
0000
,
0000
0000
0000
0100
0000
1000
0100
0000
0000
1000
0000
0000
0001
0000
0000
0100
0000
0010
0100
0000
0000
0001
0000
0000
,
1000
0000
0000
0001
0000
0010
0001
0000
0000
0100
0000
0000
0001
0000
0000
1000
0000
0010
1000
0000
0000
0001
0000
0000
,
1000
0000
0000
0100
0000
1000
0100
0000
0000
1000
0000
0000
0010
0000
0000
0100
0000
0001
0100
0000
0000
0010
0000
0000
,
1000
0000
0000
0000
0000
0100
0000
0000
0000
0010
0000
0000
0001
0000
1000
0000
0010
0000
0100
0000
0010
0000
0100
0000
,
0002
0000
0000
0013
0000
0010
0001
0000
0001
1000
0000
0000
,
2000
0000
0000
3010
0000
0010
0100
0000
0100
0001
0000
0000
,
0002
0000
0000
0103
0000
0100
0010
0000
0010
1000
0000
0000
,
2000
0000
0000
3100
0000
0100
0010
0000
0010
0001
0000
0000
,
1000
0000
0000
0010
0000
0000
1000
0100
1000
0100
0000
0000
,
0010
0000
0000
0001
0000
0000
0100
0010
0100
0010
0000
0000
,
1000
0000
0000
0100
0000
0000
1000
0001
1000
0001
0000
0000
,
0100
0000
0000
0001
0000
0000
1000
0010
1000
0010
0000
0000
,
2000
0100
3002
0100
,
2003
0100
3002
0100
,
2003
0100
3002
0100
,
2003
0100
3002
0100
,
2003
0000
0000
0000
,
3200
0000
0000
0000
,
0320
0000
0000
0000
,
0032
0000
0000
0000
,
2000
0000
0000
0000
,
0000
0000
0000
0000
,
3003
0000
0000
0000
,
0010
0000
0010
0000
,
2002
0000
3003
0000
,
0020
0000
2030
0000
,
3001
0010
0100
1000
,
0001
0000
0100
0010
,
0200
0000
0300
0000
,
0001
0000
1000
0000
,
0010
0000
0000
1000
0000
0000
0001
0000
,
0010
0100
0010
0001
,
2000
0000
3000
0000
,
0200
0000
0320
0000
,
0031
0010
0001
1000
,
0010
0000
0100
0001
,
1000
0000
0000
0010
0000
0000
0100
0000
,
0001
0000
0000
0010
0000
0000
0100
0000
,
1000
0000
0000
0010
0000
0000
0100
0000
,
0001
0000
1001
0000
,
0220
0000
0330
0000
,
2000
0000
3020
0000
,
1030
0100
1000
0100
,
0010
0000
0001
0010
,
0200
0000
0300
0000
,
2000
0000
3002
0000
,
0103
0000
0000
0010
0000
0000
0100
0000
,
0001
1000
0001
0100
,
0020
0000
0030
0000
,
2000
0000
3200
0000
,
0310
0001
1000
0010
,
1000
0000
0010
0100
,
0001
0010
0001
0010
,
0100
1000
0100
1000
,
0001
1000
0001
1000
,
0010
0100
0010
0100
,
0002
0000
0100
0000
,
1000
0000
0100
0000
,
2003
0000
0100
0000
,
0001
0000
0100
0000
,
3001
0000
1000
0000
,
0001
0000
1000
0000
,
0010
0000
0000
0000
0000
0000
0100
0000
0001
0000
0100
0000
,
0010
0000
1000
0000
0001
0000
0100
0000
0000
0000
0000
0000
,
2002
0000
0000
0000
,
0000
0000
0000
0000
,
0000
0000
3003
0000
;

//---------------dance-single - S-STANDARD----------------
#NOTES:
     dance-single:
     DJ OMiY-SSP:
     Medium:
     7:
     0.465329,0.949558,0.133976,0.586147,0.159097,303.000000,16.000000,70.000000,0.000000,0.000000,0.000000,0.465329,0.949558,0.133976,0.586147,0.159097,303.000000,16.000000,70.000000,0.000000,0.000000,0.000000:
// measure 0
0000
0000
0000
0000
,  // measure 1
0000
0000
0000
0000
,  // measure 2
0000
0000
0000
0000
,  // measure 3
0000
0000
0000
0000
,  // measure 4
0020
0000
0000
1030
0000
1000
0100
0000
0100
0010
0000
0010
,  // measure 5
0001
0000
0001
0100
0000
0100
0010
0000
0010
1000
0000
1000
,  // measure 6
0100
0010
0100
0010
0100
0010
0100
0010
,  // measure 7
0001
0010
0100
1000
0002
0000
1003
0001
,  // measure 8
2002
3003
0100
0000
0010
1000
0100
0010
,  // measure 9
0001
0000
0100
0000
0001
0010
1000
0010
,  // measure 10
2002
3003
0010
0100
0010
1000
0001
0010
,  // measure 11
0001
0000
0000
1000
0000
0002
0000
0003
0000
1000
0000
0000
0001
0000
2000
0000
3000
0000
0010
0000
0000
0100
0000
0000
,  // measure 12
2002
3003
0010
0000
0100
0001
0010
0010
,  // measure 13
0100
0000
1000
0010
0100
0001
1000
0001
,  // measure 14
2002
3003
0100
0000
0001
0010
0100
1000
,  // measure 15
0001
0000
0000
0100
0000
0002
0000
0003
0000
1000
0000
0000
0010
0000
2000
0000
3000
0000
0001
0000
0000
0200
0000
0000
,  // measure 16
0300
0000
0000
0110
0000
0000
0010
0000
0000
0000
0000
0000
1000
0000
0000
0000
0000
0000
0001
0000
0010
0000
0100
0000
,  // measure 17
1000
0000
0010
0001
0010
1000
0001
0010
,  // measure 18
0220
0000
0000
0330
0000
0000
1000
0000
0000
0100
0000
0000
1000
0000
0000
0000
0000
0000
0010
0000
0100
0000
0001
0000
,  // measure 19
1000
1000
0001
0001
0100
0010
1000
0001
,  // measure 20
0020
0000
0000
0000
0000
0030
0000
0000
0000
0001
0000
0000
2000
0000
0000
0000
0000
3000
0000
0000
0000
1000
0000
0000
,  // measure 21
0200
0000
0000
0000
0000
0300
0000
0000
0000
0010
0000
0000
0002
0000
0000
0000
0000
0003
0000
0000
0000
0001
0000
0000
,  // measure 22
1000
0000
0000
0000
0000
1000
0000
0000
0000
0000
0000
0000
0010
0000
0000
0000
0000
0010
0000
0000
0000
0000
0000
0000
,  // measure 23
0100
0000
0000
0000
0000
0100
0000
0000
0000
0010
0000
0000
0100
0000
0000
0000
0000
0000
0001
0000
0000
1001
0000
0000
,  // measure 24
0100
0000
0000
0000
0000
0010
0000
0000
0000
1000
0000
0000
0100
0000
0000
0000
0000
1000
0000
0000
0000
0001
0000
0000
,  // measure 25
0010
0000
0000
0000
0000
0100
0000
0000
0000
0010
0000
0000
0001
0000
0000
0000
0000
1000
0000
0000
0000
0010
0000
0000
,  // measure 26
0100
0000
0000
0000
0000
0001
0000
0000
0000
0010
0000
0000
0001
0000
0000
0000
0000
0100
0000
0000
0000
0010
0000
0000
,  // measure 27
1000
0000
0000
0000
0000
0010
0000
0000
0000
1000
0000
0000
0001
0000
0000
0000
0000
0000
1000
0000
0100
0000
0010
0000
,  // measure 28
0000
0000
0000
0001
0000
0100
0000
0000
0000
0001
0000
0000
1000
0000
0000
0000
0000
0010
0000
0000
0000
1000
0000
0000
,  // measure 29
0100
0000
0000
0000
0000
0010
0000
0000
0000
0001
0000
0000
0100
0000
0000
0000
0000
0001
0000
0000
0000
0010
0000
0000
,  // measure 30
0100
0000
0000
0000
0000
1000
0000
0000
0000
0010
0000
0000
1000
0000
0000
0000
0000
0100
0000
0000
0000
0010
0000
0000
,  // measure 31
0001
0000
0000
0000
0000
1000
0000
0000
0000
0001
0000
0000
0200
0000
0000
0000
0000
0000
0310
0000
1000
0000
0001
0000
,  // measure 32
0200
0010
0001
0310
,  // measure 33
0002
0100
1000
0103
,  // measure 34
2000
0100
0001
3100
,  // measure 35
0020
0100
1000
0130
,  // measure 36
0202
0303
1000
0100
,  // measure 37
2200
3300
0010
0100
,  // measure 38
0220
0330
0001
0010
,  // measure 39
0022
0033
0100
1000
,  // measure 40
0002
0003
2000
3000
,  // measure 41
0020
0030
0200
0300
,  // measure 42
0002
0003
0020
0030
,  // measure 43
0200
0300
2000
3000
,  // measure 44
0002
0000
0000
0000
,  // measure 45
0023
0000
0000
0000
,  // measure 46
0230
0000
0000
0000
,  // measure 47
2300
0000
0000
0000
,  // measure 48
0002
0000
0000
0000
,  // measure 49
0000
0000
0000
0000
,  // measure 50
3003
0000
0000
0000
,  // measure 51
0001
0000
1000
0000
,  // measure 52
2002
0000
3003
0000
,  // measure 53
0020
0000
0030
0000
,  // measure 54
0100
0001
0100
0000
,  // measure 55
0010
0000
1000
0000
,  // measure 56
0200
0000
0300
0000
,  // measure 57
0020
0000
0030
0000
,  // measure 58
0001
0000
0000
1000
0000
0000
0001
0000
,  // measure 59
0100
0000
0010
0000
,  // measure 60
2002
0000
3003
0000
,  // measure 61
0020
0000
0030
0000
,  // measure 62
0001
1000
0001
0000
,  // measure 63
0100
0000
0010
0000
,  // measure 64
2000
0000
3000
0100
,  // measure 65
0020
0000
0030
0001
,  // measure 66
0200
0000
0300
0010
,  // measure 67
1000
0000
0001
0000
,  // measure 68
2002
0000
3003
0000
,  // measure 69
0002
0000
0003
0000
,  // measure 70
0100
0010
0100
0000
,  // measure 71
0001
0000
0010
0000
,  // measure 72
0200
0000
0300
0000
,  // measure 73
2000
0000
3000
0000
,  // measure 74
0010
0000
0000
0100
0000
0000
0010
0000
,  // measure 75
1000
0000
0001
0000
,  // measure 76
2002
0000
3003
0000
,  // measure 77
2000
0000
3000
0000
,  // measure 78
0010
1000
0010
0000
,  // measure 79
0100
0000
0001
0000
,  // measure 80
0010
0000
0100
0000
,  // measure 81
1000
0000
0001
0000
,  // measure 82
0100
0010
0100
0010
,  // measure 83
0100
0010
0100
0000
,  // measure 84
0002
0000
0100
0000
,  // measure 85
0103
0000
0001
0000
,  // measure 86
2000
0000
0100
0000
,  // measure 87
3100
0000
1000
0000
,  // measure 88
0001
0000
1000
0000
,  // measure 89
0001
0000
1000
0000
,  // measure 90
0010
0000
0100
0000
,  // measure 91
0001
0000
0010
0000
0100
0000
1000
0000
0000
0000
0000
0000
,  // measure 92
2002
0000
0000
0000
,  // measure 93
0000
0000
0000
0000
,  // measure 94
0000
0000
3003
0000
;

//---------------dance-single - S-LIGHT----------------
#NOTES:
     dance-single:
     DJ OMiY-LSP:
     Easy:
     5:
     0.375612,0.672603,0.117229,0.653135,0.016747,222.000000,14.000000,78.000000,0.000000,0.000000,0.000000,0.375612,0.672603,0.117229,0.653135,0.016747,222.000000,14.000000,78.000000,0.000000,0.000000,0.000000:
// measure 0
0000
0000
0000
0000
,  // measure 1
0000
0000
0000
0000
,  // measure 2
0000
0000
0000
0000
,  // measure 3
0000
0000
0000
0000
,  // measure 4
1002
0100
1000
0100
,  // measure 5
0010
0100
1000
0010
,  // measure 6
1003
0001
1000
0001
,  // measure 7
1000
0001
1000
0001
1000
0000
0010
0010
,  // measure 8
2002
3003
0100
0000
0001
0000
0010
0001
,  // measure 9
0200
0300
0010
0000
1000
0100
0010
0001
,  // measure 10
2000
3000
0010
0000
0001
0000
0001
0010
,  // measure 11
2000
0000
0000
0000
0000
3001
0000
0000
0000
0002
0000
0000
0000
0000
1003
0000
0000
0000
0010
0000
0000
0100
0000
0000
,  // measure 12
0110
0000
0001
0000
0010
0000
0001
0100
,  // measure 13
0020
0030
1000
0000
0100
0010
0100
0010
,  // measure 14
0002
0003
1000
0000
0010
0100
0001
0000
,  // measure 15
2000
0000
0000
0000
0000
3001
0000
0000
0000
0002
0000
0000
0000
0000
1003
0000
0000
0000
0010
0000
0000
0010
0000
0000
,  // measure 16
0000
2002
3003
0000
0020
0000
0230
0000
,  // measure 17
1300
0000
0100
0000
0010
0001
0100
0000
,  // measure 18
0020
0030
0100
0000
0001
0010
0200
0000
,  // measure 19
1300
0001
1000
0001
1000
0001
1000
1000
,  // measure 20
0200
0300
0020
0030
,  // measure 21
0002
0003
2000
3000
,  // measure 22
0010
0000
0000
0100
0100
0000
0000
0001
,  // measure 23
0001
0000
0000
1000
0001
0000
0020
0000
,  // measure 24
0230
0000
0000
0000
0000
0300
0000
0000
0000
1000
0000
0000
0020
0000
0000
0000
0000
0030
0000
0000
0000
0100
0000
0000
,  // measure 25
0002
0000
0000
0000
0000
0003
0000
0000
0000
0010
0000
0000
0200
0000
0000
0000
0000
0300
0000
0000
0000
0100
0000
0000
,  // measure 26
2000
0000
0000
0000
0000
3000
0000
0000
0000
0001
0000
0000
0020
0000
0000
0000
0000
0030
0000
0000
0000
0100
0000
0000
,  // measure 27
0010
0000
0000
0100
0000
0000
0010
0000
0000
2002
0000
3003
,  // measure 28
0000
0000
0000
0010
0000
0000
0000
0000
0000
0010
0000
0000
0002
0000
0000
0000
0000
0003
0000
0000
0000
0001
0000
0000
,  // measure 29
0020
0000
0000
0000
0000
0030
0000
0000
0000
0010
0000
0000
0200
0000
0000
0000
0000
0300
0000
0000
0000
0100
0000
0000
,  // measure 30
2000
0000
0000
0000
0000
3000
0000
0000
0000
1000
0000
0000
0020
0000
0000
0000
0000
0030
0000
0000
0000
0100
0000
0000
,  // measure 31
0002
0000
0000
0000
0000
0003
0000
0000
0000
0100
0000
0000
0010
0000
0000
0000
0000
0000
0110
0000
0000
0000
0000
0000
,  // measure 32
0020
0000
0100
0000
,  // measure 33
2030
0000
0100
0000
,  // measure 34
3002
0000
0010
0000
,  // measure 35
0203
0000
0010
0000
,  // measure 36
0301
0000
0001
0000
,  // measure 37
1000
0000
1000
0000
,  // measure 38
0001
0000
0001
0000
,  // measure 39
1000
0000
1000
0000
,  // measure 40
0020
0000
0230
0000
,  // measure 41
0320
0000
0230
0000
,  // measure 42
0302
0000
2003
0000
,  // measure 43
3002
0000
2003
0000
,  // measure 44
3002
0000
0000
0000
,  // measure 45
0203
0000
0000
0000
,  // measure 46
0320
0000
0000
0000
,  // measure 47
2030
0000
0000
0000
,  // measure 48
0002
0000
0000
0000
,  // measure 49
0000
0000
0000
0000
,  // measure 50
3003
0000
0000
0000
,  // measure 51
0020
0000
0030
0000
,  // measure 52
2002
0000
3003
0000
,  // measure 53
0010
0000
0000
0000
,  // measure 54
0001
0000
0100
0000
,  // measure 55
0001
0000
1000
0000
,  // measure 56
0200
0000
0300
0000
,  // measure 57
1000
0000
0000
0000
,  // measure 58
0010
0000
0100
0000
,  // measure 59
0010
0000
0010
0000
,  // measure 60
2002
0000
3003
0000
,  // measure 61
0200
0000
0300
0000
,  // measure 62
0010
0000
1000
0000
,  // measure 63
0100
0000
0010
0000
,  // measure 64
0001
0000
0000
0000
,  // measure 65
0100
0000
0010
0000
,  // measure 66
2000
0000
3000
0000
,  // measure 67
0010
0000
0010
0000
,  // measure 68
2002
0000
3003
0000
,  // measure 69
0020
0000
0030
0000
,  // measure 70
1000
0000
0010
0000
,  // measure 71
0100
0000
0001
0000
,  // measure 72
2000
0000
3000
0000
,  // measure 73
0001
0000
0000
0000
,  // measure 74
0010
0000
0001
0000
,  // measure 75
1000
0000
1000
0000
,  // measure 76
2002
0000
3003
0000
,  // measure 77
0002
0000
0003
0000
,  // measure 78
1000
0000
0100
0000
,  // measure 79
0001
0000
0100
0000
,  // measure 80
2000
3000
0200
0300
,  // measure 81
0020
0030
0002
0003
,  // measure 82
0200
0300
0020
0030
,  // measure 83
2000
3000
0002
0003
,  // measure 84
1001
0000
0000
0000
,  // measure 85
0100
0000
0000
0000
,  // measure 86
1001
0000
0000
0000
,  // measure 87
0010
0000
0000
0000
,  // measure 88
1001
0000
1000
0000
,  // measure 89
0001
0000
1000
0000
,  // measure 90
0010
0000
0100
0000
,  // measure 91
0001
0100
0010
0000
,  // measure 92
0220
0000
0000
0000
,  // measure 93
0000
0000
0000
0000
,  // measure 94
0000
0000
0330
0000
;

//---------------dance-single - BEGINNER----------------
#NOTES:
     dance-single:
     DJ OMiY-BEG:
     Beginner:
     3:
     0.183021,0.395649,0.083735,0.259579,0.000000,112.000000,10.000000,31.000000,0.000000,0.000000,0.000000,0.183021,0.395649,0.083735,0.259579,0.000000,112.000000,10.000000,31.000000,0.000000,0.000000,0.000000:
// measure 0
0000
0000
0000
0000
,  // measure 1
0000
0000
0000
0000
,  // measure 2
0000
0000
0000
0000
,  // measure 3
0000
0000
0000
0000
,  // measure 4
1001
0000
0000
0000
,  // measure 5
0000
0000
0000
0000
,  // measure 6
0010
0010
0010
0010
,  // measure 7
0020
0000
0030
0000
,  // measure 8
1001
0000
0010
0000
,  // measure 9
0001
0001
0001
0000
,  // measure 10
1000
0000
0100
0000
,  // measure 11
0220
0000
0000
0000
0000
0030
0000
0000
0000
0000
0000
0000
0000
0000
0300
0000
0000
0000
0000
0000
0000
0000
0000
0000
,  // measure 12
1001
0000
0010
0000
,  // measure 13
0001
0000
0100
0100
,  // measure 14
0100
0000
0010
0000
,  // measure 15
2002
0000
0000
0000
0000
3000
0000
0000
0000
0000
0000
0000
0000
0000
0003
0000
0000
0000
0000
0000
0000
0000
0000
0000
,  // measure 16
2002
3003
0000
0000
0010
0000
0000
0000
,  // measure 17
1000
0000
0100
0100
,  // measure 18
0100
0000
0010
0000
,  // measure 19
0002
0003
2000
3000
,  // measure 20
0010
0000
0000
0000
,  // measure 21
0100
0000
0000
0000
,  // measure 22
0010
0000
0100
0000
,  // measure 23
0010
0010
0020
0030
,  // measure 24
1000
0000
0001
0000
,  // measure 25
0010
0000
0001
0000
,  // measure 26
0100
0000
0010
0000
,  // measure 27
1000
0000
0200
0000
,  // measure 28
0000
0300
0000
0000
0010
0000
0000
0000
,  // measure 29
0001
0000
0100
0000
,  // measure 30
0010
0000
1000
0000
,  // measure 31
0002
0000
0003
0000
,  // measure 32
1001
0000
0000
0000
,  // measure 33
1000
0000
0000
0000
,  // measure 34
0001
0000
0000
0000
,  // measure 35
1000
0000
0000
0000
,  // measure 36
0001
0000
0000
0000
,  // measure 37
0001
0000
0000
0000
,  // measure 38
1000
0000
0000
0000
,  // measure 39
1000
0000
0000
0000
,  // measure 40
0020
0000
0030
0000
,  // measure 41
0200
0000
0300
0000
,  // measure 42
0020
0000
0030
0000
,  // measure 43
0200
0000
0300
0000
,  // measure 44
0001
0000
0000
0000
,  // measure 45
0010
0000
0000
0000
,  // measure 46
0100
0000
0000
0000
,  // measure 47
1000
0000
0000
0000
,  // measure 48
2002
0000
0000
0000
,  // measure 49
0000
0000
0000
0000
,  // measure 50
0000
0000
0000
0000
,  // measure 51
3000
0000
0003
0000
,  // measure 52
1001
0000
0000
0000
,  // measure 53
0010
0000
0000
0000
,  // measure 54
0100
0000
0000
0000
,  // measure 55
0001
0000
0000
0000
,  // measure 56
1000
0000
0000
0000
,  // measure 57
0100
0000
0000
0000
,  // measure 58
0010
0000
0000
0000
,  // measure 59
0100
0000
0000
0000
,  // measure 60
1000
0000
0000
0000
,  // measure 61
0010
0000
0000
0000
,  // measure 62
0100
0000
0000
0000
,  // measure 63
0001
0000
0000
0000
,  // measure 64
0020
0000
0030
0000
,  // measure 65
0002
0000
0003
0000
,  // measure 66
2000
0000
3000
0000
,  // measure 67
0020
0000
0030
0000
,  // measure 68
2002
0000
3003
0000
,  // measure 69
0100
0000
0000
0000
,  // measure 70
0010
0000
0000
0000
,  // measure 71
1000
0000
0000
0000
,  // measure 72
0001
0000
0000
0000
,  // measure 73
1000
0000
0000
0000
,  // measure 74
0100
0000
0000
0000
,  // measure 75
0010
0000
0000
0000
,  // measure 76
0001
0000
0000
0000
,  // measure 77
0100
0000
0000
0000
,  // measure 78
0010
0000
0000
0000
,  // measure 79
1000
0000
0000
0000
,  // measure 80
0002
0000
0003
0000
,  // measure 81
2000
0000
3000
0000
,  // measure 82
0020
0000
0030
0000
,  // measure 83
0200
0000
0300
0000
,  // measure 84
0002
0000
0000
0000
,  // measure 85
0003
0000
0000
0000
,  // measure 86
2000
0000
0000
0000
,  // measure 87
3000
0000
0000
0000
,  // measure 88
0010
0000
0010
0000
,  // measure 89
0010
0000
0010
0000
,  // measure 90
0100
0000
0010
0000
,  // measure 91
0100
0000
0010
0000
,  // measure 92
0200
0000
0000
0000
,  // measure 93
0000
0000
0000
0000
,  // measure 94
0000
0000
0300
0000
;
