#TITLE:コドモライブ;
#SUBTITLE:;
#ARTIST:onoken feat. asami;
#TITLETRANSLIT:Kodomo live;
#SUBTITLETRANSLIT:;
#ARTISTTRANSLIT:;
#GENRE:Warabestep;
#CREDIT:;
#BANNER:Kodomo live-bn.png;
#BACKGROUND:Kodomo live-bg.png;
#LYRICSPATH:;
#CDTITLE:;
#MUSIC:Kodomo live.ogg;
#OFFSET:-0.396000;
#SAMPLESTART:6.137424;
#SAMPLELENGTH:13.150684;
#LASTBEATHINT:247.519455;
#SELECTABLE:YES;
#BPMS:0.000000=146.000000
;
#STOPS:
;
#BGCHANGES:;
#KEYSOUNDS:;
#ATTACKS:;

//---------------dance-single - ----------------
#NOTES:
     dance-single:
     :
     Hard:
     9:
     0.568182,0.508256,0.346236,0.213068,0.807884,385.000000,39.000000,24.000000,0.000000,0.000000,0.000000,0.568182,0.508256,0.346236,0.213068,0.807884,385.000000,39.000000,24.000000,0.000000,0.000000,0.000000:
// measure 0
0000
0000
0000
0000
,  // measure 1
0000
0000
0000
0000
,  // measure 2
0000
0000
0000
0000
,  // measure 3
1000
0000
0000
0000
0001
1000
0001
0000
0010
0000
0001
0000
0100
0000
0000
0000
0000
0000
0101
0000
0000
0000
0000
0000
,  // measure 4
1100
0000
0000
0101
0000
0000
1100
0000
0001
1000
0100
0100
,  // measure 5
0001
0000
0000
0010
0001
0100
0010
0000
0000
1010
0000
0000
,  // measure 6
0011
0000
0000
1010
0000
1000
0001
0010
0010
1000
0000
1000
,  // measure 7
0100
0000
0100
0010
0000
0000
0011
0000
0000
0101
0000
0000
,  // measure 8
0011
0000
0000
0101
0000
0001
1000
0000
1000
0010
0000
0010
,  // measure 9
0100
0001
0100
0010
1000
0001
0100
0000
0000
1010
0000
0000
,  // measure 10
0100
0000
0000
0001
0010
0010
1000
0000
0100
0010
0100
1000
,  // measure 11
0001
0000
1000
1010
0000
0000
0001
0010
0001
0010
0100
0010
,  // measure 12
0100
1000
0100
1000
0000
0000
0010
1000
0010
0100
0001
0100
,  // measure 13
0010
0000
0000
0000
1000
0001
1000
0000
0100
0000
0010
0000
0001
0000
0000
0000
0000
0000
0100
0000
0000
0000
0000
0000
,  // measure 14
0021
0000
0000
1030
0000
0010
0001
0000
0001
0100
0000
0100
,  // measure 15
0010
1000
0001
0010
0000
0000
0100
0000
0000
1000
0000
0000
,  // measure 16
1020
0000
0000
0031
0000
0010
1000
0000
1000
0001
0000
0001
,  // measure 17
0100
0000
0010
1000
0001
1000
0010
0000
0010
0100
0000
0100
,  // measure 18
0001
0000
0001
0010
0000
0010
0100
0000
0100
0010
0000
0010
,  // measure 19
0001
0000
1001
0000
0101
0000
2001
0000
0000
3100
0000
0100
,  // measure 20
0010
0100
0010
0001
0000
0001
0100
0000
0001
0100
0000
0010
,  // measure 21
1000
0100
0010
0002
0000
0000
0103
0000
0001
0010
0000
0000
,  // measure 22
0100
0000
1000
0010
0000
0010
0100
0000
0000
0001
0000
1000
,  // measure 23
0001
0000
0000
0110
0000
0000
0010
0000
1000
0100
0000
0000
,  // measure 24
0010
0000
0001
0100
0000
0100
0010
0000
0000
1000
0000
0001
,  // measure 25
1000
0100
0010
0001
0010
0100
1000
0100
1000
0100
0000
0000
,  // measure 26
0010
0001
0010
0001
0000
0000
0001
0000
0001
0100
0000
0100
,  // measure 27
0020
0000
0000
2030
0000
0000
3100
0000
1100
0000
1100
0000
,  // measure 28
0010
0000
0011
0000
0011
0000
1000
0000
0100
0010
0000
0010
,  // measure 29
0001
0000
0001
0100
0010
1000
0020
0000
0000
1000
0000
0000
,  // measure 30
0100
0000
0000
1000
0000
0000
0100
0000
0000
1030
0100
0010
,  // measure 31
0002
0000
0000
0000
1003
0001
1000
0000
0100
0000
1000
0000
0001
0000
0000
0000
0000
0000
0101
0000
0000
0000
0000
0000
,  // measure 32
1000
0000
0000
1100
0000
1000
0010
0010
0001
1000
0000
0010
,  // measure 33
0100
0000
0000
0001
0000
1000
0010
0000
0000
0011
0000
0000
,  // measure 34
0010
0000
0000
1010
0000
0100
0001
0000
0001
0010
0000
0010
,  // measure 35
0001
0010
0010
1000
0000
1000
0100
0000
0000
1001
0000
0000
,  // measure 36
1100
0000
0000
1000
0100
0100
0001
0000
0000
1010
0000
0001
,  // measure 37
0100
0010
0100
0002
0000
0000
0103
0010
0100
0002
0000
0000
,  // measure 38
0103
0010
0100
0002
0000
0000
1003
0000
0000
1001
0000
0000
,  // measure 39
0010
0100
0010
2000
0000
0000
3010
0100
0010
2000
0000
0000
,  // measure 40
3010
0100
0010
2000
0000
0000
3001
0000
0000
1001
0000
0000
,  // measure 41
0010
0000
0010
0100
0000
0000
0010
0000
0010
0001
0000
0000
,  // measure 42
0010
0000
0010
1000
0000
1000
0001
1000
0001
0020
0000
0000
,  // measure 43
0130
0000
0110
0000
0110
0000
1001
0000
1001
0000
1001
0000
,  // measure 44
0001
0010
0001
0010
0100
0010
0100
0000
0100
1000
0100
1000
,  // measure 45
0001
0000
0001
0100
0000
0000
1000
0000
1000
0100
0000
0000
,  // measure 46
0001
0000
0001
0010
0000
0010
0200
0000
0000
0300
0000
0000
,  // measure 47
1000
0000
1000
0010
0000
0000
0001
0000
0001
0010
0000
0000
,  // measure 48
1000
0000
1000
0001
0000
0001
0100
0010
0100
0001
1000
0001
,  // measure 49
0010
0000
0100
1000
0000
0100
0010
0001
0010
0001
0000
0001
,  // measure 50
0100
0000
0100
0010
0000
0010
1000
0000
1001
0000
2002
0000
,  // measure 51
3003
0000
0000
0020
0000
1030
0010
1000
0001
0100
0000
0001
,  // measure 52
0020
0230
0320
0032
,  // measure 53
1003
0000
1000
0001
0010
0010
1000
0000
1000
0001
0100
0100
,  // measure 54
1000
0000
0100
0010
0000
0000
0010
0000
0100
1000
0000
0001
,  // measure 55
0100
0000
0000
0000
0001
1000
0001
0000
0100
0000
0010
0000
2000
0000
0000
0000
0000
0000
0000
0000
0000
0000
0000
0000
,  // measure 56
0000
0000
0000
0000
,  // measure 57
0000
3000
0000
0000
;

//---------------dance-single - ----------------
#NOTES:
     dance-single:
     :
     Medium:
     7:
     0.455306,0.406605,0.097656,0.506037,0.412820,291.000000,11.000000,57.000000,0.000000,0.000000,0.000000,0.455306,0.406605,0.097656,0.506037,0.412820,291.000000,11.000000,57.000000,0.000000,0.000000,0.000000:
0000
0000
0000
0000
,
0000
0000
0000
0000
,
0000
0000
0000
0000
,
0010
0000
1000
0001
0100
0001
0200
0000
0000
0320
0000
0000
,
0230
0000
0000
0320
0000
0000
1030
0000
1000
0100
0000
0100
,
1000
0000
0000
0001
0000
1000
0002
0000
0000
0023
0000
0000
,
0032
0000
0000
0023
0000
0000
0031
0000
0001
1000
0000
1000
,
0001
0000
0000
0100
0000
0010
2000
0000
0000
3200
0000
0000
,
2300
0000
0000
3200
0000
0000
0310
0000
0001
1000
0000
1000
,
0001
0000
0000
0100
0000
0001
2000
0000
0000
3002
0000
0000
,
2003
0000
0000
3002
0000
0000
0013
0000
0010
0100
0000
0100
,
0010
2002
3003
0000
,
0000
0000
2000
3002
,
0103
0000
0001
0010
0001
0010
0100
0000
0000
1000
0000
0000
,
1020
0000
0000
0100
0000
0000
0130
0000
0000
0001
0000
1000
,
0100
0000
0100
1000
0000
0000
0001
0000
0000
0010
0000
0000
,
0120
0000
0000
1000
0000
0000
0130
0000
0000
0010
0000
0001
,
1000
0000
1000
0001
0000
0000
0100
0000
0000
0001
0000
0000
,
0010
0000
0000
0100
0000
0000
1000
0000
0000
0010
0000
1000
,
0001
0000
0010
0000
0100
0000
1000
0000
0000
0020
0000
0000
,
0100
0000
0000
0100
0030
1000
0001
0000
0000
0100
0000
0001
,
1000
0000
1000
0001
0000
0000
0010
0000
0000
0010
0000
0000
,
0100
0000
0000
0100
0000
0000
1000
0000
0000
0001
0000
0001
,
2000
3000
0010
0010
,
1000
0000
0000
1000
0000
0000
0001
0000
0000
0100
0000
0100
,
0001
0000
0000
1001
0000
0000
0100
1000
0100
1000
0000
0000
,
0001
0100
0001
0100
0000
0000
0010
1000
0001
0100
0000
0100
,
0010
0000
0000
1000
0000
0000
0001
0000
0010
0000
0100
0000
,
1000
0000
0100
0000
0010
0000
0002
0000
0000
0203
0000
0000
,
0320
2030
3200
0001
,
1000
0000
0000
0001
0000
0000
1000
0000
0000
0301
0100
1000
,
0200
0000
0000
0310
0100
0010
0200
0000
0000
2300
0000
0000
,
3200
0000
0000
2300
0000
0000
3001
0000
0001
0100
0000
0100
,
0001
0000
0000
1000
0000
0001
0020
0000
0000
0032
0000
0000
,
0023
0000
0000
0032
0000
0000
0103
0000
0100
0001
0000
0001
,
0100
0000
0000
0010
0000
1000
0002
0000
0000
2003
0000
0000
,
3002
0000
0000
2003
0000
0000
3001
0000
0001
0100
0000
0100
,
0010
0100
0010
0100
0000
0000
0001
1000
0001
1000
0000
0000
,
0010
1000
0010
1000
0000
0000
1001
0000
0000
1001
0000
0000
,
0010
0001
0010
0001
0000
0000
0100
0001
0100
0001
0000
0000
,
1000
0010
1000
0010
0000
0000
0011
0000
0000
1100
0000
0000
,
0001
0010
0100
1000
0000
0000
0001
0010
0100
1000
0000
0000
,
0001
0000
0001
0100
0000
0100
0010
0000
0000
1000
0000
0000
,
0100
0000
1000
0000
0010
0000
0100
0000
0001
0000
0010
0000
,
0200
2300
3002
0103
,
0010
0000
0010
0100
0000
0000
0010
0000
0010
0100
0000
0000
,
0001
1000
0001
0000
,
0100
0000
0100
0010
0000
0000
0100
0000
0100
0010
0000
0000
,
1000
0000
0000
0001
0000
0000
1000
0100
0010
0001
0010
0100
,
1000
0000
0000
0101
0000
0000
0001
0000
0100
0001
0000
0000
,
1000
0000
0000
1100
0000
0000
0200
0000
2300
0000
3020
0000
,
0030
0000
0000
1001
0000
0000
0001
0000
1000
0001
0000
0000
,
0020
0230
0320
0230
,
1000
0000
1300
0100
0000
0100
0010
0000
0010
0001
0000
1000
,
0020
0230
0320
0230
,
0301
0000
0001
1000
0100
1000
0002
0000
0000
0000
0000
0000
,
0000
0000
0000
0000
,
0000
0003
0000
0000
;

//---------------dance-single - ----------------
#NOTES:
     dance-single:
     :
     Easy:
     5:
     0.376674,0.406605,0.577060,0.150923,0.150923,215.000000,65.000000,17.000000,0.000000,0.000000,0.000000,0.376674,0.406605,0.577060,0.150923,0.150923,215.000000,65.000000,17.000000,0.000000,0.000000,0.000000:
0000
0000
0000
0000
,
0000
0000
0000
0000
,
0000
0000
0000
0000
,
0001
1000
0011
1100
,
0011
1100
0010
0010
,
1000
0001
1010
0101
,
1010
0000
0000
0101
0000
0000
1000
0000
0000
1000
0000
0001
,
1000
0010
0110
1001
,
0110
1001
0010
0010
,
0100
0001
0110
1001
,
0110
0000
0000
1001
0000
0000
0010
0000
0000
0010
0000
0100
,
0010
2002
3003
0000
,
0000
0000
0000
0000
,
0010
1001
0102
0000
,
1000
0000
0000
0000
0000
0000
0010
0000
0000
0013
0000
0001
,
0010
0100
2100
0000
,
0010
0000
0001
0000
,
0010
0000
3010
1000
0000
0000
1010
0000
0000
0110
0000
0000
,
1001
0101
1001
1100
,
0100
0000
0010
0000
0001
0000
2000
0000
0000
0010
0000
0000
,
0002
0000
0000
3003
0000
0000
0001
0000
0000
0001
0000
1000
,
0001
0000
0001
1000
0000
0000
0010
0000
0000
0100
0000
0000
,
0010
0100
0001
0010
,
0100
0000
1000
0010
,
1000
0010
0100
0001
,
1000
0000
0100
1000
0000
0000
0100
0000
0000
0011
0000
0000
,
0100
0011
0100
1010
,
0100
0000
0000
0001
0000
0000
1000
0000
1000
0000
1000
0000
,
0001
0000
0001
0000
0001
0000
0100
0000
0000
0010
0000
0000
,
1000
0001
0020
0000
,
0000
0000
0000
0000
0000
0000
0000
0000
0000
0031
1000
0001
,
1000
0010
1100
0011
,
1100
0011
1000
0001
,
0100
0010
0101
1010
,
0101
0000
0000
1010
0000
0000
0100
0000
0000
1000
0000
0001
,
1000
0010
1100
0011
,
0101
0000
0000
1010
0000
0000
0001
0000
0001
1000
0000
1000
,
0200
0000
0300
0110
0000
0000
0020
0000
0030
0110
0000
0000
,
2000
0000
3000
1001
0000
0000
0110
0000
0000
1001
0000
0000
,
0002
0000
0003
0011
0000
0000
2000
0000
3000
1100
0000
0000
,
0020
0000
0030
1010
0000
0000
0101
0000
0000
1010
0000
0000
,
0001
0000
0001
0010
0000
0000
1000
0000
1000
0010
0000
0000
,
0001
0000
0001
0010
0000
0000
0001
0000
0000
1000
0000
0000
,
0010
0000
0010
0000
0010
0000
0100
0000
0100
0000
0100
0000
,
0002
0000
0000
0000
0000
0000
1003
0000
0000
0001
0010
0100
,
1000
0000
1000
0000
,
0001
0100
0100
0000
,
0001
0000
0001
0000
,
0010
0100
2000
3001
,
0101
1001
1100
1001
,
0110
0000
0000
0101
0000
0000
0010
0000
0010
0000
0010
0000
,
0000
0000
0000
1000
0000
0000
0001
0000
0001
0100
0000
0000
,
1010
1010
0101
0101
,
0001
0000
0001
1000
0000
1000
0002
0000
0000
0013
0000
0000
,
1100
1100
0011
0011
,
1000
0000
1000
0001
0000
0001
0020
0000
0000
0000
0000
0000
,
0000
0000
0000
0000
,
0000
0030
0000
0000
;

//---------------dance-single - ----------------
#NOTES:
     dance-single:
     :
     Beginner:
     2:
     0.228287,0.355779,0.355114,0.310724,0.000000,105.000000,40.000000,35.000000,0.000000,0.000000,0.000000,0.228287,0.355779,0.355114,0.310724,0.000000,105.000000,40.000000,35.000000,0.000000,0.000000,0.000000:
0000
0000
0000
0000
,
0000
0000
0000
0000
,
0000
0000
0000
0000
,
0000
0000
1001
1001
,
1001
0000
0010
0000
,
0010
0000
1001
1001
,
1001
0000
0100
0000
,
0001
0000
1001
1001
,
1001
0000
0100
0000
,
1000
0000
1001
1001
,
1001
0000
0010
0000
,
0002
0000
0003
0000
,
0000
0000
0000
0000
,
0010
0010
0020
0030
,
0010
0000
2000
3000
,
1000
1000
0002
0003
,
0001
0000
0200
0300
,
0100
0100
0000
0010
,
0000
0010
0000
1000
,
1000
0000
0001
0000
,
1001
0000
0010
0010
,
0010
0000
0200
0000
,
0300
0000
0020
0000
,
0030
0000
2000
0000
,
3000
0000
0002
0000
,
0003
0000
0011
0000
,
0011
0000
1100
0000
,
1100
0000
2002
0000
,
3003
0000
0220
0000
,
0330
0000
2000
0000
,
0000
0000
3000
0001
,
0002
0003
1001
1001
,
1001
0000
0100
0000
,
0001
0000
1001
1001
,
1001
0000
0010
0000
,
1000
0000
1001
1001
,
1001
0000
0010
0000
,
0000
2002
3003
2002
,
3003
1001
1001
1001
,
0000
0220
0330
0220
,
0330
0110
0110
0110
,
0000
0001
0000
0100
,
0000
0010
0010
0010
,
0020
0000
0030
0000
,
1000
1000
1000
1000
,
2000
0000
0000
0000
,
0000
0000
3000
0000
,
0002
0000
0000
0000
,
0003
0000
0100
0000
,
1001
0000
0010
0000
,
0001
0000
0100
0000
,
0000
0010
0010
0000
,
2000
3000
2000
3000
,
0002
0003
0002
0003
,
0200
0300
0200
0300
,
0020
0030
2002
0000
,
0000
0000
0000
0000
,
0000
3003
0000
0000
;
