#VERSION:0.81;
#TITLE:Jenny;
#SUBTITLE:;
#ARTIST:Studio Killers;
#TITLETRANSLIT:;
#SUBTITLETRANSLIT:;
#ARTISTTRANSLIT:;
#GENRE:Italo House;
#ORIGIN:;
#CREDIT:;
#BANNER:Jenny-bn.png;
#BACKGROUND:Jenny-bg.png;
#PREVIEWVID:;
#JACKET:Jenny-jk.png;
#CDIMAGE:;
#DISCIMAGE:;
#LYRICSPATH:;
#CDTITLE:;
#MUSIC:Jenny.ogg;
#OFFSET:-0.449000;
#SAMPLESTART:36.269897;
#SAMPLELENGTH:28.656708;
#SELECTABLE:YES;
#BPMS:0.000=134.000;
#STOPS:;
#DELAYS:;
#WARPS:;
#TIMESIGNATURES:0.000=4=4;
#TICKCOUNTS:0.000=4;
#COMBOS:0.000=1;
#SPEEDS:0.000=1.000=0.000=0;
#SCROLLS:0.000=1.000;
#FAKES:;
#LABELS:0.000=Song Start,
296.000=Song End;
#LASTSECONDHINT:132.986313;
#BGCHANGES:;
#KEYSOUNDS:;
#ATTACKS:
;

//---------------dance-single - ----------------
#NOTEDATA:;
#CHARTNAME:;
#STEPSTYPE:dance-single;
#DESCRIPTION:;
#CHARTSTYLE:;
#DIFFICULTY:Hard;
#METER:7;
#RADARVALUES:0.480700,0.465093,0.111667,0.498779,0.033500,370.000000,15.000000,67.000000,0.000000,0.000000,0.000000,0.000000,0.000000,0.480700,0.465093,0.111667,0.498779,0.033500,370.000000,15.000000,67.000000,0.000000,0.000000,0.000000,0.000000,0.000000;
#CREDIT:DJ OMiY;
#NOTES:
// measure 0
0000
0000
0000
0000
,  // measure 1
0000
0000
0000
0000
,  // measure 2
0000
0000
0000
0000
,  // measure 3
0000
0000
0000
0000
,  // measure 4
1000
0100
0010
0000
0001
0000
0100
0010
,  // measure 5
0000
0010
1000
0000
0001
0000
0100
0000
,  // measure 6
0001
0000
1000
0001
0001
0000
0100
0001
,  // measure 7
1000
0001
0100
0001
1000
0001
0010
0100
,  // measure 8
1000
0001
0100
0000
0010
0000
0100
0001
,  // measure 9
0000
0001
1000
0000
0100
0000
0010
0100
,  // measure 10
1000
0000
0100
1000
1000
0000
0001
1000
,  // measure 11
0010
1000
0001
1000
0100
1000
0001
0100
,  // measure 12
0010
1000
0100
0000
0010
0000
0010
0000
,  // measure 13
0100
1000
0000
0001
0000
0000
0110
0000
,  // measure 14
0010
0000
1000
0100
0100
0000
0010
0100
,  // measure 15
1000
0100
0010
0100
1000
0100
0001
0100
,  // measure 16
1000
0001
1000
0000
0010
0000
0100
0001
,  // measure 17
0010
0100
0000
1000
0000
0000
0001
0000
,  // measure 18
0100
0000
0001
0010
0010
0000
0001
0010
,  // measure 19
0100
0010
0001
0010
1000
0010
0002
0000
,  // measure 20
0103
0000
0110
0000
1010
1000
0100
0000
,  // measure 21
0010
0100
0020
0000
0032
0000
2003
0000
,  // measure 22
3100
0000
1100
0000
1001
0001
0100
0010
,  // measure 23
1000
0010
0200
0000
0302
1000
2003
0000
,  // measure 24
3100
0000
0110
0000
0011
0000
1000
0001
,  // measure 25
0100
0010
0200
0000
0302
0000
2003
0000
,  // measure 26
3010
0000
0101
0000
1010
0000
0001
1000
,  // measure 27
0100
0010
0002
0000
0023
0000
0230
0000
,  // measure 28
2300
0000
0000
0000
3100
0000
0000
0010
0002
0000
0000
0000
0103
0000
0010
0000
,  // measure 29
1000
0100
2000
0000
3002
0000
0203
0000
,  // measure 30
0320
0000
0000
0000
1030
0000
0000
0001
0200
0000
0000
0000
0310
0000
0000
0000
,  // measure 31
1000
0100
0000
0110
0000
1001
0000
0100
,  // measure 32
0002
0000
0000
0000
0103
0000
0000
0010
2000
0000
0000
0000
3100
0000
0010
0000
,  // measure 33
0001
0100
2000
0000
3200
0000
0302
0000
,  // measure 34
0023
0000
0000
0000
0130
0000
0000
1000
0002
0000
0000
0000
0013
0000
0001
0000
,  // measure 35
0100
0010
2000
0000
3200
0000
0320
0000
,  // measure 36
0031
0000
0000
0000
0100
0000
0010
1000
,  // measure 37
0010
0000
0000
0000
0100
0000
0001
0010
,  // measure 38
0001
0000
0000
0000
1000
0000
0001
0010
,  // measure 39
0200
2300
3002
0023
,  // measure 40
0230
0000
0300
0000
0010
0000
0001
1000
,  // measure 41
0001
0000
0000
0000
0100
0000
0010
1000
,  // measure 42
0010
0000
0000
0000
0100
0001
1000
0000
,  // measure 43
0020
2030
3200
0302
,  // measure 44
0203
0000
1000
0000
1000
0000
1300
0001
,  // measure 45
0010
0001
0100
0010
,  // measure 46
1000
0000
0000
0000
0100
0000
0000
0010
,  // measure 47
0002
0100
1000
0013
,  // measure 48
2000
0000
0100
0000
0100
0000
3100
1000
,  // measure 49
0010
0100
0001
1000
,  // measure 50
0010
0000
0000
0000
1000
0000
0000
0100
,  // measure 51
2000
0010
0001
3100
,  // measure 52
1001
0000
0000
0000
0001
0000
0000
0100
0001
0000
0000
0000
1000
0000
0000
0100
,  // measure 53
1000
0000
0000
0000
0001
0000
0000
0100
0001
0000
0000
0000
1000
0000
0000
0000
,  // measure 54
0010
0000
0000
0000
0100
0000
0000
0010
1000
0000
0000
0000
0010
0000
0000
0100
,  // measure 55
0001
0000
0000
1010
0000
1001
0102
0000
,  // measure 56
1003
0100
1000
0001
0100
0010
1000
0100
,  // measure 57
0010
0010
0002
0000
2003
0000
3020
0000
,  // measure 58
0130
0010
1000
0001
0010
0100
1000
0001
,  // measure 59
0100
0100
0020
0000
1030
0001
0200
0000
,  // measure 60
0320
0000
2030
0000
3100
1000
0001
0100
,  // measure 61
0010
1000
0100
0010
0002
0000
0203
0000
,  // measure 62
0310
1000
0100
1000
0001
0100
0010
1000
,  // measure 63
0100
0100
0020
0000
0230
0000
2300
0000
,  // measure 64
3001
0100
0010
0100
0001
1000
0100
0010
,  // measure 65
0001
1000
0010
0100
0001
1000
0100
1000
,  // measure 66
0020
0000
1000
0000
0230
0000
0001
0301
,  // measure 67
0100
0010
2000
0000
3200
0000
0320
0000
,  // measure 68
0031
1000
0010
1000
0001
1000
0100
0010
,  // measure 69
0001
0100
1000
0100
0001
1000
0100
0010
,  // measure 70
0002
0000
0100
0000
2003
0000
0010
3010
,  // measure 71
0100
0001
2000
0000
3200
0000
0320
0000
,  // measure 72
0032
0000
0000
0000
,  // measure 73
0000
0000
0003
0000
;

//---------------dance-single - ----------------
#NOTEDATA:;
#CHARTNAME:;
#STEPSTYPE:dance-single;
#DESCRIPTION:;
#CHARTSTYLE:;
#DIFFICULTY:Medium;
#METER:5;
#RADARVALUES:0.323302,0.353240,0.089334,0.268001,0.000000,256.000000,12.000000,36.000000,0.000000,0.000000,0.000000,0.000000,0.000000,0.323302,0.353240,0.089334,0.268001,0.000000,256.000000,12.000000,36.000000,0.000000,0.000000,0.000000,0.000000,0.000000;
#CREDIT:DJ OMiY;
#NOTES:
0000
0000
0000
0000
,
0000
0000
0000
0000
,
0000
0000
0000
0000
,
0000
0000
0000
0000
,
1000
0000
0001
0000
0100
0000
0000
0020
,
0000
1030
0100
0000
,
0010
0000
0000
0001
1000
0000
0000
0010
,
0000
0100
0000
0010
0000
0100
0000
0000
,
0001
0000
0000
1000
0100
0000
0000
0020
,
0000
0031
1000
0010
,
1000
0000
0000
0100
0010
0000
0000
0100
,
0000
1000
0000
0100
0000
1000
0000
0000
,
0001
0100
0010
0010
,
1000
0100
0000
0020
0000
0000
0030
0000
,
0001
0000
0000
1000
0010
0000
0000
0100
,
0000
0001
0000
0100
0000
0001
0000
0000
,
1000
0010
0100
0000
0001
0000
1000
0000
,
0001
0010
0000
0200
0000
0000
0300
0000
,
1000
0000
0000
0100
0010
0000
0000
0001
,
0000
1000
0000
0001
0000
0000
0100
0000
,
1001
0010
0100
0001
,
1000
0100
1000
0000
0200
0000
0320
0000
,
0001
0000
0031
0000
1000
0010
0100
0000
,
0010
0000
1000
0000
0001
0010
0200
0000
,
2300
0000
3002
0000
1000
0000
0103
0010
,
1000
0100
0001
0000
0100
0000
0020
0000
,
0000
0000
0030
0000
0000
0000
0001
1000
,
0001
0001
0100
0100
,
0010
1010
0100
0101
,
1000
0100
0010
0000
0010
0000
0100
0000
,
1000
1100
0001
0011
,
0100
0010
0000
1000
0000
0001
0000
0100
,
0001
0101
1000
1010
,
0100
0001
0010
0000
0100
0000
1000
0000
,
0100
1001
0010
0110
,
1000
0001
1000
0000
0010
0000
0100
0000
,
0002
0000
1003
0010
,
2000
0000
3010
0100
,
0020
0000
1030
0100
,
0010
0001
0010
0100
,
2000
0000
3001
0010
,
0200
0000
0310
0001
,
0020
0000
0031
1000
,
0010
1000
0100
0010
,
0002
0000
0100
0000
,
1003
0001
1000
0200
,
0010
0000
1000
0000
,
0301
0100
1000
0001
,
2000
0000
0010
0000
,
3001
1000
0010
0200
,
0010
0000
0001
0000
,
1300
0100
0001
1000
,
1002
0000
0023
0000
,
0230
0000
2300
0000
,
3020
0000
0230
0000
,
0310
0000
0000
1000
0000
0000
0001
0000
,
1001
0110
0001
1000
,
0100
0010
0001
0000
2000
0000
3020
0000
,
0100
0130
0001
0100
,
0010
1000
0001
0000
1000
0100
0200
0000
,
0320
0000
0032
0000
0000
0000
1003
0001
,
0100
0010
0200
0302
,
0010
0000
1003
0000
0001
0000
1000
0010
,
0100
0001
1000
0100
,
0020
0100
0031
0010
,
0100
1000
0001
0100
,
0010
0000
1000
0100
,
1000
0010
0100
0000
0001
0000
1000
0000
,
0200
1000
0310
0100
,
0010
0001
1000
0010
,
0100
0000
0000
0000
0001
0000
0010
0100
,
0010
0100
1000
0000
0001
0000
1000
0000
,
0200
0000
0000
0000
,
0300
0000
0000
0000
;

//---------------dance-single - ----------------
#NOTEDATA:;
#CHARTNAME:;
#STEPSTYPE:dance-single;
#DESCRIPTION:;
#CHARTSTYLE:;
#DIFFICULTY:Easy;
#METER:2;
#RADARVALUES:0.201001,0.218867,0.089334,0.148889,0.000000,157.000000,12.000000,20.000000,0.000000,0.000000,0.000000,0.000000,0.000000,0.201001,0.218867,0.089334,0.148889,0.000000,157.000000,12.000000,20.000000,0.000000,0.000000,0.000000,0.000000,0.000000;
#CREDIT:DJ OMiY;
#NOTES:
0000
0000
0000
0000
,
0000
0000
0000
0000
,
0000
0000
0000
0000
,
0000
0000
0000
0000
,
1000
0000
0001
0000
,
0100
0010
1000
0000
,
0100
0000
0010
0000
,
0001
1000
0001
0000
,
0100
0100
0100
0000
,
0010
1000
0100
0000
,
0010
0000
0001
0000
,
1000
0001
1000
0000
,
0010
0000
0010
0010
,
0100
0000
0001
0000
,
0010
0000
0100
0000
,
1000
0010
1000
0000
,
0001
0001
0001
0000
,
0100
0000
0010
0000
,
1000
0000
0100
0000
,
0010
0100
1000
0000
,
1002
0000
0023
0000
,
0031
0100
0001
0000
,
1000
0000
0010
0000
,
1000
1000
1000
0000
,
0200
0000
0320
0000
,
0130
1000
0001
0000
,
2000
0000
3200
0000
,
0310
0100
1000
0000
,
1001
0000
1001
0000
,
0010
0100
0010
0000
,
1001
0000
1001
0000
,
0100
0001
1000
0000
,
0110
0000
0110
0000
,
0001
0010
0001
0000
,
0110
0000
0110
0000
,
1000
0010
0100
0000
,
0002
0000
0000
0000
,
1000
0000
0100
0000
,
0203
0000
0000
0000
,
0010
0000
0001
0000
,
0320
0000
0000
0000
,
1000
0000
0100
0000
,
2030
0000
0000
0000
,
0100
0000
0001
0000
,
3020
0000
0000
0000
,
1030
1000
0100
1000
,
0000
0000
0001
0000
,
0100
0000
0010
0000
,
0200
0000
0000
0300
,
0001
0001
0010
0001
,
0000
0000
0010
0000
,
0100
0000
1000
0000
,
1001
0000
0001
0000
,
1000
0000
1000
0000
,
0001
0000
1000
0000
,
0001
0000
0001
0000
,
2010
0000
3002
0000
,
0013
0010
0010
0000
,
0100
0000
1000
0000
,
0010
0100
0010
0000
,
2000
0000
3020
0000
,
0130
0100
0100
0000
,
0001
0000
0010
0000
,
0001
0100
0001
0000
,
0020
0000
0130
0000
,
1000
1000
0100
0100
,
0000
0000
0010
0000
,
0001
0010
0100
0000
,
2000
0000
3001
0000
,
0010
0010
0100
0100
,
0000
0000
1000
0000
,
0001
0000
0100
0000
,
2002
0000
0000
0000
,
0000
0000
3003
0000
;

//---------------dance-single - ----------------
#NOTEDATA:;
#CHARTNAME:;
#STEPSTYPE:dance-single;
#DESCRIPTION:;
#CHARTSTYLE:;
#DIFFICULTY:Beginner;
#METER:1;
#RADARVALUES:0.131873,0.109434,0.029778,0.156334,0.000000,99.000000,4.000000,21.000000,0.000000,0.000000,0.000000,0.000000,0.000000,0.131873,0.109434,0.029778,0.156334,0.000000,99.000000,4.000000,21.000000,0.000000,0.000000,0.000000,0.000000,0.000000;
#CREDIT:DJ OMiY;
#NOTES:
0000
0000
0000
0000
,
0000
0000
0000
0000
,
0000
0000
0000
0000
,
0000
0000
0000
0000
,
1000
0000
0100
0000
,
1000
0000
0010
0000
,
0100
0000
0000
0000
,
0010
0000
0000
0000
,
0100
0000
0001
0000
,
0010
0000
0001
0000
,
0100
0000
0000
0000
,
0010
0000
0000
0000
,
1000
0000
0100
0000
,
0010
0000
0001
0000
,
0010
0000
0000
0000
,
0100
0000
0000
0000
,
1000
0000
0001
0000
,
1000
0000
0010
0000
,
0100
0000
0000
0000
,
0001
0000
0000
0000
,
1001
0000
0000
0000
,
0010
0000
0100
0000
,
0010
0000
0000
0000
,
0001
0000
1000
0000
,
1001
0000
0000
0000
,
0100
0000
0010
0000
,
1000
0000
0000
0000
,
0100
0000
0010
0000
,
0002
0000
0003
0000
,
0100
0000
0010
0000
,
2000
0000
3000
0000
,
0010
0000
1000
0000
,
0200
0000
0300
0000
,
1000
0000
0001
0000
,
0020
0000
0030
0000
,
0100
0000
0100
0000
,
2000
0000
3000
0000
,
0020
0000
0030
0000
,
0200
0000
0300
0000
,
0002
0000
0003
0000
,
0020
0000
0030
0000
,
0200
0000
0300
0000
,
2000
0000
3000
0000
,
0020
0000
0030
0000
,
0100
0000
0001
0000
,
0100
0000
0001
0000
,
0100
0000
0100
0000
,
0100
0000
0000
0000
,
0010
0000
1000
0000
,
0010
0000
1000
0000
,
0010
0000
0010
0000
,
0010
0000
0000
0000
,
0200
0000
0300
0000
,
0200
0000
0300
0000
,
0020
0000
0030
0000
,
0020
0000
0030
0000
,
1001
0000
0000
0000
,
0010
0000
0100
0000
,
0001
0000
0000
0000
,
1000
0000
0010
0000
,
1001
0000
0000
0000
,
0010
0000
0100
0000
,
1000
0000
0000
0000
,
0100
0000
0010
0000
,
0002
0000
0003
0000
,
0100
0000
0010
0000
,
2000
0000
3000
0000
,
0100
0000
0010
0000
,
0002
0000
0003
0000
,
1000
0000
0100
0000
,
0020
0000
0030
0000
,
0100
0000
1000
0000
,
0020
0000
0000
0000
,
0000
0000
0030
0000
;
