#TITLE:Jack in the Box;
#SUBTITLE:;
#ARTIST:Ancraft;
#TITLETRANSLIT:;
#SUBTITLETRANSLIT:;
#ARTISTTRANSLIT:;
#GENRE:;
#CREDIT:;
#BANNER:Jack in the Box-bn.png;
#BACKGROUND:Jack in the Box-bg.png;
#LYRICSPATH:;
#CDTITLE:;
#MUSIC:Jack in the Box.ogg;
#OFFSET:-0.523000;
#SAMPLESTART:81.163002;
#SAMPLELENGTH:15.360001;
#SELECTABLE:YES;
#BPMS:0.000000=249.999985
;
#STOPS:
;
#BGCHANGES:;
#KEYSOUNDS:;
#ATTACKS:;

//---------------dance-single - S-HEAVY----------------
#NOTES:
     dance-single:
     DJ OMiY-HSP:
     Hard:
     9:
     0.680914,0.830154,0.592669,0.358941,0.000000,571.000000,500.000000,71.000000,43.000000,0.000000,0.000000,0.680914,0.830154,0.592669,0.358941,0.000000,571.000000,500.000000,71.000000,43.000000,0.000000,0.000000:
0000
0000
0000
0000
,
0000
0000
0000
0000
,
0000
0000
0000
0000
,
0000
0000
0000
0000
,
0000
0000
0000
0000
,
0000
0000
0000
0000
,
0000
0000
0000
0000
,
0010
0100
0010
1001
,
0110
0000
0001
0000
1000
0000
0100
0020
,
0000
0130
1000
1000
,
0101
0000
1000
0000
0001
0000
0010
0200
,
0000
0310
0010
0001
,
0110
0000
1000
0000
0001
0000
0010
0002
,
0000
1003
0100
0100
,
1001
0000
0010
0000
1000
0000
0001
0100
,
0010
0100
0010
0000
1000
0100
1000
0000
,
0001
0000
0100
0000
0010
0000
0100
0001
,
0000
0001
1000
0000
0100
0010
0100
0000
,
1000
0000
0010
0000
1000
0000
0001
0100
,
0000
0100
0001
0000
1000
0100
1000
0000
,
0002
0000
0103
0002
0000
0013
0001
1000
,
0001
0000
0010
0000
0100
1000
0100
0000
,
1000
0000
0010
0000
1000
0000
0001
0010
,
0000
0010
0001
0000
1000
0010
1000
0000
,
0100
0100
0010
0010
,
0100
0100
1000
1000
,
0001
0010
0001
0100
0010
0100
0010
1000
,
0010
1000
0100
1000
0100
0010
0001
0000
,
1000
0000
1100
0000
0100
0010
0001
0000
,
1000
0000
0000
0001
0000
0000
1000
0000
,
0010
0100
0000
0010
0000
1000
0010
0000
,
0100
0000
0000
0001
0000
0000
1000
0000
,
0001
0010
0001
0000
1000
0100
1000
0000
,
0010
0000
0000
0100
0000
0000
0010
0000
,
1000
0000
0001
1000
0000
1000
0010
0000
,
1000
0100
0010
0001
1000
0100
0010
0001
,
0000
0000
1001
0000
1000
0001
1000
0000
,
0110
0000
0000
0101
0000
0000
1100
0000
,
0010
0001
0000
1000
0000
0001
0100
0000
,
0101
0000
0000
1010
0000
0000
0101
0000
,
1000
0100
1000
0000
0100
0000
0100
0000
,
0010
0001
0010
0000
0001
0000
0001
0000
,
1000
0010
0100
0010
1000
0010
0100
0010
,
2000
3200
0320
0032
,
1003
0000
0001
0000
0100
0000
0001
0010
,
0000
0010
0001
0000
1000
0100
1000
0000
,
0010
0000
0100
0000
0001
0000
1000
0100
,
0000
0100
1000
0000
0010
1000
0010
0000
,
0100
0001
0100
0010
1000
0100
1000
0001
,
0010
0100
0010
0001
,
1000
0100
1000
0010
0100
0010
1000
0001
,
0020
0000
0030
0001
,
0101
0010
0101
0010
,
0101
1000
0001
1000
,
1010
0100
1010
0100
,
1010
0001
0100
0001
,
1100
0110
0011
1100
,
0101
0110
1010
1001
,
0001
0010
0100
1000
0100
0010
0001
0010
,
0100
1000
0100
0010
0001
0010
0100
1000
,
0001
0000
0000
0000
0100
0000
0000
0100
,
0000
0010
0100
0001
,
0001
0000
0000
0000
1000
0000
0000
0100
,
0000
0010
0100
1000
,
1000
0000
0000
0000
0010
0000
0000
0100
,
0000
0010
0010
1000
,
0001
0000
0000
0010
0000
0000
0001
1000
,
0001
0000
0010
0100
0010
0000
0001
0000
,
1000
0000
0100
0000
1000
0100
0000
0010
,
0000
0010
0100
0000
1000
0000
0001
0000
,
0100
0000
0001
0000
0010
0001
0000
0001
,
0000
0010
0100
0000
0010
0000
0002
0000
,
1003
0000
0001
0000
0100
0001
0000
1000
,
0000
0001
0100
0000
0010
0000
1000
0000
,
0100
0000
1000
0000
0010
1000
0000
0100
,
0000
0010
0100
0000
0010
0001
0010
0000
,
1001
0000
0000
0000
0101
0000
0000
1002
,
0000
0103
1010
0000
,
0011
0000
0000
0000
0110
0000
0000
2100
,
0000
3010
1001
0000
,
0001
0010
0001
0010
0001
0010
0001
0010
,
0100
1000
0100
1000
0100
1000
0100
1000
,
0010
0100
0001
1000
0100
0010
0100
1000
,
0001
0000
0000
0110
,
1001
0000
0010
0000
0001
0000
0100
0001
,
0000
0001
1000
0000
2200
0000
3300
0000
,
0110
0000
1000
0000
0001
0000
1000
0100
,
0000
0100
0010
0000
0220
0000
0330
0000
,
0011
0000
0100
0000
1000
0000
0001
0100
,
0000
0100
0001
0000
2020
0000
3030
0000
,
1100
0000
0001
0000
0100
0000
0001
0010
,
0000
1100
0101
0101
,
1010
0000
0001
0000
0100
0000
0001
1000
,
0000
1000
0100
0000
0012
0000
1003
0000
,
0110
0000
0001
0000
1000
0000
0010
1000
,
0000
0001
0100
0000
2001
0000
3010
0000
,
0110
0000
0001
0000
1000
0000
0100
1000
,
0000
0100
0010
0000
0102
0000
1003
0000
,
0010
0000
1000
0000
0001
0000
0001
0020
,
0000
0001
0130
0000
,
0100
1000
0200
0000
1300
0010
2000
0000
,
3001
0100
0002
0000
0013
0001
0020
0000
,
0031
0100
0002
0000
1003
0010
2000
0000
,
3001
1000
0002
0000
0013
0100
0020
0000
,
0130
1000
0020
0000
0130
0001
2000
0000
,
3010
0100
0002
0000
0013
0100
2000
0000
,
3010
0000
0100
0000
0010
0000
1000
0001
,
0000
0010
0011
1100
,
0101
0000
0001
0000
0011
0000
1000
1100
,
0000
0101
2200
3300
,
0110
0000
1000
0000
1010
0000
0001
0101
,
0000
1100
0202
0303
,
1001
0000
0010
0000
0101
0000
1000
1010
,
0000
1001
0220
0330
,
0101
0000
1000
0000
0001
0000
0010
0200
,
0000
0310
0001
1001
,
0020
0000
0000
0000
,
0030
0000
0000
0000
;

//---------------dance-single - S-STANDARD----------------
#NOTES:
     dance-single:
     DJ OMiY-SSP:
     Medium:
     8:
     0.497270,0.629398,0.200339,0.383983,0.000000,417.000000,393.000000,24.000000,46.000000,0.000000,0.000000,0.497270,0.629398,0.200339,0.383983,0.000000,417.000000,393.000000,24.000000,46.000000,0.000000,0.000000:
// measure 0
0000
0000
0000
0000
,  // measure 1
0000
0000
0000
0000
,  // measure 2
0000
0000
0000
0000
,  // measure 3
0000
0000
0000
0000
,  // measure 4
0000
0000
0000
0000
,  // measure 5
0000
0000
0000
0000
,  // measure 6
0000
0000
0000
0000
,  // measure 7
0010
0010
0010
0100
,  // measure 8
2001
0000
0000
0000
3100
0000
0000
0020
,  // measure 9
0000
0001
0031
0100
,  // measure 10
0102
0000
0000
0000
1003
0000
0000
0200
,  // measure 11
0000
1000
1300
0010
,  // measure 12
0210
0000
0000
0000
0301
0000
0000
0020
,  // measure 13
0000
0100
0130
0010
,  // measure 14
0021
0000
0000
0000
0031
0000
0000
2000
,  // measure 15
0000
0010
3010
0100
,  // measure 16
0001
0001
1000
1000
,  // measure 17
0100
0100
1000
1000
,  // measure 18
0010
0010
0100
0100
,  // measure 19
0001
0001
0010
0010
,  // measure 20
0002
0000
0000
2003
0000
0000
3010
0200
,  // measure 21
0000
0310
0100
0010
,  // measure 22
1000
0000
0100
0000
1000
0000
0001
2000
,  // measure 23
0000
0001
0001
3100
,  // measure 24
1000
0100
1000
0100
,  // measure 25
0010
0001
0010
0001
,  // measure 26
1000
0001
0100
0001
,  // measure 27
0010
0100
2000
0002
,  // measure 28
3003
0000
0010
0000
0000
0100
0000
0000
,  // measure 29
1001
0000
0000
0100
0000
0000
0001
0000
,  // measure 30
0000
0010
0000
0001
0000
1000
0100
0000
,  // measure 31
1000
0000
0000
0001
0000
0000
1000
0000
,  // measure 32
0020
0000
0130
0000
0000
0001
0000
0000
,  // measure 33
1100
0000
0000
0001
0000
0000
0100
0000
,  // measure 34
0010
0000
1000
0001
0000
0001
1000
0000
,  // measure 35
0001
0011
1000
2200
,  // measure 36
3300
0000
0001
0000
0000
1000
0000
0000
,  // measure 37
0110
0000
0000
1000
0000
0000
0001
0000
,  // measure 38
0000
0010
0000
0100
0000
0010
0001
0000
,  // measure 39
1000
0000
0000
0010
0000
0000
1000
0000
,  // measure 40
0100
0010
0200
0000
0000
0000
0300
0000
,  // measure 41
1000
0001
2000
0000
0000
0000
3000
0000
,  // measure 42
0002
0203
0320
2030
,  // measure 43
3001
1001
0110
1001
,  // measure 44
0010
0000
1000
0000
0100
0000
1000
0001
,  // measure 45
0000
0010
0001
0100
,  // measure 46
0010
0000
0100
0000
0001
0000
1000
0100
,  // measure 47
0000
1000
0010
0100
,  // measure 48
0010
0001
0010
1000
,  // measure 49
1001
0010
0001
2000
,  // measure 50
3000
0010
0100
0002
,  // measure 51
2000
0000
3003
0100
,  // measure 52
0001
0010
1000
0010
,  // measure 53
0001
1000
0100
0010
,  // measure 54
0100
1000
0010
0100
,  // measure 55
0001
1000
0001
0010
,  // measure 56
0100
1100
1000
1100
,  // measure 57
0010
0011
0001
0011
,  // measure 58
0001
0000
1000
0100
0000
0001
0100
0000
,  // measure 59
1000
0010
0000
0001
0010
0000
1000
0000
,  // measure 60
0002
0000
0000
0000
1000
0000
0000
1003
,  // measure 61
0000
0001
0010
0001
,  // measure 62
2000
0000
0000
0000
0001
0000
0000
3001
,  // measure 63
0000
1000
0010
1000
,  // measure 64
0002
0000
0000
0000
1000
0000
0000
1003
,  // measure 65
0000
0001
0010
0100
,  // measure 66
2000
0000
0000
0010
0000
0000
3010
0000
,  // measure 67
0000
0010
0010
0000
,  // measure 68
0100
0000
0001
0000
1000
0000
0000
0010
,  // measure 69
0000
1000
0100
0000
,  // measure 70
1000
0000
0001
0000
0010
0000
0000
0001
,  // measure 71
0000
0100
0010
2000
,  // measure 72
3100
0000
1000
0000
0001
0000
0000
0010
,  // measure 73
0000
0001
0100
0000
,  // measure 74
0010
0000
0100
0000
0001
0000
0000
1000
,  // measure 75
0000
0100
0100
0000
,  // measure 76
0010
0100
0010
0100
,  // measure 77
1000
0100
1000
0100
,  // measure 78
0010
0001
0010
0001
,  // measure 79
1000
0010
1000
0010
,  // measure 80
0200
0302
0023
0032
,  // measure 81
2003
3200
2300
3020
,  // measure 82
0130
0001
0100
0000
0010
1000
0020
0000
,  // measure 83
0130
0000
0000
0000
,  // measure 84
1001
0000
1000
0000
0100
0000
1000
0001
,  // measure 85
0000
0001
0100
0000
0010
0000
0000
0000
,  // measure 86
0100
0000
0001
0000
0010
0000
0100
1000
,  // measure 87
0000
1000
0100
0000
1000
0000
0000
0000
,  // measure 88
0010
0000
0100
0000
0001
0000
1000
0010
,  // measure 89
0000
0010
0100
0000
0001
0000
0000
0000
,  // measure 90
0010
0000
0001
0000
1000
0000
0001
0100
,  // measure 91
0000
0020
0100
0130
,  // measure 92
0010
0000
1000
0000
0001
0000
1000
0100
,  // measure 93
0000
0100
1000
0000
0001
0000
0000
0000
,  // measure 94
0100
0000
0001
0000
1000
0000
0001
0100
,  // measure 95
0000
0100
0010
0000
0100
0000
0000
0000
,  // measure 96
0001
0000
1000
0000
0001
0000
0010
0100
,  // measure 97
0000
0100
0010
0000
0001
0000
0100
0000
,  // measure 98
0001
0000
1000
0000
0100
0000
2000
0002
,  // measure 99
0000
3003
1001
0000
,  // measure 100
0110
0000
0000
0000
0001
0000
0000
1000
,  // measure 101
0000
0010
1000
0000
,  // measure 102
1100
0000
0000
0000
0010
0000
0000
0001
,  // measure 103
0000
1000
0100
0000
,  // measure 104
0101
0000
0000
0000
0010
0000
0000
0001
,  // measure 105
0000
1000
0010
0100
,  // measure 106
1010
0000
0000
0000
0100
0000
0000
0001
,  // measure 107
0000
2000
0100
3100
,  // measure 108
1100
1000
0001
0100
,  // measure 109
0010
0000
1000
0000
0001
0010
0001
0010
,  // measure 110
0100
1000
0100
0010
,  // measure 111
0001
0000
0100
0000
0010
1000
0010
1000
,  // measure 112
0001
0100
0001
1000
,  // measure 113
0100
0000
1000
0000
0001
0100
0001
0100
,  // measure 114
0010
0000
1000
0000
0100
0000
1000
0010
,  // measure 115
0000
0200
0010
0020
,  // measure 116
0330
0000
0000
0000
;

//---------------dance-single - S-LIGHT----------------
#NOTES:
     dance-single:
     DJ OMiY-LSP:
     Easy:
     6:
     0.389945,0.434798,0.066780,0.367288,0.000000,327.000000,319.000000,8.000000,44.000000,0.000000,0.000000,0.389945,0.434798,0.066780,0.367288,0.000000,327.000000,319.000000,8.000000,44.000000,0.000000,0.000000:
0000
0000
0000
0000
,
0000
0000
0000
0000
,
0000
0000
0000
0000
,
0000
0000
0000
0000
,
0000
0000
0000
0000
,
0000
0000
0000
0000
,
0000
0000
0000
0000
,
0100
0100
0100
0000
,
0110
0000
0000
0000
2002
0000
0000
3003
,
0000
1000
0100
1000
,
0100
0000
0000
0000
0020
0000
0000
0030
,
0000
0001
0010
0001
,
0010
0000
0000
0000
0002
0000
0000
0003
,
0000
1000
0010
1000
,
0010
0000
0000
0000
0200
0000
0000
0300
,
0010
0010
0100
0100
,
0001
0000
1000
0000
,
0010
0100
0001
0000
,
1000
0000
0100
0000
,
0010
0100
1000
0000
,
0101
0000
1001
0000
,
1100
0000
1001
0000
,
1000
0010
0100
0000
,
0100
0001
0010
0000
,
0001
0001
0001
0100
,
1000
1000
1000
0100
,
0010
0100
0001
1000
,
0020
0200
0000
0330
,
0110
0000
0100
0000
,
0001
0000
0000
0001
0000
0000
0001
0000
,
1000
0100
0100
0000
,
1000
0000
0000
1000
0000
0000
1000
0000
,
0020
1030
0001
0000
,
0100
0000
0000
0100
0000
0000
0100
0000
,
0010
0000
1000
0000
,
0001
0100
0010
1000
,
0000
1001
0000
0100
,
0010
0000
0000
0010
0000
0000
0010
0000
,
1000
0000
0001
0000
,
1000
0000
0000
0001
0000
0000
1000
0000
,
0010
0020
0030
0000
,
0100
0200
0300
0000
,
0001
0100
0001
0100
,
0010
1000
0100
0010
,
0001
1000
0002
0003
,
1000
0100
2000
3000
,
0010
0100
0001
0100
,
0010
0100
0002
0003
,
1000
0100
0010
0001
,
0010
0100
2000
3000
,
0000
0010
0100
0002
,
2000
0000
3003
0000
,
0020
0000
2030
0000
,
3002
0000
0023
0000
,
0032
0000
0203
0000
,
2300
0000
3200
0000
,
0301
1000
0100
1000
,
0001
0100
0010
1000
,
0002
0000
0003
2000
0000
3000
0200
0000
,
0300
0020
0000
0030
0200
0000
0300
0000
,
1000
0000
0001
0000
,
0100
0000
0001
0010
,
0100
0000
0010
0000
,
0001
1000
0100
1000
,
0010
0000
0100
0000
,
0001
0000
0001
1000
,
0010
0000
0100
0000
,
0010
0100
0100
0010
,
2000
0000
3001
0000
,
0002
0100
0103
0000
,
0020
0000
0130
0000
,
0002
1000
2000
3003
,
2000
0000
3100
0000
,
0020
0100
0130
0000
,
0020
0000
0031
0000
,
2000
0010
3010
0000
,
0100
0000
0000
0000
0001
0000
0000
0100
,
0000
0001
0100
0000
,
0010
0000
0000
0000
0100
0000
0000
0010
,
0000
0100
0010
0000
,
1000
0001
0100
0001
,
1000
0100
0010
0100
,
2000
3002
0203
0320
,
2030
0000
0000
3000
,
0001
0100
0001
0100
,
0010
0100
0001
0000
,
1000
0100
1000
0100
,
0010
0100
1000
0000
,
0010
0100
0001
1000
,
0010
1000
0100
0000
,
0010
0000
0001
0000
1000
0000
0000
0001
,
0000
0200
0010
0310
,
0100
0001
1000
0100
,
0010
0100
1000
0000
,
0010
1000
0100
0010
,
0001
0100
0010
0000
,
0100
0001
0010
0001
,
0100
1000
0100
0000
,
0001
0000
0000
0000
0100
0000
0000
0001
,
0000
1000
1000
0000
,
0100
0000
0000
0000
0010
0000
0000
0010
,
0000
0100
0010
0000
,
0001
0000
0000
0000
1000
0000
0000
1000
,
0000
0001
1000
0000
,
0010
0000
0000
0000
0100
0000
0000
0100
,
0000
0010
0100
0000
,
0001
0000
0000
0000
1000
0000
0000
0001
,
0000
0010
0100
0100
,
1000
0010
0100
0010
,
1000
0001
0010
0010
,
0001
1000
0010
0100
,
0010
1000
0100
0100
,
0010
0001
1000
0010
,
0100
0001
1000
1000
,
0010
0000
0100
0000
0010
0000
0000
1000
,
0000
0001
1000
0001
;

//---------------dance-single - BEGINNER----------------
#NOTES:
     dance-single:
     DJ OMiY-BEG:
     Beginner:
     3:
     0.258771,0.386487,0.100169,0.183644,0.000000,217.000000,205.000000,12.000000,22.000000,0.000000,0.000000,0.258771,0.386487,0.100169,0.183644,0.000000,217.000000,205.000000,12.000000,22.000000,0.000000,0.000000:
0000
0000
0000
0000
,
0000
0000
0000
0000
,
0000
0000
0000
0000
,
0000
0000
0000
0000
,
0000
0000
0000
0000
,
0000
0000
0000
0000
,
0000
0000
0000
0000
,
0010
0010
0010
0000
,
0100
0000
0000
0000
0002
0000
0000
0003
,
0000
0000
1000
0000
,
0100
0000
0000
0000
0020
0000
0000
0030
,
0000
0000
0100
0000
,
1000
0000
0000
0000
0020
0000
0000
0030
,
0000
0000
0100
0000
,
0001
0000
0100
0000
,
0010
0000
1000
0000
,
0100
0000
1000
0000
,
0001
0000
0100
0000
,
0010
0000
0100
0000
,
0001
0000
1000
0000
,
1001
0000
1001
0000
,
1001
0000
0100
0000
,
0001
0000
1000
0000
,
0100
0000
0010
0000
,
0100
0100
0100
0000
,
1000
1000
1000
0000
,
0001
0001
0001
0000
,
0010
0010
0010
0000
,
0100
0000
0010
0000
,
0002
0000
0000
0003
0000
0000
1000
0000
,
1000
0000
0001
0000
,
0200
0000
0000
0300
0000
0000
0010
0000
,
0010
0000
0100
0000
,
0002
0000
0000
0003
0000
0000
0010
0000
,
0010
0000
0100
0000
,
2000
3000
0200
0300
,
0000
1001
0000
0000
,
0020
0000
0000
0030
0000
0000
0100
0000
,
0100
0000
1000
0000
,
0020
0000
0000
0030
0000
0000
0000
0000
,
0100
0100
0000
0000
,
0100
0100
0000
0000
,
0020
0000
0000
0030
,
0010
0000
1000
0000
,
1001
0000
0010
0000
,
1000
0000
0001
0000
,
0010
0000
0001
0000
,
0100
0100
0100
0000
,
0001
0000
0010
0000
,
0100
0000
1000
0000
,
0100
0100
0100
0000
,
0020
0000
0030
0000
,
0001
0000
0010
0000
,
0001
0000
0010
0000
,
0001
0000
0100
0000
,
1000
0000
0100
0000
,
0001
0000
1000
0000
,
0001
0000
1000
0000
,
0010
0010
0010
0000
,
0100
0100
0100
0000
,
0210
0000
0000
0000
,
0000
0000
0300
0000
,
0002
0000
0000
0000
,
0000
0000
0003
0000
,
2000
0000
0000
0000
,
0000
0000
3000
0000
,
0200
0000
0000
0000
,
0300
0000
0010
0000
,
0100
0000
0000
0000
,
1000
0000
0001
0000
,
1000
0000
0000
0000
,
0010
0000
0200
0300
,
0010
0000
0000
0000
,
0100
0000
0001
0000
,
0010
0000
0000
0000
,
0010
0000
0001
0000
,
1000
0000
0100
0000
,
2000
0000
3000
0000
,
0010
0000
0100
0000
,
0020
0000
0030
0000
,
1000
0000
0001
0000
,
1000
0000
0001
0000
,
0010
0000
0100
0000
,
1000
0000
0000
0000
,
1001
0000
0010
0000
,
0010
0000
0100
0000
,
0010
0000
1000
0000
,
0001
0000
1000
0000
,
0010
0000
0100
0000
,
0001
0000
0010
0000
,
0100
0000
0100
0000
,
2000
0000
3000
0000
,
0110
0000
0001
0000
,
1000
0000
0010
0000
,
1000
0000
0100
0000
,
0010
0000
0001
0000
,
0010
0000
0001
0000
,
0100
0000
0010
0000
,
1000
0000
0010
0000
,
0200
0000
0300
0000
,
1001
0000
0010
0000
,
0100
0000
0010
0000
,
1001
0000
0100
0000
,
0020
0000
0030
0000
,
0110
0000
1000
0000
,
0001
0000
1000
0000
,
0110
0000
0001
0000
,
1000
0000
0001
0001
,
0001
0000
0100
0000
,
0010
0010
0010
0000
,
1000
0000
0001
0000
,
1000
1000
1000
0000
,
0100
0000
1000
0000
,
0001
0001
0001
0000
,
0010
0000
0001
0000
,
0100
0100
0100
0100
;
